
//----- song ID: prds -----//
#TITLE:PARADISE;
#ARTIST:Lea Drop feat. McCall Clark;
#BANNER:PARADISE.png;
#BACKGROUND:PARADISE-bg.png;
#CDTITLE:./CDTitles/DDR HOTTEST PARTY3.png;
#MUSIC:PARADISE.ogg;
#SAMPLESTART:42.241;
#SAMPLELENGTH:15;
#BPMS:0=125;
#STAGE:15;
#NOTES:
     dance-single:
     :
     Beginner:
     2:
     :
0000
0000
0000
0000
,
0000
0000
0000
0000
,
0000
0000
0000
0000
,
0000
0000
0000
0000
,
0000
0000
0000
0000
,
0001
0000
0000
0000
,
0001
0000
0000
0000
,
0001
0000
0000
0000
,
0001
0000
0001
0000
,
1000
0000
0000
0000
,
1000
0000
0000
0000
,
1000
0000
0000
0000
,
1000
0000
1000
0000
,
0010
0000
0000
0000
,
0010
0000
0000
0000
,
0100
0000
0000
0000
,
0100
0000
0001
0000
,
1000
0000
0000
0000
,
1000
0000
0000
0000
,
0001
0000
0000
0000
,
0001
0000
0000
0000
,
0110
0000
0000
0000
,
0001
0000
0001
0000
,
0001
0000
0000
0000
,
1000
0000
1000
0000
,
1000
0000
0000
0000
,
0010
0000
0010
0000
,
0010
0000
0000
0000
,
0100
0000
0100
0000
,
0100
0000
0000
0000
,
0001
0000
0000
0000
,
0010
0000
0000
0000
,
0100
0000
0000
0000
,
1000
0000
0000
0000
,
0010
0000
0000
0000
,
0000
0000
0000
0000
,
0010
0000
0000
0000
,
0000
0000
0000
0000
,
0100
0000
0000
0000
,
0001
0000
0000
0000
,
1000
0000
0000
0000
,
0010
0000
0000
0000
,
1000
0000
0001
0000
,
1000
0000
0000
0000
,
0001
0000
1000
0000
,
0001
0000
0000
0000
,
0100
0000
0010
0000
,
0100
0000
0000
0000
,
0010
0000
0100
0000
,
0010
0000
0000
0000
,
1000
0000
0000
0000
,
0001
0000
0000
0000
,
0100
0000
0010
0000
,
0010
0000
0000
0000
,
1000
0000
0000
0000
,
0001
0000
0000
0000
,
0100
0000
0010
0000
,
0010
0000
0000
0000
,
1001
0000
0000
0000
,
0000
0000
0000
0000
;
#NOTES:
     dance-single:
     :
     Easy:
     6:
     :
0000
0000
0000
0000
,
0000
0000
0000
0000
,
0000
0000
0000
0000
,
0000
0000
0000
0000
,
0000
0000
0000
0000
,
1001
0000
0001
0100
,
0010
0000
0010
0100
,
0001
0000
0001
0100
,
0010
0010
1000
0001
,
1001
0000
1000
0100
,
0010
0000
0010
0100
,
1000
0000
1000
0100
,
0010
0010
0001
1000
,
1001
0000
0000
0100
,
0110
0000
0000
0010
,
1010
0000
0000
1000
,
1001
0000
0100
0000
,
0001
0010
0200
0300
,
1000
0010
0200
0300
,
0001
0010
0200
0300
,
1000
0000
0001
0000
,
0200
0000
0000
0300
,
0001
0011
1000
1100
,
0001
0100
0010
0010
,
1000
1100
0001
0011
,
1000
0010
0100
0100
,
0011
0100
0011
0100
,
0001
1000
0001
0001
,
1100
0010
1100
0010
,
1000
0001
1000
1000
,
1001
0100
0010
0000
,
0010
0100
1001
0000
,
0002
0000
0013
0000
,
0001
0000
1000
0000
,
0002
0000
0000
0000
,
0000
0000
0000
0000
,
0000
0000
0000
0000
,
0000
0000
0000
0000
,
0003
1000
0000
1000
,
0000
0001
0000
0001
,
0000
0100
0000
0100
,
0020
0000
0000
0030
,
1000
1100
0001
0101
,
1000
0100
1000
1000
,
0001
0101
1000
1100
,
0001
0100
0001
0001
,
1010
0100
1010
0100
,
0001
0010
0100
1000
,
0101
0010
0101
0010
,
1000
0100
0010
0001
,
1001
0000
0001
0100
,
1000
0000
1000
0100
,
0002
0000
0013
0000
,
0001
0000
0000
1000
,
0001
0100
0001
0010
,
0100
1000
0010
1000
,
0001
0001
1000
1000
,
0100
0010
0001
0100
,
0020
0000
0000
0000
,
0030
0000
0000
0000
,
0000
0000
0000
0000
;
#NOTES:
     dance-single:
     :
     Medium:
     9:
     :
0000
0000
0000
0000
,
0000
0000
0000
0000
,
0000
0000
0000
0000
,
0000
0000
0000
0000
,
0000
0000
0000
0000
,
1001
0000
0000
0001
0100
0000
0001
0000
,
0011
0000
0000
1000
0100
0000
1000
0000
,
1010
0000
0000
0001
0100
0000
0001
0000
,
0021
0000
0000
0000
0130
0000
0000
0000
1000
0000
0010
0000
0000
1000
0000
0000
,
1001
0000
0000
1000
0100
0000
1000
0000
,
1010
0000
0000
0001
0100
0000
0001
0000
,
0011
0000
0000
1000
0100
0000
1000
0000
,
1020
0000
0000
0000
0130
0000
0000
0000
0001
0000
0010
0000
0000
0001
0000
0000
,
1001
0000
0001
0000
1000
0100
0010
0000
,
0001
0000
1000
0000
0001
0100
0010
0000
,
1000
0000
0001
0000
1000
0100
0010
0000
,
0011
0000
0000
0000
0000
0000
0000
0000
1000
0000
1000
0000
0000
0001
0000
0000
,
0100
0000
0010
0000
1000
0001
0100
0000
,
0010
0000
0100
0000
0001
1000
0100
0000
,
0010
0000
0100
0000
1000
0010
0100
0000
,
0001
0000
0000
0000
1000
0000
0000
0000
0001
0000
0000
0100
0000
0000
0010
0000
,
0020
0000
0000
0130
,
0001
0100
0001
0100
0001
0010
0100
0000
,
1000
0000
0100
0000
1000
0000
0100
0000
1000
0000
0010
0000
0000
0100
0000
0000
,
0001
1000
0001
1000
0100
0010
0001
0000
,
0001
0000
0010
0000
0100
0000
1000
0000
0000
0010
0000
0000
0100
0000
0000
0000
,
0001
0010
0001
0010
0100
1000
0001
0000
,
1000
0000
0100
0000
1000
0000
0100
0000
0010
0000
0001
0000
0000
0100
0000
0000
,
0001
1000
0001
0010
0100
1000
0010
0000
,
0100
0000
0001
0000
0010
0000
0000
0000
0001
0000
0001
0000
0000
1000
0000
0000
,
2100
0000
3001
0000
0001
0100
0010
0000
,
2010
0000
3001
0000
0001
0010
0100
0000
,
2000
0000
0000
0000
0010
3010
0000
0000
,
1000
0000
0000
0000
0000
0000
0000
0000
0001
0000
0001
0000
0000
0100
0000
0000
,
0020
0000
0000
0000
,
1000
0000
0000
0000
,
0100
0000
0000
0000
,
0001
0000
0100
0000
,
1030
0000
0000
1000
0000
0000
1000
0000
0000
0000
0000
0000
0000
0000
0000
0000
,
0001
0000
0000
0001
0000
0000
0001
0000
0000
0000
0000
0000
0000
0000
0000
0000
,
0100
0000
0000
0100
0000
0000
0100
0000
0000
0000
0000
0000
0000
0000
0000
0000
,
0020
0000
0000
0030
,
1000
0010
0100
0001
1000
0100
0010
0000
,
0010
0000
0100
0000
1000
0000
0010
0000
0100
0000
0001
0000
0000
1000
0000
0000
,
0100
1000
0001
0100
0001
0010
0100
0000
,
1000
0000
0010
0000
0100
0000
0001
0000
0000
0010
0000
0000
0100
0000
0000
0000
,
1000
0010
0100
0001
1000
0010
0100
0000
,
0001
0000
0100
0000
0010
0000
1000
0000
0001
0000
0010
0000
0000
0100
0000
0000
,
1000
0001
1000
0010
0100
0001
0010
0000
,
0100
0000
1000
0000
0010
0000
0000
0000
1000
0000
1000
0000
0000
0001
0000
0000
,
0102
0000
1003
0000
1000
0100
0010
0000
,
0012
0000
1003
0000
1000
0010
0100
0000
,
0002
0000
0000
0000
0010
0013
0000
0000
,
0001
0000
0000
0000
0000
0000
1000
0000
0000
0010
0000
0000
0100
0000
0000
0000
,
1001
0000
0001
0000
0100
0010
0100
0000
,
0001
0000
0000
0000
1000
0000
0000
0000
0010
0000
0010
0000
0000
0100
0000
0000
,
0001
0010
0001
0010
0001
0010
0100
0000
,
1000
0000
1000
0000
0000
0000
0000
0000
0001
0000
0001
0000
0000
0100
0000
0000
,
0020
0000
0000
0000
,
0030
0000
0000
0000
,
0000
0000
0000
0000
;
#NOTES:
     dance-single:
     :
     Hard:
     12:
     :
0000
0000
0000
0000
,
0000
0000
0000
0000
,
0000
0000
0000
0000
,
0000
0000
0000
0000
,
0000
0000
0000
0000
,
1001
0000
0000
0000
0000
0000
0001
0010
0001
0000
0010
0000
0100
0000
1000
0000
,
1100
0000
0000
0000
0000
0000
0001
1000
0001
0000
0100
0000
0010
0000
0100
0000
,
0110
0000
0000
0000
0000
0000
0010
1000
0010
0000
0100
0000
0001
0000
1000
0000
,
0000
0000
0001
0010
0100
0000
1000
0100
0010
0000
0001
0000
0000
0010
0000
0000
,
0011
0000
0000
0000
0000
0000
1000
0100
1000
0000
0010
0000
0100
0000
0001
0000
,
1001
0000
0000
0000
0000
0000
0001
0100
0001
0000
0010
0000
0100
0000
1000
0000
,
1001
0000
0000
0000
0000
0000
1000
0100
0010
0000
0001
0000
0100
0000
0010
0000
,
0000
0000
0010
0000
0100
0000
0001
0000
0010
0000
0001
0000
0000
0100
0000
0000
,
1001
0000
1000
0100
1000
0000
0001
0100
0000
0010
1000
0000
0100
0000
0000
0000
,
1000
0000
0001
0100
0001
0000
0010
0100
0000
1000
0001
0000
0100
0000
0000
0000
,
0110
0100
0101
0001
0011
0100
1000
0000
,
1001
0000
1000
0000
0100
0000
0010
0000
0011
0000
0011
0000
0000
1100
0000
0000
,
1001
0000
1000
0000
0010
0100
0000
0001
0000
0010
0100
0000
1000
0000
0000
0000
,
0001
0000
0100
0000
0010
1000
0000
0100
1000
0000
0010
0000
0100
0010
0000
0000
,
1000
0000
0001
0010
0100
1000
0100
1000
0000
0001
0100
0000
0010
0000
0000
0000
,
0110
0000
0100
0000
0001
0000
0010
0100
1000
0000
0000
1010
0000
0000
0110
0000
,
2002
0000
0000
3003
,
1100
0000
0001
0100
0001
0000
1000
0100
1000
0000
0010
0100
0010
0000
1000
0000
,
0001
0000
0000
0000
1000
0000
0000
0000
0010
0000
0110
0000
0000
1000
0000
0000
,
1001
0000
1000
0100
1000
0000
0010
0100
0010
0000
1000
0100
1000
0000
0010
0000
,
0100
0000
0000
0000
0001
0000
0011
0000
0000
0100
0000
0000
1100
0000
0000
0000
,
0011
0000
1000
0010
1000
0000
0001
0100
0001
0000
1000
0001
1000
0000
0100
0000
,
0010
0000
0000
0000
0001
0000
0000
0000
0100
0000
0110
0000
0000
0010
0000
0000
,
1001
0000
0001
0010
0001
0000
0100
0010
0100
0000
0001
0010
0001
0000
0010
0000
,
0000
0000
0100
0000
1000
0000
0100
0000
1000
0000
0001
0000
0000
0100
0000
0000
,
0102
1003
2100
3001
0102
1003
2100
0000
,
3001
0000
0010
0000
0100
1000
1010
0000
,
0001
0100
1000
0100
0001
0010
0100
0000
,
1000
0000
0000
0000
0000
0000
0000
0000
0010
0000
0010
0000
0000
0010
0000
0000
,
2000
0000
0000
0000
,
3200
0000
0000
0000
,
0320
0000
0000
0000
,
0032
0000
0000
0000
0000
0000
0000
0000
1000
0000
1000
0000
0000
1000
0000
0000
,
1003
0000
0000
0100
0000
0000
1100
0000
0000
0000
0000
0000
1000
0000
0000
0000
,
0010
0000
0000
0100
0000
0000
0110
0000
0000
0000
0000
0000
0100
0000
0000
0000
,
0001
0000
0000
0010
0000
0000
0011
0000
0000
0000
0000
0000
0010
0000
0000
0000
,
0200
0000
0000
0300
,
1001
0000
1000
0010
0100
0000
0001
1000
0010
0000
0100
0001
1000
0000
0100
0000
,
0010
0000
0000
0000
0001
0000
0000
0000
0100
0000
0110
0000
0000
0101
0000
0000
,
1001
0000
0001
0010
0100
0000
1000
0001
0100
0000
0010
1000
0001
0000
0010
0000
,
0100
0000
0000
0000
1000
0000
1100
0000
0000
0110
0000
0000
0011
0000
0000
0000
,
1100
0000
0001
0100
0010
0000
1000
0001
0100
0000
0010
1000
0001
0000
0010
0000
,
0100
0000
0000
0000
1000
0000
0000
0000
0010
0000
0110
0000
0000
1010
0000
0000
,
1001
0000
1000
0100
0010
0000
0001
1000
0010
0000
0100
0001
1000
0000
0100
0000
,
0000
0000
0010
0000
0001
0000
0010
0000
0001
0000
1000
0000
0000
0010
0000
0000
,
2100
3001
0102
1003
2100
3001
0102
0000
,
1003
0000
0100
0000
0010
0001
0101
0000
,
1000
0010
0001
0010
1000
0100
0010
0000
,
0001
0000
0000
0000
1000
0000
0100
0000
0000
1000
0000
0000
0010
0000
0000
0000
,
0110
0000
0000
0000
0100
0000
0000
0000
0001
0000
0010
0000
0001
1000
0000
0000
,
1100
0000
0000
0000
0010
0000
0000
0000
0001
0000
0001
0000
0000
0100
0000
0000
,
0102
1003
2100
3001
0102
1003
2100
3001
,
0100
0000
0010
0000
0000
0000
0000
0000
0100
0000
0001
0000
0000
0011
0000
0000
,
1200
0000
0000
0000
,
0300
0000
0000
0000
,
0000
0000
0000
0000
;
#NOTES:
     dance-double:
     :
     Easy:
     5:
     :
00000000
00000000
00000000
00000000
,
00000000
00000000
00000000
00000000
,
00000000
00000000
00000000
00000000
,
00000000
00000000
00000000
00000000
,
00000000
00000000
00000000
00000000
,
00001000
00000000
01000000
00010000
,
00100000
00000000
01000000
10000000
,
00100000
00000000
01000000
00010000
,
00100000
00000000
00001000
00000000
,
00010000
00000000
00000100
00001000
,
00000010
00000000
00000100
00000001
,
00000010
00000000
00000100
00001000
,
00000010
00000000
00010000
00000000
,
00001000
00000000
00001000
00000000
,
00010000
00000000
00010000
00000000
,
00000100
00000010
00000001
00000000
,
00000100
00000000
00000010
00000000
,
00010000
00000000
00010000
00000000
,
00001000
00000000
00001000
00000000
,
01000000
00100000
10000000
00000000
,
01000000
00000000
00100000
00000000
,
00020000
00000000
00000000
00030000
,
10000000
01000000
00100000
00010000
,
01000000
00000000
00001000
00010000
,
00000100
00001000
00000010
00000100
,
00000001
00000000
00000010
00000100
,
00001000
00000001
00000100
00000010
,
00010000
00000000
00001000
01000000
,
00100000
10000000
01000000
00100000
,
00010000
00000000
10000000
00000000
,
10000000
01000000
00010000
00000000
,
00001000
00000010
00000001
00000000
,
00000200
00000000
00000310
00000000
,
00010000
00000000
00001000
00000000
,
00020000
00000000
00000000
00000000
,
00230000
00000000
00000000
00000000
,
02300000
00000000
00000000
00000000
,
03020000
00000000
00000000
00000000
,
10030000
10000000
00000000
10000000
,
00000000
01000000
00000000
01000000
,
00000000
00100000
00000000
00100000
,
00020000
00000000
00000000
00030000
,
10000000
00100000
01000000
00010000
,
00100000
00000000
00001000
00010000
,
00000010
00001000
00000100
00000010
,
00000001
00000000
00000100
00000010
,
00001000
00000001
00000010
00000100
,
00010000
00000000
00001000
00100000
,
01000000
10000000
00100000
01000000
,
00010000
00000000
10000000
00000000
,
10000000
01000000
00010000
00000000
,
00001000
00000010
00000001
00000000
,
00000200
00000000
00000310
00000000
,
00010000
00000000
00001000
00000000
,
01000000
00010000
00100000
00001000
,
00010000
00000100
00001000
00000010
,
00010000
00010000
00001000
00001000
,
00011000
00000000
00011000
00000000
,
00022000
00000000
00000000
00000000
,
00033000
00000000
00000000
00000000
,
00000000
00000000
00000000
00000000
;
#NOTES:
     dance-double:
     :
     Medium:
     9:
     :
00000000
00000000
00000000
00000000
,
00000000
00000000
00000000
00000000
,
00000000
00000000
00000000
00000000
,
00000000
00000000
00000000
00000000
,
00000000
00000000
00000000
00000000
,
00011000
00000000
00000000
00001000
00100000
00000000
00010000
00000000
,
00110000
00000000
00000000
00001000
00010000
00000000
00000100
00000000
,
00001100
00000000
00000000
00010000
00001000
00000000
00100000
00000000
,
00010000
00000000
01000000
00000000
00100000
00000000
00000000
00000000
10000000
00000000
01000000
00000000
00000000
00100000
00000000
00000000
,
00001000
00000000
00000000
00010000
00000010
00000000
00001000
00000000
,
00001010
00000000
00000000
00010000
00001000
00000000
01000000
00000000
,
01010000
00000000
00000000
00001000
00010000
00000000
00000010
00000000
,
00001000
00000000
00000100
00000000
00000010
00000000
00000000
00000000
00000001
00000000
00000100
00000000
00000000
00000010
00000000
00000000
,
00010000
00000000
00001000
00000000
01000000
00010000
00100000
00000000
,
00001000
00000000
00010000
00000000
00000100
00001000
00000010
00000000
,
00010000
00000000
00001000
00000000
01000000
00010000
00100000
00000000
,
00001000
00000000
00000000
00000000
00010000
00000000
00000000
00000000
00001000
00000000
00001000
00000000
00000000
00010000
00000000
00000000
,
00011000
00000000
00010000
00000000
00000010
00001000
00000100
00000000
,
00010000
00000000
00001000
00000000
00100000
00010000
01000000
00000000
,
00001000
00000000
00010000
00000000
00000010
00001000
00000100
00000000
,
00010000
00000000
00000000
00000000
00001000
00000000
00000000
00000000
01000000
00000000
00000000
00010000
00000000
00000000
00100000
00000000
,
00020000
00000000
00000000
10030000
,
10000000
01000000
00100000
00010000
01000000
00001000
00010000
00000000
,
00001000
00010000
00000100
00001000
00000010
00000100
00000001
00000000
,
00000001
00000010
00000100
00001000
00000010
00010000
00001000
00000000
,
00001000
00010000
00001000
00100000
00010000
01000000
00100000
00000000
,
10000000
01000000
00100000
00010000
01000000
00001000
00010000
00000000
,
00001000
00010000
00000100
00001000
00000010
00000100
00000001
00000000
,
00000001
00000010
00000100
00001000
00000010
00010000
00001000
00000000
,
00001000
00010000
00001000
00100000
00010000
01000000
00100000
00000000
,
10000000
00000000
01000000
00000000
00010000
00001000
00010000
00000000
,
00001000
00000000
00000010
00000000
00000001
00001000
00000001
00000000
,
00000200
00000000
00000000
00000000
00000010
00000310
00000000
00000000
,
00010000
00000000
00000000
00000000
00000000
00000000
00000000
00000000
00001000
00000000
00001000
00000000
00000000
00010000
00000000
00000000
,
00002000
00000000
00000000
00000000
,
00010000
00000000
00000000
00000000
,
00100000
00000000
00000000
00000000
,
00010000
00000000
01000000
00000000
,
00013000
00000000
00000000
00010000
00000000
00000000
00010000
00000000
00000000
00000000
00000000
00000000
00000000
00000000
00000000
00000000
,
00001000
00000000
00000000
00001000
00000000
00000000
00001000
00000000
00000000
00000000
00000000
00000000
00000000
00000000
00000000
00000000
,
00100000
00000000
00000000
00100000
00000000
00000000
00100000
00000000
00000000
00000000
00000000
00000000
00000000
00000000
00000000
00000000
,
00020000
00000000
00000000
00030000
,
10000000
01000000
00010000
00000000
00001000
01000000
00010000
00000000
,
10000000
01000000
00100000
00001000
00010000
00000010
00000100
00000000
,
00000001
00000100
00001000
00000000
00010000
00000100
00001000
00000000
,
00000001
00000100
00000010
00010000
00001000
00100000
01000000
00000000
,
10000000
00100000
00010000
00000000
00001000
00100000
00010000
00000000
,
10000000
00100000
01000000
00001000
00010000
00000100
00000010
00000000
,
00000001
00000010
00001000
00000000
00010000
00000010
00001000
00000000
,
00000001
00000010
00000100
00010000
00001000
01000000
00100000
00000000
,
10000000
00000000
01000000
00000000
00010000
00001000
00010000
00000000
,
00000010
00000000
00001000
00000000
00000100
00010000
00001000
00000000
,
00200000
00000000
00000000
00000000
00010000
00310000
00000000
00000000
,
00100000
00000000
00000000
00000000
01000000
00000000
10000000
00000000
00000000
00100000
00000000
00000000
01000000
00000000
00000000
00000000
,
00010000
00100000
01000000
00000000
10000000
00100000
00010000
00000000
,
00001000
00010000
00000100
00000000
00000010
00000000
00000001
00000000
,
00000100
00001000
00100000
01000000
,
10000000
00010000
01000000
00000000
00100000
00100000
00000000
00000000
,
10010000
00000000
00000000
00000000
,
00000000
00000000
00000000
00000000
;
#NOTES:
     dance-double:
     :
     Hard:
     12:
     :
00000000
00000000
00000000
00000000
,
00000000
00000000
00000000
00000000
,
00000000
00000000
00000000
00000000
,
00000000
00000000
00000000
00000000
,
00000000
00000000
00000000
00000000
,
00001000
00000000
00000000
00000000
00000000
00000000
00010000
00001000
00010000
00000000
00000100
00000000
00000010
00000000
00000001
00000000
,
00001000
00000000
00000000
00000000
00000000
00000000
00000001
00000100
00000001
00000000
00000010
00000000
00000100
00001000
00000000
00000000
,
00000010
00000000
00000000
00000000
00000000
00000000
00010000
00001000
00010000
00000000
00001000
00000000
01000000
00000000
00010000
00000000
,
00000000
00000000
00010000
00100000
00010000
00000000
00100000
00000000
01000000
00000000
10000000
00000000
00000000
00100000
00000000
00000000
,
01100000
00000000
00000000
00000000
00000000
00000000
01000000
00010000
10000000
00000000
01000000
00000000
00100000
00000000
00010000
00000000
,
00100000
00000000
00000000
00000000
00000000
00000000
00001000
00010000
00001000
00000000
00010000
00000000
00000010
00001000
00000000
00000000
,
00000100
00000000
00000000
00000000
00000000
00000000
00000010
00000001
00000010
00000000
00000100
00000000
00001000
00000000
00000001
00000000
,
00000000
00000000
00000001
00000000
00000010
00000000
00001000
00000000
00010000
00000000
01000000
00000000
00000000
00100000
00000000
00000000
,
00010000
00000000
10000000
00000000
00100000
00000000
10000000
01000000
00000000
00100000
00010000
00000000
01000000
00000000
00000000
00000000
,
00001000
00000000
00010000
00000000
01000000
00000000
00100000
00001000
00000000
00010000
00000010
00000000
00001000
00000000
00000000
00000000
,
00000001
00000000
00000010
00000000
00000100
00000000
00001000
00000010
00000000
00000000
00000100
00000001
00001000
00000000
00000100
00000000
,
00000110
00000000
00000000
00000000
00010000
00000000
00000000
00000000
00001000
00000000
00001000
00000000
00000000
00010000
00000000
00000000
,
00011000
00000000
00001000
00000000
01000000
00010000
00000000
00100000
00000000
00010000
01000000
00000000
00100000
00000000
00000000
00000000
,
10000000
00000000
01000000
00000000
00010000
00000000
00001000
00010000
00000000
00000010
00000100
00000000
00000001
00000010
00000000
00000000
,
00000100
00000000
00001000
00000000
00000001
00000000
00000100
00000010
00000000
00001000
00000100
00000000
00010000
00000000
00000000
00000000
,
00001000
00000000
00000000
00000000
00110000
00000000
00000000
00000000
01000000
00000000
00000000
10000000
00000000
00000000
00100000
00000000
,
02200000
00000000
00000000
03300000
,
00100000
00000000
10000000
01000000
10000000
00000000
01000000
00100000
01000000
00000000
00100000
00000000
00010000
00000000
00100000
00000000
,
00000000
00000000
00001000
00010000
00001000
00000000
00010000
00000000
00000100
00000000
00000010
00000000
00000000
00000001
00000000
00000000
,
00000010
00000000
00000100
00001000
00000100
00000000
00010000
00001000
00010000
00000000
00100000
00000000
00010000
00000000
00001000
00000000
,
00010000
00000000
01000000
00000000
10000000
00000000
00100000
00000000
00000000
01000000
00000000
00000000
00010000
00000000
00000000
00000000
,
00100000
00000000
01000000
10000000
01000000
00000000
00100000
00010000
00100000
00000000
00001000
00000000
00010000
00000000
00001000
00000000
,
00000010
00000000
00000001
00000010
00000100
00000000
00001000
00000000
00000010
00000000
00010000
00000000
00000000
00001000
00000000
00000000
,
00010000
00000000
00000100
00001000
00000100
00000000
00010000
00001000
00010000
00000000
00000010
00001000
00000010
00000000
00010000
00000000
,
00000000
00000000
01000000
00000000
00100000
00000000
00010000
00000000
01000000
00000000
00100000
00000000
00000000
00010000
00000000
00000000
,
00011000
00000000
00010000
00000000
01000000
10000000
00100000
00000000
,
01000000
00000000
00010000
00000000
10000000
01000000
00100000
00000000
,
00210000
00301000
00120000
10030000
00210000
00301000
00120000
00000000
,
10030000
00000000
00000000
00000000
00010000
00000000
00000000
00000000
00100000
00000000
00100000
00000000
00000000
00010000
00000000
00000000
,
20000000
00000000
00000000
00000000
,
32000000
00000000
00000000
00000000
,
03200000
00000000
00000000
00000000
,
00302000
00000000
00000000
00000000
00000000
00000000
00000000
00000000
00010000
00000000
00010000
00000000
00000000
00010000
00000000
00000000
,
00013000
00000000
00000000
00000100
00000000
00000000
00001100
00000000
00000000
00000000
00000000
00000000
00010000
00000000
00000000
00000000
,
00001000
00000000
00000000
01000000
00000000
00000000
01010000
00000000
00000000
00000000
00000000
00000000
00001000
00000000
00000000
00000000
,
00010000
00000000
00000000
00000010
00000000
00000000
00001010
00000000
00000000
00000000
00000000
00000000
00010000
00000000
00000000
00000000
,
00022000
00000000
00000000
00033000
,
00001000
00000000
00100000
00010000
00100000
00000000
00001000
00010000
00001000
00000000
01000000
00000000
00010000
00000000
00100000
00000000
,
00000000
00000000
00001000
00010000
00001000
00000000
00010000
00000000
00000100
00000000
00000010
00000000
00000000
00000001
00000000
00000000
,
00001000
00000000
00000100
00001000
00000100
00000000
00000010
00000001
00000010
00000000
00000100
00000000
00001000
00000000
00000010
00000000
,
00010000
00001000
00010000
01000000
10000000
00010000
01000000
00000000
,
00100000
00000000
10000000
01000000
00100000
00000000
01000000
00100000
00010000
00000000
01000000
00000000
00100000
00000000
00010000
00000000
,
00000000
00000000
00001000
00010000
00001000
00000000
00010000
00000000
00001000
00000000
00000010
00000000
00000000
00000001
00000000
00000000
,
00000100
00000000
00000001
00000010
00000100
00000000
00000010
00000100
00001000
00000000
00000010
00000000
00000100
00000000
00001000
00000000
,
00010000
00000000
00100000
00000000
00010000
00000000
00001000
00000000
00000100
00000000
00000010
00000000
00000000
00010000
00000000
00000000
,
00001000
00000000
00000010
00000000
00000001
00000010
00000100
00000000
,
00001000
00000000
00000001
00000000
00000001
00000100
00000010
00000000
,
00001020
00010030
00002010
00003001
00001020
00010030
00002010
00000000
,
00003001
00000000
00000000
00000000
00001000
00000000
00000100
00000000
00000000
00010000
00000000
00000000
00001000
00000000
00000000
00000000
,
00011000
00000000
00010000
00100000
01000000
00010000
00100000
01000000
,
00010000
00000000
00001000
00000000
00000010
00000000
00000100
00000000
00001000
00000000
00000010
00000000
00000000
00000100
00000000
00000000
,
00001000
00010000
01000000
00010000
00001000
00000100
00001000
00000000
,
00010000
00000000
00001000
00000000
01000000
00000000
00000000
00000000
00010000
00000000
00100000
00000000
00000000
00010000
00000000
00000000
,
20020000
00000000
00000000
00000000
,
30030000
00000000
00000000
00000000
,
00000000
00000000
00000000
00000000
;
