
//----- song ID: open -----//
#TITLE:Open Your Eyes;
#ARTIST:NM feat.JaY_bEe (JB Ah-Fua);
#BANNER:Open Your Eyes.png;
#BACKGROUND:Open Your Eyes-bg.png;
#CDTITLE:./CDTitles/DDR HOTTEST PARTY2.png;
#MUSIC:Open Your Eyes.ogg;
#SAMPLESTART:51.952;
#SAMPLELENGTH:15;
#BPMS:0=82;
#STAGE:2;
#NOTES:
     dance-single:
     :
     Beginner:
     2:
     :
0000
0000
0000
0000
,
0000
0000
0000
0000
,
0000
0000
0000
0000
,
0000
0000
0000
0000
,
0020
0000
0000
0000
,
0030
0000
0000
0000
,
0001
0000
0000
0000
,
0010
0000
0000
0000
,
0001
0000
0000
0000
,
0000
0000
0000
0000
,
1000
0000
0000
0000
,
0100
0000
0000
0000
,
1000
0000
0000
0000
,
0000
0000
0000
0000
,
1000
0000
1000
0000
,
0010
0000
0000
0000
,
0100
0000
0100
0000
,
0010
0000
0000
0000
,
0100
0000
0001
0000
,
0100
0000
0000
0000
,
0001
0000
0001
0000
,
0010
0000
0000
0000
,
1001
0000
0000
0000
,
1001
0000
0000
0000
,
0001
0000
0001
0000
,
0100
0000
0000
0000
,
0000
0000
1000
0000
,
0010
0000
1000
0000
,
0000
0000
1000
0000
,
0100
0000
0001
0000
,
0000
0000
1001
0000
,
0000
0000
0000
0000
;
#NOTES:
     dance-single:
     :
     Easy:
     5:
     :
0000
0000
0000
0000
,
0000
0000
0000
0000
,
0000
0000
0000
0000
,
0000
0000
0000
0000
,
0002
0000
0003
0000
,
2000
0000
3000
0000
,
0001
1000
0001
1000
,
0010
0100
0010
0000
,
1000
0100
0010
0000
,
0001
0100
0010
0000
,
1000
0001
1000
0001
,
0100
0010
0100
0000
,
0001
0010
0100
0000
,
1000
0010
0100
0000
,
0002
0000
0003
0000
,
0001
1000
0010
0000
,
1000
0100
1000
0000
1000
0000
0000
0000
,
0001
0100
0001
0000
0001
0000
0000
0000
,
1000
0000
0001
0000
0010
0100
0010
0000
,
0001
0001
1000
0000
,
0001
0000
1000
0000
0010
0100
0010
0000
,
1000
1000
0001
0000
,
1000
0000
0100
0000
0010
0001
0010
0000
,
0100
1000
0001
0000
,
0001
0000
0100
0000
0010
1000
0010
0000
,
0100
0001
1000
0000
,
2002
3003
1000
1000
,
0010
0000
0001
0001
,
0100
0000
0001
1000
,
0001
1000
0100
0010
,
0100
0000
0220
0000
,
0000
0000
0000
0000
,
0330
0000
0000
0000
,
0000
0000
0000
0000
;
#NOTES:
     dance-single:
     :
     Medium:
     7:
     :
0000
0000
0000
0000
,
0000
0000
0000
0000
,
0000
0000
0000
0000
,
0000
0000
0000
0000
,
2000
3000
0002
0003
,
2002
0000
3003
0000
,
1000
0100
1000
0010
1000
0000
1001
0000
,
0001
0100
0001
0010
0001
0000
0000
0000
,
1000
0100
0010
0001
0000
0001
1000
0000
,
0002
0100
2000
3003
,
0001
0010
0001
0100
0001
0000
1001
0000
,
1000
0010
1000
0100
1000
0000
0000
0000
,
0001
0010
0100
1000
0000
1000
0001
0000
,
2000
0010
0002
3003
,
1000
0100
1000
0100
0010
0001
0100
0001
,
0010
1000
0010
0001
2000
0000
3001
0000
,
0001
0010
0001
0010
0100
1000
0010
1000
,
0100
0001
0100
1000
0002
0000
1003
0000
,
0001
0000
0100
0000
0001
0000
0000
0101
0000
0000
0100
0000
0001
0000
0010
0000
,
0100
0000
1000
0000
0100
0000
0000
1100
0000
0000
1000
0000
0001
0000
0000
0000
,
1000
0000
0010
0000
1000
0000
0000
1010
0000
0000
0010
0000
1000
0000
0100
0000
,
0010
0001
0010
0000
0011
0000
1001
0000
,
1000
0000
0010
0000
0100
0000
0000
1001
0000
0000
0001
0000
1000
0000
0000
0000
,
0001
0100
0001
0100
0010
1000
0001
0000
,
1000
0001
0010
0100
0010
0001
1000
0000
,
1001
0000
0000
0010
0000
0010
0000
0010
0000
0000
0000
0000
1001
0000
0000
0000
,
2002
0000
3003
0000
0001
0010
0100
0010
,
1000
0010
0100
0010
0001
0000
0110
0000
,
1000
0000
0110
0000
1000
0100
0010
0100
,
0001
0100
0010
0100
1000
0000
1010
0000
,
0001
0011
2002
0000
,
0000
0000
0000
0000
,
3003
0000
0000
0000
,
0000
0000
0000
0000
;
#NOTES:
     dance-single:
     :
     Hard:
     9:
     :
0000
0000
0000
0000
,
0000
0000
0000
0000
,
0000
0000
0000
0000
,
0000
0000
0000
0000
,
0002
0003
0200
0300
,
2000
0000
3000
0000
,
0001
0000
0000
0010
0000
0010
0001
0000
0100
0000
0000
0110
0000
0000
0010
0000
,
1000
0000
0000
0000
0000
0000
0000
0000
0000
0010
0000
0000
0000
0000
0000
0010
0000
0000
1000
0000
0000
0000
0000
0000
1001
0000
0000
0000
0000
0000
0000
0000
0000
0000
0000
0000
1000
0000
0000
0000
0100
0000
0000
0000
0010
0000
0000
0000
,
0001
0000
0100
0001
0000
1000
0002
0000
0000
0000
0000
0000
0003
0000
0001
0100
,
0001
0000
0010
0000
1000
0000
0020
0000
0000
0000
0000
0000
0030
0000
0000
0001
,
1000
0000
1000
0100
0000
0100
1000
0000
0010
0000
0000
0110
0000
0000
0000
0000
,
0001
0000
0000
0000
0000
0000
0001
0000
0000
0100
0000
0000
0000
0000
0000
0100
0000
0000
0001
0000
0000
0000
0000
0000
1001
0000
0000
0000
0000
0000
0000
0000
0000
0000
0000
0000
0001
0000
0000
0000
0010
0000
0000
0000
0100
0000
0000
0000
,
1000
0000
0010
1000
0000
0001
0000
2002
0000
0000
0000
0000
3003
0000
1000
0010
,
1000
0100
0001
0100
0000
0100
0010
0001
,
2000
0000
0000
0000
3010
0000
0100
0010
0000
0000
1000
0000
0010
0000
0100
0000
,
0002
0000
0000
0000
0013
0000
0100
0010
0002
0000
0000
0000
0003
0000
0001
0000
,
0001
0000
0000
0000
0000
0000
1000
0000
0000
0100
0000
0000
0000
0000
0000
0100
0000
0000
0000
0000
0000
0010
0000
0000
0000
0000
0000
0000
0000
0000
0000
0000
0000
0000
0000
0000
0001
0000
0000
0000
1000
0000
0000
0000
0001
0000
0000
0000
,
1000
0000
0000
0010
0000
0000
0220
0000
0000
0000
0000
0000
0330
0000
0000
0000
,
1000
0000
0000
0010
0000
0000
0001
0000
0000
0010
0000
0000
1000
0000
0000
0100
0000
0000
0010
0000
0001
0000
0010
0000
,
0001
0000
0000
0000
0000
0000
1000
0000
0000
0010
0000
0000
0000
0000
0000
1000
0000
0000
0000
0000
0000
1001
0000
0000
0000
0000
0000
0000
0000
0000
0000
0000
0000
0000
0000
0000
1000
0000
0000
0000
0100
0000
0000
0000
0010
0000
0000
0000
,
0001
0000
0000
0100
0000
0000
1000
0000
0000
0100
0000
0000
0001
0000
0000
0010
0000
0000
0100
0000
1000
0000
0100
0000
,
1000
0000
0000
0000
0000
0000
0001
0000
0000
0100
0000
0000
0000
0000
0000
0001
0000
0000
0000
0000
0000
0000
0000
0000
0110
0000
0000
0000
0000
0000
1000
0000
0000
0000
0000
0000
0001
0000
0000
0000
0100
0000
0000
0000
0010
0000
0000
0000
,
0100
0000
0000
0000
0000
0000
0001
0000
0000
0000
0000
0000
1000
0000
0000
0010
0000
0000
0000
0000
0000
1001
0000
0000
0000
0000
0000
0001
0000
0000
0100
0000
0000
0000
0000
0000
0001
0000
0000
0000
0010
0000
0000
0000
0001
0000
0000
0000
,
0010
0000
0000
0000
0000
0000
0100
0000
0000
1000
0000
0000
0000
0000
0000
1000
0000
0000
0000
0000
0000
1001
0000
0000
0000
0000
0000
0000
0000
0000
0000
0000
0000
0000
0000
0000
0001
0000
0000
0000
0100
0000
0000
0000
0010
0000
0000
0000
,
1000
0000
0000
0100
0000
0000
0001
0000
0000
0100
0000
0000
0010
0000
0000
0100
0000
0000
1000
0000
0010
0000
0100
0000
,
0010
0000
1000
0001
0000
0100
0000
0110
0000
0000
1000
0000
0001
0000
1000
0000
,
0001
0100
0000
0010
1000
0010
0000
0000
1000
0000
0100
0000
0010
0000
0001
0000
,
0100
0000
0010
0100
0000
0100
0010
0000
1000
0000
0100
0000
0010
0000
0100
0000
,
1000
0000
0001
1000
0000
1000
0001
0000
0010
0000
0100
0000
1100
0000
0000
0000
,
0010
0100
0101
0000
1000
0100
0011
0000
,
0001
0100
0000
0010
1000
0001
0000
0000
2002
0000
0000
0000
0000
0000
0000
0000
,
0000
0000
0000
0000
,
3003
0000
0000
0000
,
0000
0000
0000
0000
;
#NOTES:
     dance-double:
     :
     Easy:
     5:
     :
00000000
00000000
00000000
00000000
,
00000000
00000000
00000000
00000000
,
00000000
00000000
00000000
00000000
,
00000000
00000000
00000000
00000000
,
00002000
00000000
00003000
00000000
,
00020000
00000000
00030000
00000000
,
00001000
00010000
00001000
00000000
,
00010000
00000010
00010000
00000000
,
00001000
00010000
00000100
00001000
,
00000100
00000000
00001001
00000000
,
00000001
00000100
00000001
00000000
,
00001000
00000010
00001000
00000000
,
00000001
00001000
00000100
00010000
,
00001000
00000000
00011000
00000000
,
00002000
00000000
00003000
00000000
,
00010000
00001000
01000000
00000000
,
00010000
00100000
00010000
00000000
00010000
00000000
00000000
00000000
,
10000000
00100000
10000000
00000000
10000000
00000000
00000000
00000000
,
00010000
00000000
01000000
00000000
00100000
10000000
00100000
00000000
,
01000000
00010000
01000000
00000000
,
00010000
00000000
00100000
00000000
00001000
00010000
00001000
00000000
,
00010000
00000010
00001000
00000000
,
00000001
00000000
00000100
00000000
00000001
00000010
00000001
00000000
,
00001000
00000100
00000010
00000000
,
00000001
00000000
00001000
00000000
00000010
00010000
00000010
00000000
,
00010000
00001000
00010000
00000000
,
00022000
00033000
00001000
00010000
,
00001000
00000000
00001000
01000000
,
00010000
00000000
00010000
10000000
,
00010000
10000000
00100000
01000000
,
00100000
00000000
02200000
00000000
,
00000000
00000000
00000000
00000000
,
03300000
00000000
00000000
00000000
,
00000000
00000000
00000000
00000000
;
#NOTES:
     dance-double:
     :
     Medium:
     7:
     :
00000000
00000000
00000000
00000000
,
00000000
00000000
00000000
00000000
,
00000000
00000000
00000000
00000000
,
00000000
00000000
00000000
00000000
,
20000000
30000000
02000000
03000000
,
02200000
00000000
03300000
00000000
,
10000000
01000000
10000000
01000000
00100000
00000000
00001000
00000000
,
00010000
00001000
00010000
00000010
00010000
00000000
00000000
00000000
,
00001000
00010000
00000100
00001000
00000000
00001000
00000100
00000000
,
00000020
00001000
00000002
00000033
,
00000001
00000100
00000001
00000100
00000010
00000000
00010000
00000000
,
00001000
00010000
00001000
00100000
00001000
00000000
00000000
00000000
,
00010000
00001000
01000000
00010000
00000000
00010000
01000000
00000000
,
00200000
00010000
20000000
30300000
,
10000000
00100000
10000000
00100000
01000000
00010000
01000000
00001000
,
00010000
00001000
00000010
00001000
00020000
00000000
00031000
00000000
,
00001000
00010000
00001000
00010000
00000100
00001000
00000010
00001000
,
00000100
00000010
00000001
00000100
00000020
00000000
00000130
00000000
,
00000001
00000000
00000100
00000000
00000001
00000000
00000000
00000011
00000000
00000000
00000010
00000000
00000001
00000000
00001000
00000000
,
00000100
00000000
00010000
00000000
00001000
00000000
00000000
00011000
00000000
00000000
00001000
00000000
00010000
00000000
00000000
00000000
,
00001000
00000000
01000000
00000000
00010000
00000000
00000000
01010000
00000000
00000000
00010000
00000000
00100000
00000000
00010000
00000000
,
10000000
01000000
00010000
00001000
00010000
00000000
00011000
00000000
,
00001000
00000000
00000010
00000000
00000001
00000000
00000000
00001001
00000000
00000000
00001000
00000000
00000001
00000000
00000000
00000000
,
00000001
00000100
00000001
00000100
00000010
00000100
00000001
00000000
,
00000010
00000001
00001000
00000100
00010000
00001000
00010000
00000000
,
00011000
00000000
00000000
00001000
00000000
01000000
00000000
00100000
00000000
00000000
00000000
00000000
01100000
00000000
00000000
00000000
,
20020000
00000000
30030000
00000000
10000000
01000000
00100000
00010000
,
10000000
01000000
00010000
00001000
00000010
00000001
00001001
00000000
,
00000010
00001000
00001001
00000000
00000001
00000100
00000001
00001000
,
00000100
00001000
00000100
00010000
00001000
00000000
00001000
00010000
,
00100000
00000000
00100000
10000000
00020000
00000000
00000000
00000000
,
00000000
00000000
00000000
00000000
,
00030000
00000000
00000000
00000000
,
00000000
00000000
00000000
00000000
;
#NOTES:
     dance-double:
     :
     Hard:
     9:
     :
00000000
00000000
00000000
00000000
,
00000000
00000000
00000000
00000000
,
00000000
00000000
00000000
00000000
,
00000000
00000000
00000000
00000000
,
00002000
00003000
00020000
00030000
,
00022000
00000000
00033000
00000000
,
00001000
00000000
00000000
00100000
00000000
00100000
00010000
00000000
01000000
00000000
00000000
01100000
00000000
00000000
00100000
00000000
,
10000000
00000000
00000000
00000000
00000000
00000000
00000000
00000000
00000000
00010000
00000000
00000000
00000000
00000000
00000000
00010000
00000000
00000000
01000000
00000000
00000000
00000000
00000000
00000000
00010000
00000000
00000000
00000000
00000000
00000000
00000000
00000000
00000000
00000000
00000000
00000000
00100000
00000000
00000000
00000000
00001000
00000000
00000000
00000000
00010000
00000000
00000000
00000000
,
00001000
00000000
00010000
00000010
00000000
00001000
00000020
00000000
00000000
00000000
00000000
00000000
00000030
00000000
00000010
00000100
,
00000010
00000000
00001000
00000000
00000001
00000000
00000200
00000000
00000000
00000000
00000000
00000000
00000300
00000000
00000000
00000001
,
00001000
00000000
00001000
00000100
00000000
00000100
00010000
00000000
00001000
00000000
00000000
00011000
00000000
00000000
00000000
00000000
,
00001000
00000000
00000000
00000000
00000000
00000000
00001000
00000000
00000000
00010000
00000000
00000000
00000000
00000000
00000000
00010000
00000000
00000000
01000000
00000000
00000000
00000000
00000000
00000000
10000000
00000000
00000000
00000000
00000000
00000000
00000000
00000000
00000000
00000000
00000000
00000000
10000000
00000000
00000000
00000000
01000000
00000000
00000000
00000000
00100000
00000000
00000000
00000000
,
00010000
00000000
01000000
00100000
00000000
00010000
00000000
00022000
00000000
00000000
00000000
00000000
00033000
00000000
00001000
00010000
,
00001000
00000100
00000001
00000100
00000000
00000100
00000010
00010000
,
00002000
00000000
00000000
00000000
00013000
00000000
00001000
00010000
00000000
00000000
00001000
00000000
00010000
00000000
01000000
00000000
,
20000000
00000000
00000000
00000000
30100000
00000000
01000000
00010000
00200000
00000000
00000000
00000000
00300000
00000000
00100000
00000000
,
00100000
00000000
00000000
00000000
00000000
00000000
00001000
00000000
00000000
00010000
00000000
00000000
00000000
00000000
00000000
00010000
00000000
00000000
00000000
00000000
00000000
00011000
00000000
00000000
00000000
00000000
00000000
00000000
00000000
00000000
00000000
00000000
00000000
00000000
00000000
00000000
00010000
00000000
00000000
00000000
00000010
00000000
00000000
00000000
00001000
00000000
00000000
00000000
,
00000010
00000000
00000000
00000100
00000000
00000000
00000220
00000000
00000000
00000000
00000000
00000000
00000330
00000000
00000000
00000000
,
00000001
00000000
00000000
00000100
00000000
00000000
00000010
00000000
00000000
00001000
00000000
00000000
00000001
00000000
00000000
00000010
00000000
00000000
00000100
00000000
00001000
00000000
00000100
00000000
,
00010000
00000000
00000000
00000000
00000000
00000000
00001000
00000000
00000000
00010000
00000000
00000000
00000000
00000000
00000000
00001000
00000000
00000000
00000000
00000000
00000000
00011000
00000000
00000000
00000000
00000000
00000000
00000000
00000000
00000000
00001000
00000000
00000000
00000000
00000000
00000000
01000000
00000000
00000000
00000000
00010000
00000000
00000000
00000000
00100000
00000000
00000000
00000000
,
00001000
00000000
00000000
00100000
00000000
00000000
00010000
00000000
00000000
00100000
00000000
00000000
01000000
00000000
00000000
10000000
00000000
00000000
00010000
00000000
01000000
00000000
00100000
00000000
,
01000000
00000000
00010000
10000000
00000000
01000000
00000000
00000000
01100000
00000000
00010000
00000000
10010000
00000000
00000000
00000000
,
10000000
00000000
00000000
00000000
00000000
00000000
00010000
00000000
00000000
00000000
00000000
00000000
00100000
00000000
00000000
01000000
00000000
00000000
00100000
00000000
00000000
00010000
00000000
00000000
00000000
00000000
00000000
00010000
00000000
00000000
01000000
00000000
00000000
00000000
00000000
00000000
00001000
00000000
00000000
00000000
00010000
00000000
00000000
00000000
00001000
00000000
00000000
00000000
,
00010000
00000000
00000000
00000000
00000000
00000000
00000100
00000000
00000000
00001000
00000000
00000000
00000000
00000000
00000000
00000010
00000000
00000000
00000000
00000000
00000000
00001001
00000000
00000000
00000000
00000000
00000000
00000000
00000000
00000000
00000000
00000000
00000000
00000000
00000000
00000000
00000001
00000000
00000000
00000000
00000100
00000000
00000000
00000000
00001000
00000000
00000000
00000000
,
00000100
00000000
00000000
00000001
00000000
00000000
00000010
00000000
00000000
00000001
00000000
00000000
00001000
00000000
00000000
00000100
00000000
00000000
00000010
00000000
00000100
00000000
00010000
00000000
,
00001000
00000000
00010000
00100000
00000000
01000000
00000000
01100000
00000000
00000000
10000000
00000000
00010000
00000000
10000000
00000000
,
01000000
00100000
00000000
00010000
10000000
00010000
00000000
00000000
10000000
00000000
00100000
00000000
00010000
00000000
00001000
00000000
,
00010000
00000000
00000100
00001000
00000000
00001000
00000010
00000000
00000100
00000000
00000001
00000000
00000010
00000000
00000100
00000000
,
00001000
00000000
00000001
00000100
00000000
00000100
00000010
00000000
00000100
00000000
00001000
00000000
00010000
00000000
00000000
00000000
,
00010000
00000000
00000000
00100000
00000000
00000000
10000000
00000000
00010000
00000000
00100000
00000000
00001000
00000000
00010000
00000000
,
00000100
00001000
00000000
00000010
00000100
00000001
00000000
00000000
00002002
00000000
00000000
00000000
00000000
00000000
00000000
00000000
,
00000000
00000000
00000000
00000000
,
00003003
00000000
00000000
00000000
,
00000000
00000000
00000000
00000000
;
