
//----- song ID: ondo -----//
#TITLE:ON-DO;
#ARTIST:PONxU1;
#BANNER:ON-DO.png;
#BACKGROUND:ON-DO-bg.png;
#CDTITLE:./CDTitles/DDR A3.png;
#MUSIC:ON-DO.ogg;
#SAMPLESTART:80.002;
#SAMPLELENGTH:15;
#BPMS:0=210;
#STAGE:1;
#NOTES:
     dance-single:
     :
     Beginner:
     3:
     :
0000
0000
0000
0000
,
0000
0000
0000
0000
,
0000
0000
0000
0000
,
0000
0000
0000
0000
,
0000
0000
0000
0000
,
0001
0000
0000
0000
,
0001
0000
0000
0000
,
0010
0000
0000
0000
,
0010
0000
0000
0000
,
0100
0000
0000
0000
,
0000
0000
0000
0000
,
1000
0000
0000
0000
,
0100
0000
0000
0000
,
1000
0000
1000
0000
,
0010
0000
0000
0000
,
0100
0000
0000
0000
,
0001
0000
0000
0000
,
1001
0000
0000
0000
,
0000
0000
0000
0000
,
0001
0000
0000
0000
,
0100
0000
0000
0000
,
0001
0000
0001
0000
,
0010
0000
0000
0000
,
0100
0000
0000
0000
,
1000
0000
0000
0000
,
1001
0000
0000
0000
,
0000
0000
0000
0000
,
1000
0000
1000
0000
,
0010
0000
0000
0000
,
1000
0000
1000
0000
,
0100
0000
0000
0000
,
0010
0000
0000
0000
,
0010
0000
0000
0000
,
1001
0000
0000
0000
,
0000
0000
0000
0000
,
1001
0000
0000
0000
,
0001
0000
0010
0000
,
0001
0000
0000
0000
,
0001
0000
0001
0000
,
0100
0000
0000
0000
,
0010
0000
0000
0000
,
0100
0000
0000
0000
,
1001
0000
0000
0000
,
0000
0000
0000
0000
,
1000
0000
0010
0000
,
1000
0000
0000
0000
,
1000
0000
1000
0000
,
0100
0000
0000
0000
,
0010
0000
0000
0000
,
0100
0000
0000
0000
,
1001
0000
0000
0000
,
0000
0000
0000
0000
,
1001
0000
0000
0000
,
0000
0000
0000
0000
,
1000
0000
1000
0000
,
0010
0000
0000
0000
,
0100
0000
1000
0000
,
0100
0000
0000
0000
,
0010
0000
0010
0000
,
0001
0000
0000
0000
,
0100
0000
0001
0000
,
0100
0000
0000
0000
,
0010
0000
0010
0000
,
0100
0000
0000
0000
,
0001
0000
0100
0000
,
1000
0000
0000
0000
,
1001
0000
0000
0000
,
0000
0000
0000
0000
,
0000
0000
0000
0000
,
0000
0000
0000
0000
,
1000
0000
0000
0000
,
0010
0000
0000
0000
,
0100
0000
0100
0000
,
1000
0000
0000
0000
,
0100
0000
0000
0000
,
0001
0000
0000
0000
,
0001
0000
0000
0000
,
0000
0000
0000
0000
,
0001
0000
0000
0000
,
0010
0000
0000
0000
,
0001
0000
0100
0000
,
0001
0000
0000
0000
,
0010
0000
0010
0000
,
0100
0000
0000
0000
,
1000
0000
0000
0000
,
0000
0000
0000
0000
,
0110
0000
0000
0000
,
0000
0000
0000
0000
,
1001
0000
0000
0000
,
1000
0000
0100
0000
,
0010
0000
0000
0000
,
0001
0000
0100
0000
,
0010
0000
0000
0000
,
1001
0000
0000
0000
,
0000
0000
0000
0000
;
#NOTES:
     dance-single:
     :
     Easy:
     8:
     :
0000
0000
0000
0000
,
0000
0000
0000
0000
,
0000
0000
0000
0000
,
0000
0000
0000
0000
,
0000
0000
0000
0000
,
0001
0000
0100
0000
,
0010
0100
0010
0000
,
1000
0000
0001
0000
,
0010
0100
0010
0000
,
2002
0000
0000
0000
,
0000
0000
3003
0000
,
1000
0010
0100
0010
,
1000
0001
1000
0000
,
0001
0010
1000
0000
,
1000
0010
0001
0000
,
0001
0100
0010
0100
,
0001
1000
0001
0000
,
1000
0100
0001
0000
,
0001
0100
1000
0000
,
0001
0100
0010
1000
,
0100
0010
0001
0000
,
1000
0010
0001
0000
,
0001
0010
1000
0000
,
0001
0010
0100
1000
,
0010
0100
0001
0000
,
0001
0100
1000
0000
,
1000
0100
0001
0000
,
1000
1000
0001
0001
,
1000
0001
1001
0000
,
0010
0100
0010
0000
,
0100
0010
0100
0000
,
0001
0001
1000
1000
,
0001
1000
1001
0000
,
0100
0010
0100
0000
,
0010
0100
0010
0000
,
1001
0000
0110
0000
,
0011
0000
0000
0000
0000
0001
0000
0000
0000
1001
0000
0000
,
0000
0000
0000
0000
,
1010
0000
0000
0000
0000
1000
0000
0000
0000
1001
0000
0000
,
0000
0000
0000
0000
,
0101
0000
0000
0000
0000
0001
0000
0000
0000
1001
0000
0000
,
0000
0000
0000
0000
,
1100
0000
0000
0000
0000
1000
0000
0000
0000
1001
0000
0000
,
0000
0000
0000
0000
,
0110
0000
0000
0000
0000
0100
0000
0000
0000
1001
0000
0000
,
1000
0100
0010
0000
,
0110
0000
0000
0000
0000
0010
0000
0000
0000
1001
0000
0000
,
0001
0010
0100
0000
,
1000
0100
1000
0100
,
0001
0100
1000
0000
,
0001
0100
0001
0100
,
1000
0100
0001
0000
,
2002
0000
0000
0000
,
0000
0000
3003
0000
,
0011
0000
0101
0000
,
0011
0000
0101
0000
,
1010
0000
1100
0000
,
1010
0000
1100
0000
,
0011
0000
1010
0000
,
0011
0000
1010
0000
,
0101
0000
1100
0000
,
0101
0000
1100
0000
,
1001
0000
0110
0000
,
1001
0000
0110
0000
,
1010
0000
1100
0000
,
0101
0000
0011
0000
,
2002
0000
0000
0000
,
3003
0000
0000
0000
,
0220
0000
0330
0000
,
0100
0010
0100
0000
,
0001
0100
0110
0000
,
1000
0001
1000
0000
,
1000
0100
0110
0000
,
0001
1000
0001
0000
,
1000
0100
1100
0000
,
0001
0100
0010
0000
,
1000
0001
0011
0000
,
1000
0100
0010
0000
,
0001
0010
0001
0100
,
0001
0010
0100
1000
,
0010
0010
0100
0100
,
0001
0001
0001
0000
,
1000
0010
1000
0100
,
1000
0010
0100
0001
,
0010
0010
0100
0100
,
1000
1000
1000
0000
,
0001
0001
0001
0000
,
0100
0100
0100
0000
,
0010
0010
0010
0000
,
1010
0000
1100
0000
,
1001
0000
0101
0000
,
0011
0000
0101
0000
,
1001
0000
1100
0000
,
0110
0000
0000
0000
,
0000
0000
0000
0000
;
#NOTES:
     dance-single:
     :
     Medium:
     12:
     :
0000
0000
0000
0000
,
0000
0000
0000
0000
,
0000
0000
0000
0000
,
0000
0000
0000
0000
,
0000
0000
0000
0000
,
1000
0100
0010
0000
,
0001
1000
0000
1001
0000
0000
,
0001
0100
0010
0000
,
1000
0001
0000
1001
0000
0000
,
2002
0000
0000
0000
,
0000
0000
0000
3003
,
1000
0100
1000
0100
,
0010
0001
0010
0010
,
0001
0100
1000
0100
,
0001
0000
0000
0001
0000
0000
1000
0000
0001
1000
0000
0000
,
0001
0100
0010
1000
,
0001
0000
0000
0010
0000
0000
0100
0000
1000
0100
0000
0000
,
1000
0000
0001
1000
0000
0000
0010
0000
0000
0100
0000
0000
,
0001
0000
0000
0001
0000
0000
0010
0000
0001
0010
0000
0000
,
0001
0010
0001
0010
,
0100
1000
0100
0100
,
1000
0010
0001
0010
,
1000
0000
0000
1000
0000
0000
0001
0000
1000
0001
0000
0000
,
1000
0010
0100
0001
,
1000
0000
0000
0100
0000
0000
0010
0000
0001
0010
0000
0000
,
0001
0000
1000
0001
0000
0000
0100
0000
0000
0010
0000
0000
,
1000
0000
0000
1000
0000
0000
0100
0000
1000
0100
0000
0000
,
1000
1000
1100
1100
,
1000
0000
0000
0001
0000
0000
1000
0000
0001
1000
0000
0000
,
0001
0010
1000
0010
,
0001
0000
0100
0001
0000
0000
1000
0000
0010
1000
0000
0000
,
0001
0001
0101
0101
,
0001
0000
0000
1000
0000
0000
0001
0000
1000
0001
0000
0000
,
1000
0010
0001
0010
,
1000
0000
0100
1000
0000
0000
0001
0000
0010
0001
0000
0000
,
0010
0001
0010
0100
1000
0100
,
1000
0000
0000
0001
0000
0100
0000
0000
0000
1001
0000
0000
,
0001
0000
0010
0000
0000
0000
1001
0000
0000
0110
0000
0000
,
0001
0000
0000
1000
0000
0100
0000
0000
0000
1001
0000
0000
,
1000
0000
0010
0000
0000
0000
0110
0000
0000
1001
0000
0000
,
1000
0000
0000
0100
0000
0010
0000
0000
0000
0110
0000
0000
,
0001
0000
0100
0000
0000
0000
0110
0000
0000
1001
0000
0000
,
0001
0000
0000
0010
0000
0100
0000
0000
0000
0110
0000
0000
,
1000
0000
0010
0000
0000
0000
0110
0000
0000
1001
0000
0000
,
1000
0000
0000
0010
0000
0001
0000
0000
0010
1000
0000
0000
,
0001
0001
0100
0100
,
0001
0000
0000
0010
0000
1000
0000
0000
0010
0001
0000
0000
,
1000
1000
0100
0100
,
1000
1100
1000
1100
,
1000
1010
1000
1010
,
0001
0101
0001
0101
,
0001
0011
0001
0011
,
2002
0000
0000
0000
,
0000
0000
0000
3003
,
0001
0010
0001
0010
0001
1000
,
0010
1000
0010
1000
0010
0100
,
0001
0010
0001
0100
0010
0100
,
0010
1000
0010
1000
0100
0010
,
0001
0100
0010
1000
0100
0010
,
0001
0100
0010
1000
0100
0010
,
0001
0010
0100
1000
0010
0100
,
0001
0010
0100
1000
0010
0100
,
0001
0001
0100
0010
0010
0100
,
1000
1000
0100
0010
0010
0100
,
0001
0001
0010
0100
0100
0010
,
1000
1000
0010
0100
0100
0010
,
0002
0000
0000
0000
,
0000
0000
0000
0000
,
2003
0000
0000
3000
,
1000
1000
1000
0000
,
0001
0100
0001
0010
,
0001
0100
0010
0010
,
1000
0100
0001
0100
,
1000
0001
1000
1001
,
1000
0010
1000
0100
,
1000
0010
0100
0100
,
0001
0010
1000
0010
,
0001
1000
0001
1001
,
1000
0000
1000
0010
0000
0000
1000
0000
1000
0010
0000
0000
,
1000
0100
0010
0001
,
0100
0010
0100
0010
,
1010
0100
0101
0000
,
0001
0000
0001
0010
0000
0000
0001
0000
0001
0010
0000
0000
,
0001
0100
0010
1000
,
0001
0100
1000
0100
,
0101
0010
1010
0000
,
0100
0010
1001
0000
,
0100
0010
1001
0000
,
0100
0010
1001
0000
,
0001
0000
0001
0010
0000
0000
0001
0000
0001
0100
0000
0000
,
0001
0000
0001
0010
0000
0000
0100
0000
0000
0000
0000
0000
,
1000
0000
1000
0010
0000
0000
1000
0000
1000
0100
0000
0000
,
1000
0000
1000
0010
0000
0000
0100
0000
0000
0000
0000
0000
,
0220
0000
0000
0000
,
0330
0000
0000
0000
,
0000
0000
0000
0000
;
#NOTES:
     dance-single:
     :
     Hard:
     14:
     :
0000
0000
0000
0000
,
0000
0000
0000
0000
,
0000
0000
0000
0000
,
0000
0000
0000
0000
,
0000
0000
0000
0000
,
0001
1000
1001
0000
,
0010
0000
0100
0000
0000
0010
0100
0000
0000
0000
0000
0000
,
1000
0001
1001
0000
,
0100
0000
0010
0000
0000
0100
0010
0000
0000
0000
0000
0000
,
1000
0000
1000
0100
0000
0100
0010
0000
0010
0001
0000
0000
,
0001
0000
0001
0100
0000
0100
0010
0000
0010
1000
0000
0000
,
0001
0100
1000
0100
,
0001
0000
0010
0100
0000
0000
1000
0000
0000
1000
0000
0000
,
0001
0000
0010
0100
0000
0000
1000
0000
0000
1000
0000
0000
,
1010
0000
0000
0110
0000
0000
0001
0100
0010
1000
0000
0000
,
0001
0000
0010
1000
0000
0000
0010
0000
0000
0001
0000
0000
,
1000
0000
0000
0010
0000
0000
0100
0001
0100
0001
0000
0000
,
1000
0000
0100
0001
0000
0000
0100
0000
0000
1000
0000
0000
,
0001
0000
0000
0010
0000
0000
0100
1000
0100
1000
0000
0000
,
0001
0011
0001
0011
,
0001
0000
0010
0001
0000
0000
0011
0000
0000
0011
0000
0000
,
0001
0000
0100
0001
0000
0000
0101
0000
0000
0101
0000
0000
,
0001
0000
0000
1000
0000
0000
0010
0100
0001
1000
0000
0000
,
0100
0000
1000
0100
0000
0000
1100
0000
0000
1100
0000
0000
,
0100
0000
0000
1000
0000
0000
0100
1000
0100
1000
0000
0000
,
0010
0000
0100
0010
0000
0000
0110
0000
0000
0110
0000
0000
,
0100
0000
0000
0010
0000
0000
0100
0010
0100
0010
0000
0000
,
1000
0000
1000
0010
0000
0010
1000
0000
1000
0010
0000
0010
,
0100
0000
0100
0001
0000
0001
0100
0000
0100
0001
0000
0001
,
1000
0000
1000
0010
0000
0010
1000
0000
1000
0010
0000
0010
,
1000
0000
0000
1001
0000
0000
1000
0100
0010
0001
0000
0000
,
0001
0000
0001
0010
0000
0010
0001
0000
0001
0010
0000
0010
,
0100
0000
0100
1000
0000
1000
0100
0000
0100
1000
0000
1000
,
0001
0000
0001
0010
0000
0010
0001
0000
0001
0010
0000
0010
,
0001
0000
0000
1001
0000
0000
0001
0100
0010
1000
0000
0000
,
0001
0001
0001
1000
1000
1000
,
0001
0000
0000
0010
0000
0001
0000
0000
0100
0001
0000
0000
,
0010
0000
0100
0000
0000
1000
0100
0000
0000
1001
0000
0000
,
1000
0000
0000
0100
0000
1000
0000
0000
0010
1000
0000
0000
,
0100
0000
0010
0000
0000
0001
0010
0000
0000
1001
0000
0000
,
0001
0000
0000
0010
0000
1000
0000
0000
0010
0001
0000
0000
,
1000
0000
0010
0000
0000
0001
0010
0000
0000
0110
0000
0000
,
1000
0000
0000
0100
0000
0001
0000
0000
0100
1000
0000
0000
,
0001
0000
0100
0000
0000
1000
0100
0000
0000
0110
0000
0000
,
1000
0000
0000
0010
0000
0100
0000
0000
0100
0001
0000
0000
,
0001
0000
0010
0000
0000
0010
0100
0000
0000
1001
0000
0000
,
0001
0000
0000
0100
0000
0010
0000
0000
0010
1000
0000
0000
,
1000
0000
0100
0000
0000
0100
0010
0000
0000
1001
0000
0000
,
0001
0100
0001
0100
0000
0000
0001
0010
0100
1000
0000
0000
,
1000
0100
1000
0100
0000
0000
1000
0010
0100
0001
0000
0000
,
1000
0100
0010
0100
0000
0000
1000
0010
0100
0001
0000
0000
,
1000
0010
0100
0010
0000
0000
1000
0001
0100
0010
0000
0000
,
0220
0000
0000
0000
,
0000
0000
0000
0330
,
1000
1000
1100
0001
0001
0101
,
1000
1000
1010
0001
0001
0011
,
1000
0010
0110
0001
0100
0110
,
1000
0000
0100
0000
0110
0000
0001
0010
0100
1000
0000
0000
,
0000
0001
0010
0001
0000
0000
0000
1000
0100
1000
0000
0000
,
0000
0001
0100
0001
0000
0000
0000
1000
0010
1000
0000
0000
,
0000
0001
0100
0010
0000
0000
0000
1000
0100
0010
0000
0000
,
0000
0001
0010
0100
0000
0000
0000
1000
0010
0100
0000
0000
,
1001
0000
0000
1000
0001
1000
0001
0000
0000
1000
0010
1000
,
0010
0000
0000
0100
0001
0100
0001
0000
0000
1000
0001
1000
,
0001
0000
0000
0010
0001
0010
0100
0000
0000
1000
0001
0100
,
0001
0000
0000
0100
0010
1000
0010
0000
0000
0100
0001
1000
,
0002
0000
0000
0000
,
0000
0000
0000
0000
,
2003
0000
0000
0000
,
0010
0010
0010
3010
,
1000
0100
1000
0010
,
1000
0000
0100
0010
0000
0000
0001
0000
0000
1000
0000
0000
,
0001
0000
0100
0010
0000
0000
1000
0000
0000
0001
0000
0000
,
1000
0000
0000
1100
0000
0000
0001
0010
0100
1000
0000
0000
,
0001
0000
1000
0010
0000
0000
0100
0000
0000
0010
0000
0000
,
1000
0000
0000
1001
0000
0000
1000
0100
0010
0001
0000
0000
,
1000
0000
0001
0010
0000
0000
0100
0000
0000
0010
0000
0000
,
0001
0000
0000
1001
0000
0000
1000
0010
0100
0001
0000
0000
,
1000
0000
1000
0100
0000
0100
1000
0000
1000
0100
0000
0100
,
0010
0000
0010
0001
0000
0001
0010
0000
0010
0001
0000
0001
,
1000
0000
1000
0100
0000
0100
1000
0000
1000
0100
0000
0100
,
1000
0000
0000
1001
0000
0000
1000
0010
0100
0001
0000
0000
,
0001
0000
0001
0100
0000
0100
0001
0000
0001
0100
0000
0100
,
0010
0000
0010
1000
0000
1000
0010
0000
0010
1000
0000
1000
,
0001
0000
0001
0100
0000
0100
0001
0000
0001
0100
0000
0100
,
0001
0000
0000
1001
0000
0000
0001
0010
0100
1000
0000
0000
,
0001
0000
0000
1001
0000
0000
0001
0100
0010
1000
0000
0000
,
0001
0000
0000
1001
0000
0000
0001
0010
0100
1000
0000
0000
,
0001
0000
0000
1001
0000
0000
0001
0100
0010
1000
0000
0000
,
0001
0100
0001
0100
0000
0000
0001
0010
0001
0010
0000
0000
,
0100
1000
0100
1000
0000
0000
0010
1000
0010
1000
0000
0000
,
0001
0100
0010
1000
0000
0000
0001
0010
0100
1000
0000
0000
,
1000
0100
0010
0001
0000
0000
0100
0010
1000
0001
0000
0000
,
2002
0000
0000
0000
,
3003
0000
0000
0000
,
0000
0000
0000
0000
;
#NOTES:
     dance-double:
     :
     Easy:
     8:
     :
00000000
00000000
00000000
00000000
,
00000000
00000000
00000000
00000000
,
00000000
00000000
00000000
00000000
,
00000000
00000000
00000000
00000000
,
00000000
00000000
00000000
00000000
,
10000000
00000000
01000000
00000000
,
10000000
00010000
10000000
00000000
,
00010000
00000000
00100000
00000000
,
00001000
00010000
00001000
00000000
,
00022000
00000000
00000000
00000000
,
00000000
00000000
00033000
00000000
,
00010000
00000100
00001000
00000100
,
00001000
00000010
00000100
00000000
,
00000001
00000100
00000010
00000000
,
00001000
00000100
00000010
00000000
,
00000001
00001000
00000100
00001000
,
00000100
00010000
00001000
00000000
,
00100000
00010000
01000000
00000000
,
00100000
10000000
01000000
00000000
,
10000000
00100000
10000000
00100000
,
01000000
00010000
01000000
00000000
,
00001000
00010000
00000010
00000000
,
00010000
00001000
00100000
00000000
,
00001000
00010000
00001000
00010000
,
00000100
00001000
00000100
00000000
,
00010000
00001000
01000000
00000000
,
00001000
00010000
00000100
00000000
,
00001000
00001000
00000001
00000001
,
00000100
00001000
00011000
00000000
,
00100000
01000000
00100000
00000000
,
01000000
00100000
01100000
00000000
,
10000000
10000000
01000000
01000000
,
00100000
00001000
00011000
00000000
,
00000100
00000010
00000100
00000000
,
00000010
00000100
00000110
00000000
,
00000011
00000000
00001100
00000000
,
00000011
00000000
00000000
00000000
00000000
00000001
00000000
00000000
00000000
00001001
00000000
00000000
,
00000000
00000000
00000000
00000000
,
00010100
00000000
00000000
00000000
00000000
00010000
00000000
00000000
00000000
00011000
00000000
00000000
,
00000000
00000000
00000000
00000000
,
01001000
00000000
00000000
00000000
00000000
01000000
00000000
00000000
00000000
01010000
00000000
00000000
,
00000000
00000000
00000000
00000000
,
00110000
00000000
00000000
00000000
00000000
00010000
00000000
00000000
00000000
10010000
00000000
00000000
,
00000000
00000000
00000000
00000000
,
11000000
00000000
00000000
00000000
00000000
01000000
00000000
00000000
00000000
01100000
00000000
00000000
,
00100000
00001000
00010000
00000000
,
00011000
00000000
00000000
00000000
00000000
00010000
00000000
00000000
00000000
00010010
00000000
00000000
,
00000010
00001000
00000100
00000000
,
00001000
00000100
00000001
00000000
,
00000001
00000100
00001000
00000000
,
00000001
00000100
00001000
00000000
,
00010000
00100000
10000000
00000000
,
20020000
00000000
00000000
00000000
,
00000000
00000000
30030000
00000000
,
11000000
00000000
11000000
00000000
,
00110000
00000000
00110000
00000000
,
00011000
00000000
00011000
00000000
,
00001100
00000000
00001100
00000000
,
00000011
00000000
00000011
00000000
,
00000101
00000000
00000101
00000000
,
00001010
00000000
00001010
00000000
,
00011000
00000000
00011000
00000000
,
01001000
00000000
01010000
00000000
,
00110000
00000000
01100000
00000000
,
11000000
00000000
01010000
00000000
,
01100000
00000000
00101000
00000000
,
00022000
00000000
00000000
00000000
,
00033000
00000000
00000000
00000000
,
00000000
00000000
00000000
00000000
,
00010000
00001000
00010000
00000000
,
00001000
00010000
00001000
00010000
,
00000100
00001000
00000010
00000000
,
00000100
00000001
00000010
00000000
,
00000100
00001000
00000010
00000000
,
00001000
00000001
00000100
00000001
,
00001000
00000100
00010000
00000000
,
00001000
00100000
00010000
00000000
,
01000000
00010000
00100000
00000000
,
01000000
10000000
01000000
10000000
,
00100000
01000000
00100000
01000000
,
00010000
00100000
00001000
00010000
,
00000100
00001000
00000010
00000000
,
00000100
00000001
00000100
00000001
,
00000010
00000100
00000010
00000100
,
00001000
00000100
00010000
00001000
,
00100000
00010000
01000000
00000000
,
00100000
00100000
00100000
00000000
,
10000000
10000000
10000000
00000000
,
00010000
00010000
00010000
00000000
,
10010000
00000000
01000000
00000000
,
01001000
00000000
00001000
00000000
,
00011000
00000000
00000010
00000000
,
00001010
00000000
00000100
00000000
,
00000110
00000000
00000000
00000000
,
00000000
00000000
00000000
00000000
;
#NOTES:
     dance-double:
     :
     Medium:
     12:
     :
00000000
00000000
00000000
00000000
,
00000000
00000000
00000000
00000000
,
00000000
00000000
00000000
00000000
,
00000000
00000000
00000000
00000000
,
00000000
00000000
00000000
00000000
,
10000000
01000000
10000000
00000000
,
00010000
00100000
00000000
00110000
00000000
00000000
,
00100000
00001000
00010000
00000000
,
00001000
00010000
00000000
00011000
00000000
00000000
,
00022000
00000000
00000000
00000000
,
00000000
00000000
00000000
00033000
,
00001000
00010000
00001000
00010000
,
00000100
00001000
00000010
00000100
,
00000001
00000001
00001000
00001000
,
00000010
00000100
00001001
00000000
,
00000001
00000100
00001000
00000100
,
00000001
00000010
00000100
00001000
,
00000010
00000100
00001000
00010000
,
00001000
00000000
00000000
00001000
00000000
00000000
00010000
00000000
00001000
00010000
00000000
00000000
,
00001000
01000000
00001000
01000000
,
00010000
00100000
00010000
00100000
,
01000000
10000000
00100000
01000000
,
00100000
00100000
10010000
00000000
,
10000000
01000000
00010000
01000000
,
10000000
00100000
01000000
00010000
,
00100000
01000000
00010000
00001000
,
00010000
00000000
00000000
00010000
00000000
00000000
00001000
00000000
00010000
00001000
00000000
00000000
,
00010000
00010000
00010100
00010100
,
00000100
00000000
00000000
00001000
00000000
00000000
00000010
00000000
00001000
00000010
00000000
00000000
,
00000100
00000001
00000010
00000100
,
00001000
00000000
00000000
00000010
00000000
00000000
00010000
00000000
00001000
00010000
00000000
00000000
,
00001000
00001000
01001000
01001000
,
01000000
00000000
00000000
00010000
00000000
00000000
00100000
00000000
00010000
00100000
00000000
00000000
,
01000000
10000000
00100000
01000000
,
00010000
00000000
00000000
00100000
00000000
00000000
00001000
00000000
00010000
00001000
00000000
00000000
,
00010000
00000010
00010000
00000100
00001000
00000010
,
00000100
00000000
00000000
00000001
00000000
00000010
00000000
00000000
00000000
00001001
00000000
00000000
,
00000001
00000000
00000100
00000000
00000000
00000000
00001000
00000000
00000000
00011000
00000000
00000000
,
00010000
00000000
00000000
00001000
00000000
01000000
00000000
00000000
00000000
01100000
00000000
00000000
,
00010000
00000000
10000000
00000000
00000000
00000000
10100000
00000000
00000000
01010000
00000000
00000000
,
10000000
00000000
00000000
01000000
00000000
00100000
00000000
00000000
00000000
01100000
00000000
00000000
,
00100000
00000000
00001000
00000000
00000000
00000000
00011000
00000000
00000000
00010010
00000000
00000000
,
00000010
00000000
00000000
00001000
00000000
00000100
00000000
00000000
00000000
00000110
00000000
00000000
,
00000001
00000000
00000010
00000000
00000000
00000000
00000110
00000000
00000000
00001001
00000000
00000000
,
00000001
00000000
00000000
00000100
00000000
00000010
00000000
00000000
00001000
00000010
00000000
00000000
,
00001000
00000000
00000100
00000000
00000000
00000000
00010000
00000000
00000000
00010000
00000000
00000000
,
00001000
00000000
00000000
00100000
00000000
00010000
00000000
00000000
00100000
01000000
00000000
00000000
,
10000000
00000000
00010000
00000000
00000000
00000000
10000000
00000000
00000000
10000000
00000000
00000000
,
10100000
00100000
01100000
00000000
,
01010000
00010000
00110000
00000000
,
00101000
00001000
00011000
00000000
,
00010100
00000100
00001100
00000000
,
00002002
00000000
00000000
00000000
,
00000000
00000000
00000000
00003003
,
00000001
00000010
00000001
00000010
00000100
00001000
,
00000100
00010000
00000100
00010000
00001000
00010000
,
00001000
00100000
00001000
00100000
00010000
01000000
,
00100000
10000000
00100000
01000000
00010000
10000000
,
01000000
00100000
00010000
01000000
00100000
00010000
,
00001000
00010000
00001000
00000010
00000100
00001000
,
00000010
00000100
00001000
00000100
00000001
00001000
,
00000100
00000010
00000001
00000100
00000010
00001000
,
00000100
00000100
00010000
00001000
00001000
00100000
,
00010000
00010000
01000000
00100000
10000000
00100000
,
10000000
10000000
01000000
00100000
00100000
00001000
,
00010000
00010000
00000100
00001000
00000010
00000100
,
00000002
00000000
00000000
00000000
,
00000000
00000000
00000000
00000000
,
00002003
00000000
00000000
00003000
,
00001000
00000001
00001000
00000000
,
00000001
00000100
00000001
00000010
,
00000100
00001000
00000010
00000010
,
00000100
00001000
00010000
00001000
,
00010000
00100000
10000000
00100000
,
10000000
01000000
00010000
01000000
,
10000000
00100000
01000000
00010000
,
10000000
01000000
00010000
00001000
,
00010000
00010000
00001000
00011000
,
00010000
00000000
00010000
00000100
00000000
00000000
00010000
00000000
00010000
00000010
00000000
00000000
,
00001000
00000100
00000010
00000001
,
00000100
00000010
00001000
00000010
,
00000110
00000001
00001001
00000000
,
00000001
00000000
00000001
00000010
00000000
00000000
00000001
00000000
00000001
00001000
00000000
00000000
,
00000100
00000010
00000100
00001000
,
00000010
00000100
00001000
00010000
,
00100000
00100000
10010000
00000000
,
10000000
01000000
00110000
00000000
,
00100000
00001000
00011000
00000000
,
00010000
00000100
00001010
00000000
,
00000001
00000000
00000001
00000100
00000000
00000000
00000010
00000000
00000010
00010000
00000000
00000000
,
00001000
00000000
00001000
00010000
00000000
00000000
00011000
00000000
00000000
00000000
00000000
00000000
,
00010000
00000000
00010000
00001000
00000000
00000000
01000000
00000000
01000000
00010000
00000000
00000000
,
00100000
00000000
00100000
01000000
00000000
00000000
10000000
00000000
00000000
00000000
00000000
00000000
,
20020000
00000000
00000000
00000000
,
30030000
00000000
00000000
00000000
,
00000000
00000000
00000000
00000000
;
#NOTES:
     dance-double:
     :
     Hard:
     14:
     :
00000000
00000000
00000000
00000000
,
00000000
00000000
00000000
00000000
,
00000000
00000000
00000000
00000000
,
00000000
00000000
00000000
00000000
,
00000000
00000000
00000000
00000000
,
10000000
00010000
10010000
00000000
,
10000000
00000000
01000000
00000000
00000000
00100000
00010000
00000000
00000000
00000000
00000000
00000000
,
00100000
00001000
00011000
00000000
,
00001000
00000000
00010000
00000000
00000000
00001000
00010000
00000000
00000000
00000000
00000000
00000000
,
00001000
00000000
00001000
00010000
00000000
00010000
00000010
00000000
00000010
00001000
00000000
00000000
,
00000001
00000000
00000001
00000010
00000000
00000010
00000100
00000000
00000100
00010000
00000000
00000000
,
00001000
00010000
01000000
10000000
,
01000000
00010000
00001000
00010000
,
00100000
10000000
00100000
00010000
,
00001000
00001000
00011000
00011000
,
00010000
00000000
00000010
00001000
00000000
00000000
00000100
00000000
00000000
00000010
00000000
00000000
,
00000001
00000000
00000000
00000100
00000000
00000000
00000010
00001000
00000010
00001000
00000000
00000000
,
00000001
00000000
00000100
00001000
00000000
00000000
00010000
00000000
00000000
00100000
00000000
00000000
,
00010000
00000000
00000000
00001000
00000000
00000000
00010000
00001000
00010000
00001000
00000000
00000000
,
00010000
00001000
00000100
00000001
,
00000100
00001000
00010000
00001000
,
00000010
00000001
00000010
00001000
,
00010000
00010000
00011000
00011000
,
00001000
00000000
00100000
00010000
00000000
00000000
01000000
00000000
00000000
00100000
00000000
00000000
,
10000000
00000000
00000000
01000000
00000000
00000000
00100000
00010000
00100000
00010000
00000000
00000000
,
10000000
00000000
01000000
00010000
00000000
00000000
00001000
00000000
00000000
00000010
00000000
00000000
,
00001000
00000000
00000000
00010000
00000000
00000000
00001000
00010000
00001000
00010000
00000000
00000000
,
00001000
00000000
00001000
00010000
00000000
00010000
00000010
00000000
00000010
00000100
00000000
00000100
,
00001000
00000000
00001000
00010000
00000000
00010000
00000010
00000000
00000010
00000100
00000000
00000100
,
00001000
00000000
00001000
00010000
00000000
00010000
00100000
00000000
00100000
00010000
00000000
00010000
,
00001000
00000000
00000000
00011000
00000000
00000000
00010000
00001000
00010000
00001000
00000000
00000000
,
00010000
00000000
00010000
00001000
00000000
00001000
00100000
00000000
00100000
01000000
00000000
01000000
,
00010000
00000000
00010000
00001000
00000000
00001000
00100000
00000000
00100000
01000000
00000000
01000000
,
00010000
00000000
00010000
00001000
00000000
00001000
00000010
00000000
00000010
00001000
00000000
00001000
,
00010000
00000000
00000000
00011000
00000000
00000000
00001000
00010000
00001000
00010000
00000000
00000000
,
00001000
01000000
00010000
00100000
01000000
10000000
,
00100000
00000000
00000000
10000000
00000000
01000000
00000000
00000000
00100000
00001000
00000000
00000000
,
00010000
00000000
00000100
00000000
00000000
00000010
00000001
00000000
00000000
00001001
00000000
00000000
,
00001000
00000000
00000000
00000001
00000000
00000100
00000000
00000000
00000010
00010000
00000000
00000000
,
00001000
00000000
01000000
00000000
00000000
00100000
10000000
00000000
00000000
10010000
00000000
00000000
,
00010000
00000000
00000000
10000000
00000000
01000000
00000000
00000000
01000000
00010000
00000000
00000000
,
00010000
00000000
00001000
00000000
00000000
00001000
00000010
00000000
00000000
00000001
00000000
00000000
,
00001001
00000000
00000000
00000001
00000000
00000100
00000000
00000000
00000100
00001000
00000000
00000000
,
00001000
00000000
00010000
00000000
00000000
00010000
00100000
00000000
00000000
10000000
00000000
00000000
,
10010000
00000000
00000000
00010000
00000000
00100000
00000000
00000000
00100000
01000000
00000000
00000000
,
01000000
00000000
00010000
00000000
00000000
00010000
00001000
00000000
00000000
00000010
00000000
00000000
,
00000110
00000000
00000000
00000100
00000000
00001000
00000000
00000000
00001000
00000010
00000000
00000000
,
00000100
00000000
00001000
00000000
00000000
00001000
00010000
00000000
00000000
00100000
00000000
00000000
,
10000000
00100000
10000000
00100000
00000000
00000000
01000000
00010000
01000000
00010000
00000000
00000000
,
00100000
00001000
00100000
00001000
00000000
00000000
00010000
00001000
00010000
00001000
00000000
00000000
,
00010000
00000100
00010000
00000100
00000000
00000000
00001000
00000010
00001000
00000010
00000000
00000000
,
00000100
00000001
00000100
00000001
00000000
00000000
00000010
00000100
00001000
00000100
00000000
00000000
,
00000220
00000000
00000000
00000000
,
00000000
00000000
00000000
00000330
,
00000001
00000001
00000100
00000010
00000010
00010000
,
00001000
00001000
00100000
00010000
01000000
00100000
,
10000000
10000000
01000000
00100000
00100000
00001000
,
00010000
00010000
00000010
00001000
00000100
00000010
,
00000000
00000001
00000010
00000001
00000000
00000000
00000000
00001000
00000010
00001000
00000000
00000000
,
00000000
00000100
00010000
00000100
00000000
00000000
00000000
00010000
00001000
00010000
00000000
00000000
,
00000000
00001000
00100000
00001000
00000000
00000000
00000000
01000000
00010000
01000000
00000000
00000000
,
00000000
00100000
10000000
00100000
00000000
00000000
00000000
10000000
00010000
10000000
00000000
00000000
,
10010000
00000000
00000000
10000000
01000000
00100000
00010000
00000000
00000000
10000000
01000000
00100000
,
00010000
00000000
00000000
00100000
00001000
00010000
00001000
00000000
00000000
00010000
00000010
00001000
,
00000010
00000000
00000000
00000100
00000001
00001000
00000010
00000000
00000000
00000100
00000001
00001000
,
00000010
00000000
00000000
00001000
00000010
00001000
00000100
00000000
00000000
00010000
00000100
00010000
,
00002000
00000000
00000000
00000000
,
00000000
00000000
00000000
00000000
,
00023000
00000000
00000000
00000000
,
00001000
00001000
00001000
00031000
,
00001000
00010000
00100000
10000000
,
01000000
00000000
00100000
01000000
00000000
00000000
00010000
00000000
00000000
00010000
00000000
00000000
,
00001000
00000000
00010000
00001000
00000000
00000000
00000010
00000000
00000000
00000010
00000000
00000000
,
00000001
00000000
00000000
00000011
00000000
00000000
00000001
00000010
00000100
00001000
00000000
00000000
,
00000001
00000000
00000100
00000010
00000000
00000000
00000100
00000000
00000000
00001000
00000000
00000000
,
00010000
00000000
00000000
00100000
00000000
00000000
01000000
00100000
01000000
00100000
00000000
00000000
,
10000000
00000000
00010000
00100000
00000000
00000000
01000000
00000000
00000000
00100000
00000000
00000000
,
00001000
00000000
00000000
00011000
00000000
00000000
00001000
00010000
00001000
00010000
00000000
00000000
,
00001000
00000000
00001000
00010000
00000000
00010000
00000100
00000000
00000100
00000010
00000000
00000010
,
00001000
00000000
00001000
00010000
00000000
00010000
00000100
00000000
00000100
00000010
00000000
00000010
,
00001000
00000000
00001000
00010000
00000000
00010000
01000000
00000000
01000000
00010000
00000000
00010000
,
00001000
00000000
00000000
00011000
00000000
00000000
00010000
00001000
00010000
00001000
00000000
00000000
,
00010000
00000000
00010000
00001000
00000000
00001000
01000000
00000000
01000000
00100000
00000000
00100000
,
00010000
00000000
00010000
00001000
00000000
00001000
01000000
00000000
01000000
00100000
00000000
00100000
,
00010000
00000000
00010000
00001000
00000000
00001000
00000100
00000000
00000100
00001000
00000000
00001000
,
00010000
00000000
00000000
00011000
00000000
00000000
00001000
00010000
00001000
00010000
00000000
00000000
,
00001000
00000000
00000000
00101000
00000000
00000000
00100000
00010000
00100000
01000000
00000000
00000000
,
10000000
00000000
00000000
10010000
00000000
00000000
10000000
01000000
00100000
00010000
00000000
00000000
,
00100000
00000000
00000000
00101000
00000000
00000000
00001000
00010000
00001000
00010000
00000000
00000000
,
00000100
00001000
00000100
00001000
00000000
00000000
00000001
00000010
00000001
00000010
00000000
00000000
,
00000001
00000100
00000001
00000100
00000000
00000000
00000010
00010000
00000010
00010000
00000000
00000000
,
00001000
00100000
00010000
00100000
00000000
00000000
01000000
10000000
00010000
10000000
00000000
00000000
,
01000000
00100000
00001000
00010000
00000000
00000000
00001000
00010000
00000100
00000010
00000000
00000000
,
00000220
00000000
00000000
00000000
,
00000330
00000000
00000000
00000000
,
00000000
00000000
00000000
00000000
;
