
//----- song ID: noal -----//
#TITLE:Not Alone;
#ARTIST:Odyssey Eurobeat;
#BANNER:Not Alone.png;
#BACKGROUND:Not Alone-bg.png;
#CDTITLE:./CDTitles/DDRR A3.png;
#MUSIC:Not Alone.ogg;
#SAMPLESTART:63.478;
#SAMPLELENGTH:15;
#BPMS:0=155;
#STAGE:17;
#NOTES:
     dance-single:
     :
     Beginner:
     3:
     :
0000
0000
0000
0000
,
0000
0000
0000
0000
,
0000
0000
0000
0000
,
0000
0000
0000
0000
,
0000
0000
0000
0000
,
0000
0000
0000
0000
,
0000
0000
0000
0000
,
0000
0000
0000
0000
,
0000
0000
0000
0000
,
0010
0000
0010
0000
,
0100
0000
0000
0000
,
0010
0000
0010
0000
,
0100
0000
0000
0000
,
0010
0000
0010
0000
,
0100
0000
0000
0000
,
1000
0000
0001
0000
,
1001
0000
0000
0000
,
0001
0000
0001
0000
,
0100
0000
0100
0000
,
1000
0000
1000
0000
,
1001
0000
0000
0000
,
0001
0000
0001
0000
,
0010
0000
0010
0000
,
1000
0000
1000
0000
,
1001
0000
0000
0000
,
0001
0000
0000
0000
,
0000
0000
0000
0000
,
0001
0000
0000
0000
,
0000
0000
0000
0000
,
1000
0000
0000
0000
,
0000
0000
0000
0000
,
1000
0000
0000
0000
,
0000
0000
0000
0000
,
1000
0000
0001
0000
,
0010
0000
1001
0000
,
0010
0000
0010
0000
,
0100
0000
0000
0000
,
1000
0000
0001
0000
,
0010
0000
1001
0000
,
0010
0000
0010
0000
,
0100
0000
0000
0000
,
0001
0000
0000
0000
,
0001
0000
0000
0000
,
1000
0000
0000
0000
,
1000
0000
0000
0000
,
0001
0000
1000
0000
,
1000
0000
0001
0000
,
0100
0000
0100
0000
,
1000
0000
0000
0000
,
0010
1000
0100
0000
,
0100
0000
0000
0000
,
0010
0000
0001
0000
,
0100
0000
0000
0000
,
0001
0000
1000
0000
,
0100
0000
0000
0000
,
0001
0000
0010
0000
,
1000
0000
0000
0000
,
2000
0000
0000
3000
,
0002
0000
0000
0003
,
2000
0000
0000
3000
,
0002
0000
0000
0003
,
0010
0000
0010
0000
,
0100
0000
0100
0000
,
1000
0000
0001
0000
,
1000
0001
1000
0000
,
1001
0000
0000
0000
,
0000
0000
0000
0000
;
#NOTES:
     dance-single:
     :
     Easy:
     7:
     :
0000
0000
0000
0000
,
0000
0000
0000
0000
,
0000
0000
0000
0000
,
0000
0000
0000
0000
,
0000
0000
0000
0000
,
0000
0000
0000
0000
,
0000
0000
0000
0000
,
0000
0000
0000
0000
,
0000
0000
0000
0000
,
0010
0000
0010
0000
,
0010
1000
0100
0001
,
0010
0000
0010
0000
,
0010
0001
0100
1000
,
0010
0000
0010
0000
,
0010
1000
0100
0001
,
1000
0100
0001
0010
,
1001
0000
0000
0000
,
1000
0000
0110
0000
0001
0100
1000
0000
,
0100
0000
1001
0000
1000
0100
0001
0000
,
0100
0000
0110
0000
0100
1000
0010
0000
,
0001
1000
1001
0000
,
1001
0110
1001
0010
,
1001
0000
0010
0000
1000
0100
0001
0000
,
1001
0000
0010
0000
0001
0100
1000
0000
,
0100
0010
1001
0000
,
1010
0000
0101
0000
0000
0100
0010
1000
,
0000
1000
0000
0001
0000
0001
0000
1000
,
0100
0000
0110
0000
0000
0100
0001
0010
,
0000
0010
0000
0001
1000
0000
1000
0000
,
0010
0000
0000
1000
0000
0001
1001
0000
,
0001
0000
0000
0001
0000
0000
1000
0001
,
1000
1001
0101
1001
,
0010
0000
0000
0110
0000
0000
1001
0000
,
0010
0000
0010
0000
,
0010
0000
0100
0000
0001
1000
0100
0000
,
0010
0000
0010
0100
,
0010
0001
0010
1000
,
0010
0000
0100
0000
0001
1000
0100
0000
,
0010
0000
0010
0100
,
0010
0001
0010
1000
,
0010
0000
0100
0000
0010
0001
0100
0000
,
0001
1000
0001
1000
,
0001
0010
1000
0010
,
1000
0001
1000
0001
,
1000
0100
0001
0100
,
0001
0100
1000
1001
,
1000
0010
0001
1001
,
0100
0010
0100
0010
,
1000
0001
0100
1001
,
1000
0010
0100
0001
,
0001
0010
0100
1000
,
0001
0100
0001
0100
,
1000
0100
0001
0100
,
0010
1000
0100
0000
0000
0000
0100
0000
,
0010
0001
0100
1000
,
0001
1000
0100
0100
,
0001
0010
1000
0100
,
0000
0001
1000
0100
,
0000
0010
0001
1000
,
0000
0001
1000
0100
,
0000
0010
0001
1000
,
0000
0010
0100
0001
,
0000
1000
0100
0010
,
0000
0001
1000
0001
,
1000
0001
1000
0001
,
1001
0000
0000
0000
,
0000
0000
0000
0000
;
#NOTES:
     dance-single:
     :
     Medium:
     13:
     :
0000
0000
0000
0000
,
0000
0000
0000
0000
,
0000
0000
0000
0000
,
0000
0000
0000
0000
,
0000
0000
0000
0000
,
0000
0000
0000
0000
,
0000
0000
0000
0000
,
0000
0000
0000
0000
,
0000
0000
0000
0000
,
0010
1000
0001
0010
,
1100
0101
1000
0100
,
0010
0001
1000
0010
,
0101
1100
0001
0100
,
0010
1000
0001
0010
,
1100
0101
0010
1000
,
0010
0100
0010
0001
,
2002
0000
0000
3003
,
0010
0000
1000
0000
0100
0000
1000
0000
0000
0001
0000
0000
0100
0000
0000
0000
,
0001
0000
1000
0000
0001
0000
0010
0000
0000
0100
0000
0000
1000
0000
0000
0000
,
0010
0000
0100
0000
0010
0000
0100
0000
0000
0001
0000
0000
1000
0000
0000
0000
,
0001
0001
0001
0010
0100
0000
0000
0000
,
0010
0000
0001
0000
0100
0000
0001
0000
0000
1000
0000
0000
0100
0000
0000
0000
,
1000
0000
1000
0000
1000
0000
0010
0000
0000
0100
0000
0000
0000
0000
0000
0000
,
0010
0000
0100
0000
0010
0000
0100
0000
0000
1000
0000
0000
0001
0000
0000
0000
,
1000
0000
0000
0001
0000
0000
2002
0000
0000
0000
0000
0000
3003
0000
0000
0000
,
0001
0000
0100
0000
0001
0100
0001
1000
,
0000
0100
0010
0001
0000
1000
0000
1000
,
0100
0000
1001
0000
0010
0001
1000
0100
,
0000
0100
0010
0001
0101
0000
1001
0000
,
0010
0010
0011
0001
0001
1001
0110
0000
,
0010
0010
1010
1000
1000
1001
0110
0000
,
1000
0100
0000
0000
0010
0001
0000
0000
1000
0010
0000
0000
0100
0001
0100
0000
,
0000
1010
1001
0000
0101
0010
2010
0000
,
3100
0001
0010
0001
0100
1000
0010
0001
,
0100
0001
0010
1000
0100
0010
1001
0000
,
0100
1000
0010
1000
0100
0001
0010
1000
,
0100
1000
0010
0001
0100
0010
1001
0000
,
0010
0001
0100
0001
0010
1000
0100
0001
,
0010
0001
0100
1000
0010
0100
1001
0000
,
0010
1000
0100
1000
0010
0001
0100
1000
,
0010
1000
0100
0001
0010
0100
1001
0000
,
0100
1000
0110
1000
0001
1000
0101
1000
,
0010
0100
1010
0100
0001
0100
1001
0100
,
1000
0001
1100
0001
0100
0001
0110
0001
,
1000
0010
1001
0010
0100
0010
0101
0010
,
0001
1000
0110
1000
0010
0100
1001
0100
,
1000
0001
0110
0001
0100
0010
1001
0100
,
0010
1000
0100
1000
0010
0100
0001
0010
,
0001
0100
0001
0000
1000
0001
1000
0000
0010
1000
0010
1000
0010
1000
0010
1000
,
0010
0000
0010
0000
0100
0000
0100
0000
0001
0000
0001
0000
1000
0100
1000
0000
,
0100
0000
0100
0000
0010
0000
0010
0000
0001
0000
0001
0100
0000
0100
1000
0000
,
0100
0000
0100
0000
0001
0000
0001
0000
0010
0000
0010
0000
0100
1000
0100
0000
,
1100
0000
0001
0202
0000
0000
0303
0000
,
0010
0000
0010
0000
0100
0000
0100
0000
1000
0000
1000
0000
0001
0100
0001
0000
,
0100
0000
0100
0000
0010
0000
0010
0000
1000
0010
1000
0000
0100
0000
0100
0000
,
0010
0000
0010
0000
0001
0000
0001
0000
0010
0001
0010
0000
0001
0100
0001
0100
,
0001
0000
1000
0100
0000
0000
2200
0000
0000
0000
0000
0000
3000
0000
0000
0000
,
0301
0100
1000
0010
0001
1000
0001
0010
,
1000
0100
0001
0000
0100
1000
0010
0001
,
1000
0100
0001
0010
1000
0001
1000
0010
,
0001
0100
1000
0000
0100
0010
1000
0010
,
0001
0010
1000
0100
0001
1000
0001
0100
,
1000
0010
0001
0000
0010
1000
0100
0001
,
1000
0010
0001
0100
1000
0001
1000
0100
,
0001
0000
0000
0010
0000
0000
1000
0000
0000
0000
0010
0000
0001
0000
0000
0000
,
1001
0000
0000
0000
,
0000
0000
0000
0000
;
#NOTES:
     dance-single:
     :
     Hard:
     16:
     :
0000
0000
0000
0000
,
0000
0000
0000
0000
,
0000
0000
0000
0000
,
0000
0000
0000
0000
,
0000
0000
0000
0000
,
0000
0000
0000
0000
,
0000
0000
0000
0000
,
0000
0000
0000
0000
,
0000
0000
0000
0000
,
1000
0000
0100
0000
0010
0000
0001
0100
0001
0000
0100
0000
1000
0000
0000
0000
,
0100
0000
0010
0000
0001
0000
0010
0100
0010
0000
1000
0000
0001
0000
0000
0000
,
0010
0000
0001
0000
0100
0000
0001
1000
0001
0000
0010
0000
0100
0000
0000
0000
,
1000
0000
0001
0000
0100
0000
0010
1000
0010
0000
0100
0000
0001
0000
0000
0000
,
1000
0000
0100
0000
0001
0000
1000
0010
1000
0000
0010
0000
0001
0000
0000
0000
,
1000
0000
0001
0000
0010
0000
0100
1000
0100
0000
0010
0000
0100
0000
0000
0000
,
0001
0000
0100
0000
1000
0000
0010
1000
0010
0000
1000
0000
0001
0000
0000
0000
,
0010
0000
0100
0000
1000
0000
0001
0100
0001
0000
0010
0000
0100
0000
0000
0000
,
0100
0000
0001
0000
1000
0000
0010
0100
0010
0100
0010
0000
1000
0000
0000
0000
,
0001
0000
0010
0000
1000
0000
0010
0001
0010
0001
0010
0000
0100
0000
0000
0000
,
1000
0100
1000
0000
0001
0000
1000
0010
1000
0010
1000
0000
0001
0000
0000
0000
,
0100
0000
0100
0000
0001
0000
1000
0100
0000
0010
0000
0001
0000
0001
0010
0000
,
0100
0000
1000
0000
0001
0000
0100
0010
0100
0010
0100
0000
0001
0000
0000
0000
,
1000
0000
0100
0000
0001
0000
0100
1000
0100
1000
0100
0000
0010
0000
0000
0000
,
0001
0010
0001
0000
0100
0000
0001
1000
0001
1000
0001
0000
0010
0000
0000
0000
,
0001
0000
0001
0000
0010
0000
0100
1000
0000
0010
0000
0001
0000
0010
0100
0000
,
1000
0100
1000
0000
0101
0010
0100
1000
,
0000
0100
0001
0010
0000
1000
0010
0001
,
0100
0000
1001
0000
0100
0010
0001
0010
,
0000
0100
1000
0001
1100
0000
0101
0000
,
0010
1000
0010
0000
1100
0000
0010
0001
0010
0000
0101
0000
0010
1000
0010
0000
,
0100
0001
0100
0000
0011
0000
0100
1000
0100
0000
1010
0000
0100
0001
0100
0000
,
0010
0100
1000
0000
1000
0100
0001
0000
0010
0100
0001
0000
0001
0100
1000
0000
,
0010
0100
0000
0001
0010
0000
0100
1000
0000
0100
0010
0000
0011
0000
1100
0000
,
1000
0100
0010
0100
0010
0000
0100
0000
1000
0001
1000
0001
0100
0010
0100
0000
,
0010
0000
0100
0000
0001
0100
0000
0100
0001
0100
0001
0100
0010
0000
1000
0000
,
0001
1000
0001
0000
0010
0100
1000
0100
0000
0110
0000
0100
1000
0000
0001
0000
,
1000
0010
1000
0000
0001
0010
0001
0000
1000
0001
0100
0010
1000
0000
0001
0000
,
0100
0001
0010
0001
0010
0000
0100
0000
1000
0001
1000
0001
0100
0010
0100
0000
,
0010
0000
0100
0000
0010
0100
0000
0100
0001
0100
0001
0100
0010
0000
1000
0000
,
0001
1000
0010
1000
0010
0000
0100
0001
0100
0001
0000
1000
0100
0000
0010
0000
,
0001
0010
0001
0000
1000
0010
1000
0010
0100
0001
0100
0000
0002
0000
0000
0000
,
1003
0000
0100
0000
0001
0000
0100
0000
0010
1000
0010
0001
0100
0010
1000
0000
,
0001
0000
0100
0000
1000
0000
0100
0000
0010
0001
0010
1000
0100
0010
0001
0000
,
1000
0000
0010
0000
0001
0000
0010
0000
0100
1000
0100
0001
0010
0100
1000
0000
,
0001
0000
0010
0000
1000
0000
0010
0000
0100
0001
0100
1000
0010
0100
0001
0000
,
1000
0000
0100
0000
0001
0000
0010
0000
0100
0001
0100
1000
0010
0100
0001
0000
,
1000
0000
0010
0000
0001
0000
0100
0000
0010
0001
0010
1000
0100
0010
0001
0000
,
0001
0000
0100
0000
1000
0000
0010
0000
0100
1000
0100
0001
0010
0100
1000
0000
,
0001
0000
0000
1000
0000
0000
2002
0000
0000
0000
0000
0000
3003
0000
0000
0000
,
0100
0000
0100
0000
0001
0000
0001
0000
0010
0000
0010
0000
0100
0001
0100
0000
,
1000
0000
1000
0000
0010
0000
0010
0000
0100
0000
1000
0100
0000
0100
0001
0000
,
0010
0000
0010
0000
0100
0000
0100
0000
1000
0000
0001
1000
0001
1000
0010
0000
,
0110
0000
0100
0000
0010
0000
1001
0000
0000
0000
1000
0001
1000
0001
1000
0000
,
0100
0000
0100
0000
1000
0000
1000
0000
0010
0000
0010
0000
0100
1000
0100
0000
,
0001
0000
0001
0000
0010
0000
0010
0000
0100
0000
0001
0100
0000
0100
1000
0000
,
0010
0000
0010
0000
0100
0000
0100
0000
0001
1000
0001
0000
0010
0100
0010
0100
,
0010
0000
0000
0001
0000
0000
1000
0000
2002
0000
0000
0000
3003
0000
0000
0000
,
1001
0000
0100
0001
0010
0000
0010
0001
0100
0000
0001
0000
0010
0000
0100
0000
,
1000
0000
0100
1000
0010
0000
0010
1000
0100
0000
1000
0000
0010
0000
0100
0000
,
0010
1000
0001
0000
0010
0001
1000
0000
0010
1000
0100
1000
0100
0010
0001
0010
,
0001
0000
0100
0000
0010
0100
0000
0010
0100
0000
0010
1000
0100
0000
1000
0000
,
0001
0000
0010
0001
0100
0000
0100
0001
0010
0000
0001
0000
0100
0000
0010
0000
,
1000
0000
0010
1000
0100
0000
0100
1000
0010
0000
1000
0000
0100
0000
0010
0000
,
0100
1000
0001
0000
0100
0001
1000
0000
0010
1000
0001
0000
0100
0001
1000
0000
,
0010
1000
0001
1000
0100
1000
0001
1000
0010
0000
0010
0000
0100
0000
0100
0000
,
1001
0000
0000
0000
,
0000
0000
0000
0000
;
#NOTES:
     dance-double:
     :
     Easy:
     8:
     :
00000000
00000000
00000000
00000000
,
00000000
00000000
00000000
00000000
,
00000000
00000000
00000000
00000000
,
00000000
00000000
00000000
00000000
,
00000000
00000000
00000000
00000000
,
00000000
00000000
00000000
00000000
,
00000000
00000000
00000000
00000000
,
00000000
00000000
00000000
00000000
,
00000000
00000000
00000000
00000000
,
00100000
00000000
00010000
00000000
,
00100000
00000000
10000000
00000000
,
01000000
00000000
01000000
00000000
,
00100000
00010000
00001000
00000000
,
00000010
00000000
00010000
00000000
,
00000010
00000000
00010000
00000000
,
00000010
00000001
00000100
00001000
,
00010000
00000000
00000000
00000000
,
00100000
00000000
00100000
00000000
10010000
01000000
00010000
00000000
,
00100000
00000000
00100000
00000000
00011000
00001000
00000100
00000000
,
00000010
00000000
00000010
00000000
00001001
00000100
00001000
00000000
,
00100000
00000000
00100000
00000000
10010000
01000000
00010000
00000000
,
00100000
00000000
00100000
00000000
00011000
00001000
00000100
00000000
,
00000010
00000000
00000010
00000000
00001001
00000100
00010000
00000000
,
01000000
00000000
01000000
00000000
10010000
00100000
00001000
00000000
,
00000100
00000100
00001001
00000000
,
00000011
00000000
00000001
00000000
00000000
00000100
00001000
00010000
,
00000000
00010000
00100000
10000000
00000000
00010000
00000000
10000000
,
01000000
00000000
01100000
00000000
00000000
01000000
00010000
00001000
,
00000000
00001000
00000010
00000001
00000100
00000000
00000110
00000000
,
00000001
00000000
00000000
00000100
00000000
00001000
00010000
00000000
,
00011000
00000000
00000000
00100000
00000000
00000000
10000000
00010000
,
10000000
10010000
11000000
01010000
,
00010000
00000000
00000000
00001000
00000000
00000000
00000010
00000100
,
00001000
00000010
00000001
00000100
,
00000010
00000000
00000100
00000000
00000001
00001000
00000100
00000000
,
00000010
00000100
00000010
00001000
,
00010000
00100000
10000000
01000000
,
00100000
00000000
01000000
00000000
00010000
10000000
01000000
00000000
,
00100000
01000000
00100000
00010000
,
00001000
00000010
00000001
00000100
,
00000010
00000000
00000100
00000000
00000010
00000001
00001000
00000000
,
00001000
00000100
00001000
00000100
,
00010000
00001000
00010000
00001000
,
00100000
00010000
00100000
00010000
,
10000000
00010000
10000000
00010000
,
01000000
00100000
01000000
01100000
,
00000000
00001000
00010000
00011000
,
00000010
00000100
00000010
00000110
,
00000000
00010000
00001000
00011000
,
00100000
00010000
10000000
01000000
,
00010000
00001000
00000100
00010000
,
00000100
00010000
00000100
00010000
,
00100000
00001000
00100000
00001000
,
00000100
00001000
00010000
00000000
00100000
00000000
10000000
00000000
,
01000000
00010000
01000000
10000000
,
01000000
01000000
00010000
00001000
,
00000100
00000001
00001001
00000000
,
00000001
00000100
00000001
00000000
,
00001000
00000010
00001000
00000000
,
00000100
00000010
00000100
00000000
,
00010000
00001000
00010000
00000000
,
00001000
00010000
00001000
00000000
,
00100000
01000000
00100000
00000000
,
00010000
01000000
00010000
00000000
,
10000000
00100000
10000000
10000000
,
10010000
00000000
00000000
00000000
,
00000000
00000000
00000000
00000000
;
#NOTES:
     dance-double:
     :
     Medium:
     13:
     :
00000000
00000000
00000000
00000000
,
00000000
00000000
00000000
00000000
,
00000000
00000000
00000000
00000000
,
00000000
00000000
00000000
00000000
,
00000000
00000000
00000000
00000000
,
00000000
00000000
00000000
00000000
,
00000000
00000000
00000000
00000000
,
00000000
00000000
00000000
00000000
,
00000000
00000000
00000000
00000000
,
00000001
00000100
00001000
00010000
,
00010010
00000000
00001010
00000000
00000001
00001000
00000100
00000000
,
00000010
00000000
00000001
00000000
00000100
00001000
00010000
00000000
,
00010010
00001010
00000100
00000001
,
00000010
00000100
00001000
00010000
,
01000000
00100000
11000000
01010000
,
00100000
01000000
00010000
00001000
,
00000110
00000000
00000000
00000000
,
00000010
00000100
00000010
00000100
00010000
00010000
00010000
00000000
,
00001000
00100000
00001000
01000000
00010000
00010000
00010000
00000000
,
10000000
01000000
00100000
00010000
01000000
01000000
01000000
00000000
,
00001000
00010000
00001000
00010000
00000100
00000010
00000001
00000000
,
00000100
00000010
00001000
00000100
00010000
00010000
00010000
00000000
,
00001000
00100000
01000000
10000000
00010000
00010000
00010000
00000000
,
01000000
00001000
00010000
00000100
00001000
00001000
00001000
00000000
,
00000001
00000100
00000001
00000100
00000010
00010000
00001000
00000000
,
00000100
00000000
00001000
00000000
00010000
00100000
00010000
00001000
,
00000000
01000000
00100000
10000000
00000000
00010000
00000000
10000000
,
01000000
00000000
01100000
00000000
00100000
00001000
00010000
00000100
,
00000000
00000010
00000001
00001000
00001001
00000000
00000110
00000000
,
00000001
00000100
00000101
00000100
00001000
00001100
00001000
00010000
,
00100000
10000000
10100000
10000000
01000000
11000000
00010000
00010000
,
00001000
00000010
00000000
00000000
00000010
00000100
00000000
00000000
00000100
00010000
00000000
00000000
00010000
00001000
00010000
00000000
,
00000000
00001000
01000000
00100000
10100000
00000000
01100000
00000000
,
01000000
00100000
10000000
01000000
00100000
00001000
00010000
00000100
,
00000010
00000001
00000100
00000010
00001000
00000100
00000110
00000000
,
00000100
00000010
00000001
00000100
00000010
00010000
00001000
01000000
,
00100000
10000000
01000000
00100000
00010000
01000000
01100000
00000000
,
10000000
01000000
00010000
01000000
00100000
10000000
01000000
00010000
,
00001000
00000100
00000001
00000100
00000010
00001000
00001100
00000000
,
00000001
00000100
00001000
00000100
00000010
00000001
00000100
00001000
,
00010000
01000000
10000000
01000000
00100000
00010000
01010000
00000000
,
01000000
00100000
01100000
00000000
01000000
00010000
00001000
00000100
,
00000010
00000100
00000110
00000000
00000100
00001000
00010000
00100000
,
01000000
00100000
01100000
00000000
00010000
01000000
10000000
01000000
,
00010000
00001000
00011000
00000000
00000010
00000100
00000010
00001000
,
00000100
00000001
00000101
00000000
00000010
00001000
00001010
00000100
,
00001000
00010000
00011000
00000000
00010000
00100000
00110000
00000000
,
10000000
01000000
10000000
01000000
00100000
00010000
00100000
00010000
,
00100000
01000000
00010000
00001000
00010000
00000000
00011000
00000000
,
00001000
00010000
01000000
00000000
00010000
00001000
00000100
00000000
,
00001000
00010000
00001000
00010000
00001000
00010000
01000000
00000000
,
10000000
01000000
00010000
00001000
00000010
00000001
00000100
00001000
,
00000110
00000000
00000001
00001001
00000000
00000000
00000000
00000000
,
00010000
00001000
00000010
00000000
00001000
00010000
00100000
00000000
,
00010000
00001000
00010000
00001000
00010000
00001000
00000010
00000000
,
00000001
00000100
00001000
00010000
00100000
10000000
01000000
00010000
,
01100000
00000000
10000000
10010000
00000000
00000000
00000000
00000000
,
00100000
10000000
01000000
00010000
01000000
10000000
00100000
00010000
,
00001000
00000100
00000001
00000000
00000010
00000001
00000100
00000001
,
00000010
00000001
00000100
00001000
00000100
00000001
00000010
00001000
,
00010000
01000000
10000000
00000000
00100000
10000000
01000000
00100000
,
01000000
10000000
00100000
00010000
00100000
10000000
01000000
00010000
,
00001000
00000010
00000001
00000000
00000100
00000001
00000010
00000001
,
00000100
00000001
00000010
00001000
00000010
00000001
00000100
00001000
,
00010000
00000000
00000000
00100000
00000000
00000000
10000000
00000000
10000000
10000000
01000000
00000000
00010000
00001000
00000100
00000000
,
00000001
00000000
00000000
00000000
,
00000000
00000000
00000000
00000000
;
#NOTES:
     dance-double:
     :
     Hard:
     16:
     :
00000000
00000000
00000000
00000000
,
00000000
00000000
00000000
00000000
,
00000000
00000000
00000000
00000000
,
00000000
00000000
00000000
00000000
,
00000000
00000000
00000000
00000000
,
00000000
00000000
00000000
00000000
,
00000000
00000000
00000000
00000000
,
00000000
00000000
00000000
00000000
,
00000000
00000000
00000000
00000000
,
00000011
00000000
00000100
00000000
00000010
00001000
00010000
00001000
,
00000100
00000000
00000000
00001000
00000000
00000000
00010000
00000000
00000000
00000000
01000000
00000000
10000000
00000000
00000000
00000000
,
10100000
00000000
01000000
00000000
00100000
00010000
00001000
00010000
,
01000000
00000000
00000000
00010000
00000000
00000000
00001000
00000000
00000000
00000000
00000100
00000000
00000001
00000000
00000000
00000000
,
00000011
00000000
00000101
00000000
00001000
00010000
01000000
00000000
,
11000000
00000000
10100000
00000000
00010000
00001000
00000010
00000000
,
00000011
00000000
00000101
00000000
00000100
00001000
00010000
00000000
,
00011000
00000000
00001000
00000000
00100000
00010000
01000000
00000000
,
01000000
00000000
00010000
00000000
10000000
00000000
00100000
01000000
00100000
01000000
00100000
00000000
10000000
00000000
00000000
00000000
,
00010000
00000000
01000000
00000000
00001000
00000000
00010000
00000010
00010000
00000010
00010000
00000000
00000100
00000000
00000000
00000000
,
00000010
00000001
00000010
00000000
00000001
00000000
00001000
00000100
00001000
00000100
00001000
00000000
00000001
00000000
00000000
00000000
,
00000100
00000000
00000100
00000000
00001000
00000000
00010000
01000000
00000000
10000000
00000000
01000000
00000000
00100000
00010000
00000000
,
10000000
00000000
10000000
00000000
00010000
00000000
01000000
00100000
01000000
00100000
01000000
00000000
00010000
00000000
00000000
00000000
,
10000000
00000000
01000000
00000000
00010000
00000000
00001000
00010000
00001000
00010000
00001000
00000000
00000010
00000000
00000000
00000000
,
00000001
00000010
00000001
00000000
00000100
00000000
00001000
00010000
00001000
00010000
00001000
00000000
00100000
00000000
00000000
00000000
,
00001000
00000000
00000000
00000010
00000000
00000000
00000220
00000000
00000000
00000000
00000000
00000000
00000330
00000000
00000000
00000000
,
00000010
00000001
00000100
00000000
00000110
00000100
00001000
00010000
,
00000000
00010000
00100000
10000000
00000000
10000000
01000000
10000000
,
01000000
00000000
01100000
00000000
01000000
00010000
00001000
00000010
,
00000000
00000010
00000001
00001000
00001100
00000000
00000011
00000000
,
00000010
00000001
00000100
00000000
00000101
00000000
00000100
00001000
00010000
00000000
00011000
00000000
00010000
00100000
01000000
00000000
,
01000000
00010000
00100000
00000000
00110000
00000000
00010000
00100000
00000100
00000000
00001100
00000000
00000100
00000010
00000001
00000000
,
00000010
00000100
00001000
00000000
00000100
00010000
00001000
00000000
01000000
00001000
00010000
00000000
00001000
00010000
00000100
00000000
,
00000010
00000001
00000000
00000001
00000100
00000000
00000100
00001000
00000000
00001000
00010000
00000000
00011000
00000000
01001000
00000000
,
00010000
00000100
00010000
00000100
00001000
00000000
00000010
00000000
00001000
00000001
00001000
00000001
00000100
00000010
00000100
00000000
,
00000001
00000000
00000010
00000000
00000100
00001000
00000000
00000100
00010000
00001000
00010000
00001000
00100000
00000000
00010000
00000000
,
01000000
00010000
01000000
00000000
00100000
10000000
00100000
00000000
10000000
01000000
00000000
10000000
00010000
00000000
01000000
00000000
,
00100000
01000000
00010000
00000000
00100000
00001000
00010000
00000000
00000100
00001000
00000010
00000100
00000010
00000000
00001000
00000000
,
00000001
00000100
00000001
00000100
00000010
00000000
00001000
00000000
00000100
00010000
00000100
00010000
00001000
00010000
00001000
00000000
,
00100000
00000000
01000000
00000000
10000000
00010000
00000000
00010000
01000000
00100000
01000000
00100000
10000000
00000000
01000000
00000000
,
00100000
00001000
00100000
00001000
00010000
00000000
00001000
00010000
00000100
00010000
00000000
00000100
00001000
00000000
00000010
00000000
,
00000100
00000001
00001000
00000000
00000001
00000010
00000001
00000010
00000200
00000000
00000000
00000000
00000300
00000000
00000000
00000000
,
00000001
00000000
00000100
00000000
00001000
00000000
00010000
00000000
00100000
00000000
10000000
00000000
01000000
00100000
01000000
00000000
,
10000000
00000000
00100000
00000000
00010000
00000000
00001000
00000000
00000100
00000000
00000001
00000000
00000010
00000100
00000010
00000000
,
00000001
00000000
00000100
00000000
00001000
00000000
00010000
00000000
00100000
00000000
10000000
00000000
01000000
00100000
01000000
00000000
,
10000000
00000000
00100000
00000000
00010000
00000000
00001000
00000000
00000100
00000000
00000001
00000000
00000010
00000100
00000010
00000000
,
00000001
00000000
00000100
00000000
00000010
00000000
00010000
00000000
00001000
00000000
01000000
00100000
10000000
00000000
01000000
00100000
,
00001000
00000000
00010000
00000000
00000100
00000000
00000010
00000000
00001000
00000000
00010000
01000000
00100000
00000000
00010000
00000000
,
10000000
00000000
01000000
00000000
00100000
00000000
00001000
00000000
00010000
00000000
00000100
00000010
00000001
00000000
00000100
00000010
,
00010000
00000000
00000000
00100000
00000000
00000000
02200000
00000000
00000000
00000000
00000000
00000000
03300000
00000000
00000000
00000000
,
10000000
00000000
10000000
00000000
01000000
00000000
01000000
00000000
00010000
00000000
00010000
00000000
00001000
00010000
00001000
00000000
,
00000010
00000000
00000010
00000000
00000001
00000000
00000001
00000000
00000100
00000000
00001000
00010000
00000000
00010000
01000000
00000000
,
10000000
00000000
10000000
00000000
00100000
00000000
00100000
00000000
01000000
00000000
00010000
10000000
01000000
00100000
00010000
00000000
,
00110000
00000000
00000000
00000000
00000010
00000000
00001010
00000000
00000000
00000000
00000001
00000010
00000100
00001000
00000010
00000000
,
00000100
00000000
00000100
00000000
00000001
00000000
00000001
00000000
00001000
00000000
00001000
00000000
00000100
00001000
00000100
00000000
,
00010000
00000000
00010000
00000000
00001000
00000000
00001000
00000000
00100000
00010000
00100000
00000000
01000000
00000000
01000000
00000000
,
10000000
00000000
10000000
00000000
00100000
00000000
00100000
00000000
01000000
00010000
01000000
00000000
00001000
00010000
00001000
00010000
,
00000010
00000000
00000000
00010000
00000000
00000000
00011000
00000000
00000000
00000000
00000000
00000000
00000000
00000000
00000000
00000000
,
10010000
00000000
10000000
00100000
01000000
00000000
01000000
00100000
10000000
00000000
00010000
00000000
00100000
00000000
01000000
00000000
,
00100000
00000000
00010000
00100000
00001000
00000000
00001000
00100000
00010000
00000000
01000000
00000000
00010000
00000000
00100000
00000000
,
00001000
00100000
00001000
00000000
00010000
00001000
00010000
00000000
00000100
00001000
00000100
00000000
00001000
00000010
00001000
00000010
,
00000100
00000001
00000100
00000000
00000010
00000100
00000000
00000010
00000100
00000000
00000001
00001000
00000001
00000000
00000100
00000000
,
00000010
00000000
00001000
00000100
00000010
00000000
00000010
00000100
00001000
00000000
00000001
00000000
00000100
00000000
00000010
00000000
,
00001000
00000000
00000100
00010000
00001000
00000000
00001000
00010000
00000100
00000000
00000010
00000000
00001000
00000000
00010000
00000000
,
00001000
00010000
00001000
00000000
00100000
00001000
00100000
00000000
00001000
00010000
00001000
00000000
00010000
00000100
00010000
00000000
,
00001000
00100000
00010000
00100000
00001000
00100000
00010000
00100000
00001000
00000000
00010000
00000000
01000000
00000000
10000000
00000000
,
10010000
00000000
00000000
00000000
,
00000000
00000000
00000000
00000000
;
