
//----- song ID: nefu -----//
#TITLE:Next FUTURE;
#ARTIST:SARAH;
#BANNER:Next FUTURE.png;
#BACKGROUND:Next FUTURE-bg.png;
#CDTITLE:./CDTitles/GITADORA Matixx.png;
#MUSIC:Next FUTURE.ogg;
#SAMPLESTART:61.751;
#SAMPLELENGTH:15;
#BPMS:0=192;
#BGSTAGE:1;
#NOTES:
     dance-single:
     :
     Beginner:
     2:
     :
0000
0000
0000
0000
,
0000
0000
0000
0000
,
0000
0000
0000
0000
,
0000
0000
0000
0000
,
0000
0000
0000
0000
,
0000
0000
0000
0000
,
0000
0000
0000
0000
,
0000
0000
0000
0000
,
0000
0000
0000
0000
,
0000
0000
0000
0000
,
0001
0000
0000
0000
,
0001
0000
0000
0000
,
0100
0000
0000
0000
,
0010
0000
0000
0000
,
0100
0000
0000
0000
,
0000
0000
0000
0000
,
0010
0000
0000
0000
,
0000
0000
0000
0000
,
1000
0000
0000
0000
,
0000
0000
0000
0000
,
0001
0000
0000
0000
,
0000
0000
0000
0000
,
0001
0000
0001
0000
,
0010
0000
0000
0000
,
0001
0000
0000
0000
,
0000
0000
0000
0000
,
0100
0000
0100
0000
,
0010
0000
0000
0000
,
0100
0000
0000
0000
,
0000
0000
0000
0000
,
1000
0000
0000
0000
,
0010
0000
0000
0000
,
1000
0000
1000
0000
,
0100
0000
0000
0000
,
1001
0000
0000
0000
,
0000
0000
0000
0000
,
1001
0000
0000
0000
,
0000
0000
0000
0000
,
0010
0000
0000
0000
,
0100
0000
0000
0000
,
0010
0000
0000
0000
,
0000
0000
0000
0000
,
0100
0000
0000
0000
,
0100
0000
0000
0000
,
0010
0000
0000
0000
,
0000
0000
0000
0000
,
1001
0000
0000
0000
,
0000
0000
0000
0000
,
0001
0000
0010
0000
,
1000
0000
0000
0000
,
1000
0000
1000
0000
,
0010
0000
0000
0000
,
1000
0000
0100
0000
,
1000
0000
0000
0000
,
0010
0000
0000
0000
,
0000
0000
0000
0000
,
0100
0000
0000
0000
,
0000
0000
0000
0000
,
0001
0000
0010
0000
,
0001
0000
0000
0000
,
0001
0000
0001
0000
,
0100
0000
0000
0000
,
1001
0000
0000
0000
,
0000
0000
0000
0000
,
1001
0000
0000
0000
,
0000
0000
0000
0000
,
0001
0000
0000
0000
,
0010
0000
0000
0000
,
0100
0000
0000
0000
,
0000
0000
0000
0000
,
0001
0000
0000
0000
,
0010
0000
0000
0000
,
0100
0000
0000
0000
,
0000
0000
0000
0000
,
1000
0000
0000
0000
,
1000
0000
0000
0000
,
1001
0000
0000
0000
,
0000
0000
0000
0000
,
1000
0000
0000
0000
,
0100
0000
0000
0000
,
1000
0000
0000
0000
,
0010
0000
0000
0000
,
0100
0000
0100
0000
,
0001
0000
0000
0000
,
0001
0000
0000
0000
,
1000
0000
0000
0000
,
1001
0000
0000
0000
,
0000
0000
0000
0000
;
#NOTES:
     dance-single:
     :
     Easy:
     6:
     :
0000
0000
0000
0000
,
0000
0000
0000
0000
,
0000
0000
0000
0000
,
0000
0000
0000
0000
,
0000
0000
0000
0000
,
0000
0000
0000
0000
,
0000
0000
0000
0000
,
0000
0000
0000
0000
,
0000
0000
0000
0000
,
0000
0000
0000
0000
,
1000
0000
0000
0100
0000
0000
1000
0000
,
0000
0100
0000
0000
0010
0000
0000
0000
,
0001
0000
0000
0100
0000
0000
0001
0000
,
0100
0010
0100
0000
,
0001
0000
0001
0000
,
0100
0010
0100
0000
,
0010
0000
0010
0000
,
1000
0001
1000
0000
,
1000
0000
1000
0000
,
0100
0010
0100
0000
,
0010
0000
0010
0000
,
0001
1000
0001
0000
,
0002
0000
0000
0003
,
0001
0100
0010
0000
,
0020
0000
0000
0030
,
0010
1000
0001
0000
,
2000
0000
0000
3000
,
1000
0100
0010
0000
,
0020
0000
0000
0000
,
0000
0030
1001
0000
,
0001
0000
1000
0000
,
0100
0010
0001
0000
,
1000
0000
0001
0000
,
0100
0010
1000
0000
,
0002
0000
0000
0003
,
2000
0000
0000
3000
,
0020
0000
0000
0030
,
0200
0000
0000
0300
,
0001
0000
0010
0000
,
0100
1000
0100
0000
,
1000
0000
0010
0000
,
0100
0001
0100
0000
,
0001
0000
0001
1000
,
0010
0000
1000
0001
,
0020
0000
0000
0030
,
0200
0000
0000
0300
,
2002
0000
0000
0000
,
0000
0000
3003
0000
,
0010
0000
0000
0010
0000
0000
0010
0000
,
0220
0000
0330
0000
,
1000
0100
0010
0100
,
1000
0100
0010
0000
,
0001
0100
0010
0100
,
0001
0100
0010
0000
,
1000
0000
1000
0000
,
0001
0000
0001
0000
,
1000
0001
1000
0000
,
2002
0000
0000
3003
,
0001
0000
0100
0000
,
0010
1000
0010
0000
,
1000
0000
0100
0000
,
0010
0001
0010
0000
,
0002
0000
0000
0003
,
0200
0000
0000
0300
,
0020
0000
0000
0030
,
2000
0000
0000
3000
,
0200
0000
0000
0300
,
0020
0000
0000
0030
,
0002
0000
0000
0003
,
2000
0000
0000
3000
,
0001
0000
0100
0000
,
1000
0000
0100
0000
,
0001
0000
1000
0000
,
1001
0000
0000
0000
,
1000
0000
0001
0000
,
1000
0000
0000
0000
,
2002
0000
0000
0000
,
0000
0000
3003
0000
,
0010
0000
0010
0000
,
0100
0000
0100
0000
,
0010
0000
0100
0000
,
0110
0000
1001
0000
,
1000
1000
0010
0000
,
0001
0001
0010
0000
,
1000
1000
0100
0000
,
0001
0000
0100
0000
0001
0000
0000
1001
,
0000
0000
0000
0000
;
#NOTES:
     dance-single:
     :
     Medium:
     10:
     :
0000
0000
0000
0000
,
0000
0000
0000
0000
,
0000
0000
0000
0000
,
0000
0000
0000
0000
,
0000
0000
0000
0000
,
0000
0000
0000
0000
,
0000
0000
0000
0000
,
0000
0000
0000
0000
,
0000
0000
0000
0000
,
0000
0000
0000
0000
,
1000
0001
0000
1000
0001
0000
1000
0001
,
0000
1000
0001
0000
1001
0000
0110
0000
,
0100
0010
0000
0100
0010
0000
0100
0010
,
0100
0000
0010
0000
0110
0000
0000
1000
,
0000
1000
0100
0000
0010
0000
0001
0000
,
0100
0010
0100
0000
0001
1000
0001
0000
,
1000
0100
0010
0001
,
0100
0000
0010
0000
1000
0001
1000
0000
,
0001
0100
0010
1000
,
0001
0000
0010
0000
0100
1000
0100
0000
,
1000
0010
0100
0001
,
0010
0000
0100
0000
1000
0001
1000
0000
,
0001
0100
0001
0100
,
0001
0100
0001
0001
,
1000
0010
1000
0010
,
1000
0010
1000
1000
,
0001
0010
0001
0010
,
0100
1000
0100
1000
,
2002
0000
0000
0000
,
0000
0000
3003
0000
1000
0001
0000
1001
,
0000
1000
0100
0001
,
0100
0000
1000
0001
0000
0100
0000
0110
,
0000
0000
0010
0000
1000
0010
1000
0000
,
0010
0000
0001
0010
0000
1000
0000
0001
,
0000
0001
0000
0100
0000
0000
0100
0010
,
0000
0010
1000
0000
0001
0000
1000
0100
,
0000
0010
0000
0011
0000
0001
0000
2002
,
0000
0000
0000
3003
,
2000
0000
0000
0000
3000
0000
0100
1000
,
0000
0001
0020
0000
0030
0000
0010
0001
,
2000
0000
3000
0000
1000
0100
0000
0001
,
0000
0100
1000
0010
,
0200
0300
0100
0010
,
1000
0100
0010
0001
,
1000
0000
0000
1000
0010
0000
0000
0000
,
0001
0010
0100
1000
,
0002
0000
0000
1000
2000
0000
0000
0000
,
0000
0000
3003
0000
1000
0001
1000
0000
,
0010
0000
0000
0010
0000
0000
0010
0000
,
0100
0000
0000
0000
0010
0000
0000
0000
0100
0000
0000
0000
0110
0000
0000
0000
0000
0000
0000
0000
0000
1000
0000
0000
,
0000
0010
1000
0100
,
1000
0010
0000
1010
0000
0001
0010
0001
,
0000
0001
0100
0000
0001
0000
0010
0000
,
0001
0100
0000
0110
0000
0010
0000
1000
,
0000
0000
1000
1000
,
0100
0100
0010
0010
,
0001
0000
0100
0010
0000
1000
0001
2000
,
0000
0000
0000
3000
,
0001
0100
0001
0100
,
1000
0000
0100
0000
0001
1000
0000
0001
,
0000
1000
0100
1000
,
0100
0100
0110
0110
,
0001
0010
0000
0001
0010
0000
0001
0100
,
0000
0001
0100
0000
0020
0000
0030
0000
,
1000
0010
0000
1000
0010
0000
1000
0100
,
0000
1000
0100
0000
0020
0000
0030
0000
,
0001
1000
0000
0010
0100
0000
0001
1000
,
0000
0010
0100
0000
0002
0000
0003
0000
,
1000
0001
0000
0010
0100
0000
1000
0001
,
0000
0010
0100
0000
2000
0000
3000
0000
,
0002
0000
0103
0000
,
1000
0010
1000
0000
,
2000
0000
0000
0000
3100
0000
0000
0010
,
0000
0001
0000
0010
0000
0001
0000
0000
,
0001
0000
0100
0000
0010
1000
0010
0100
,
0000
0110
0000
0000
0000
0000
0000
0000
,
2002
0000
0000
0000
,
3003
0000
1000
0010
0100
0001
0000
1000
,
0000
0001
0100
0000
0001
0000
0010
0000
,
0011
0000
0001
0000
1001
0000
1000
0010
,
0000
0100
0001
0000
0010
0100
0010
0001
,
0000
1000
0001
0000
1001
0000
0000
0000
,
1000
0000
0010
0100
0000
0100
0001
0000
,
1000
0100
0000
0100
0020
0000
0000
0000
,
0031
1000
0100
0000
1000
0001
0100
0000
,
0010
1000
0001
0010
0001
0000
0001
1000
,
0000
0000
0000
0000
;
#NOTES:
     dance-single:
     :
     Hard:
     15:
     :
0000
0000
0000
0000
,
0000
0000
0000
0000
,
0000
0000
0000
0000
,
0000
0000
0000
0000
,
0000
0000
0000
0000
,
0000
0000
0000
0000
,
0000
0000
0000
0000
,
0000
0000
0000
0000
,
0000
0000
0000
0000
,
0000
0000
0000
0000
,
1000
0010
0010
1000
0100
0100
1000
0010
,
0010
0000
1000
0000
0100
0000
0100
0000
1000
0000
0010
0100
0010
0000
0100
0000
,
0001
0010
0010
0001
0100
0100
0001
0010
,
0001
0100
0001
0000
1000
0010
1000
0100
0010
0000
0000
0000
0000
0000
1001
0000
,
0000
0001
0100
0101
0000
1000
0100
1100
,
0000
0001
0010
0011
0001
0010
1000
0010
,
0100
1000
0010
1010
0000
0001
0010
0011
,
0000
0000
0001
0000
0100
0000
1000
0000
0100
0000
0100
0000
0010
0100
0010
0000
,
1000
0010
1000
1100
0000
0001
0010
0011
,
0000
1000
0010
1010
1000
0100
0001
0100
,
1000
0000
0001
0010
0001
0000
0000
0000
0001
0000
1000
0100
1000
0000
0001
0000
,
0000
0000
0001
0000
0010
0000
1000
0000
0010
0000
0010
0000
0100
0010
0100
0000
,
1000
0010
1000
0010
,
0100
0000
0001
0000
0010
0001
0100
0001
,
0010
0001
0010
0001
,
1000
0000
0100
0000
1000
0010
1000
0100
,
0010
0100
0010
0100
,
1000
0000
0000
0000
0001
0000
0000
0000
1000
0000
0000
0000
0001
0000
0100
0010
,
2000
0000
0000
0000
,
0000
0000
3000
0000
1000
0001
1000
0001
,
0000
0001
0010
0100
1000
0010
0100
0010
,
1000
0001
0100
0010
0000
0010
1000
0010
,
0000
0010
0100
1000
0100
0010
0100
0001
,
1000
0100
0010
0001
0000
0012
0000
0103
,
0000
0000
2010
0000
0000
0000
3100
0000
1000
0100
1000
0100
0010
0000
0002
0000
,
0000
0000
0013
0100
0010
0000
0000
0000
0001
0000
0010
0100
1000
0000
0001
0000
,
0000
0001
0100
0110
0000
0010
1000
1002
,
0000
0000
0013
0000
0100
0000
0010
0001
1000
0000
0001
0000
0010
0000
0100
0000
,
2000
0000
0000
0000
3000
0000
1000
0010
,
0000
0010
0200
0000
0300
0000
0100
0001
,
0020
0000
0030
0000
0010
0001
0000
0001
,
1000
0002
1000
0003
1001
0000
0110
0000
,
0001
0010
0100
0000
1100
0000
1010
0000
,
0011
0101
0110
1001
,
0002
0000
0010
0000
0003
0000
0010
0001
0010
0000
0001
0000
1000
0000
0010
0000
,
2000
0000
0000
0010
3020
0100
0230
0000
,
0302
0000
0000
1000
2000
0000
0000
0000
,
0000
0000
3003
0000
1000
0001
1000
0000
,
1010
0000
0000
0101
0000
0000
1010
0000
,
0001
0000
0000
0000
1000
0000
0000
0000
0001
0000
0000
0000
1001
0000
0000
0000
0000
0000
0000
0000
0000
1001
0000
0000
,
0000
0001
0010
0100
1000
0100
0010
0001
,
0100
0000
0010
0000
0000
0000
0010
1000
0010
0000
1000
0000
0010
0000
0001
0000
,
0000
0000
0001
0000
0010
0000
0100
0000
0010
0000
0001
0000
0010
0000
0100
0010
,
1000
0001
0000
1001
0000
0001
1000
0100
,
0020
0001
0230
0302
,
2003
0000
0000
0000
3020
0000
0000
0000
0031
0000
1000
0100
2000
0000
0000
0000
,
3010
0100
0100
0001
0010
0010
0001
1000
,
0000
0000
1000
0000
0010
0100
0010
0000
0100
0001
0100
0001
1000
0010
1000
0000
,
0000
1000
0100
0100
0010
0010
0100
0100
,
1000
0001
0000
1001
1000
0010
0000
1010
,
0000
0000
1000
0000
0010
0000
0010
0000
0100
0010
0100
0010
0100
0000
0001
1000
,
0001
0000
0100
0000
0010
0000
1000
0000
0001
0100
0010
1000
0001
0000
0000
0000
,
0001
0100
0101
0010
1000
1010
0001
0100
,
0101
0000
0010
0000
1000
0000
1010
0000
0001
0000
0100
0000
0010
0000
1000
0100
,
1000
0100
1100
0010
0001
0011
1000
0100
,
1100
0000
0010
0000
0001
0000
0001
1000
0001
0000
0010
0000
0100
0000
1000
0000
,
0001
0100
0110
1000
0100
0110
0001
0100
,
0110
0000
1000
0000
0100
0000
0110
0000
0001
0000
1000
0000
1100
0000
1000
0100
,
0010
0001
1001
0100
0001
1001
0010
1000
,
1001
0100
1000
1001
0010
0100
0110
0000
,
0001
0000
0100
0000
0000
0000
0010
1000
0010
0000
0100
0000
0001
0000
1000
0000
,
0000
1000
0100
0001
0100
1000
0010
0100
,
0000
0100
0010
0100
0000
1010
0000
1001
,
0000
0101
0000
0011
0000
2002
0000
0000
,
3003
0000
1001
0000
1000
0100
0010
0001
,
0000
1001
0000
0000
0000
0000
0000
0000
,
0220
0000
0000
0000
,
0330
0000
0000
0000
1000
0010
0100
0000
0001
0100
0010
0000
0000
0000
1000
0000
,
0000
0000
1000
0000
0100
0000
0010
0001
0010
0000
0000
0000
0001
0000
0100
0000
,
0001
0010
0100
0010
0001
1000
0100
0010
,
0001
0000
0100
0000
0010
0000
1000
0001
1000
0000
0001
0000
0010
0000
0100
0000
,
0000
0000
0100
0000
1000
0000
0001
0100
0010
0000
0000
0000
0000
0000
0000
0000
,
0001
0000
1000
0100
1000
0000
0001
0000
1000
0100
1000
0000
0001
0000
1000
0010
,
1000
0000
0001
0000
1000
0010
1000
0000
0002
0000
0010
0000
0000
0000
0100
0000
,
0103
0000
0000
0000
0100
0000
0010
1000
0010
0000
0100
0001
0100
0001
1000
0001
,
1000
0000
0001
0010
0001
0010
0100
1000
0100
0000
0010
0000
0001
0000
1001
0000
,
0000
0000
0000
0000
;
#NOTES:
     dance-double:
     :
     Easy:
     6:
     :
00000000
00000000
00000000
00000000
,
00000000
00000000
00000000
00000000
,
00000000
00000000
00000000
00000000
,
00000000
00000000
00000000
00000000
,
00000000
00000000
00000000
00000000
,
00000000
00000000
00000000
00000000
,
00000000
00000000
00000000
00000000
,
00000000
00000000
00000000
00000000
,
00000000
00000000
00000000
00000000
,
00000000
00000000
00000000
00000000
,
10000000
00000000
00000000
10000000
00000000
00000000
01000000
00000000
,
00000000
01000000
00000000
00000000
00100000
00000000
00000000
00000000
,
00010000
00000000
00000000
00010000
00000000
00000000
01000000
00000000
,
00010000
01000000
00001000
00000000
,
00001000
00000000
00010000
00000000
,
00000100
00001000
00000100
00000000
,
00001000
00000000
00000010
00000000
,
00000100
00000001
00000100
00000000
,
00000001
00000000
00000010
00000000
,
00000001
00001000
00000001
00000000
,
00000100
00000000
00000010
00000000
,
00001000
00000010
00001000
00000000
,
00000020
00000000
00000000
00000030
,
00010000
00001000
00010000
00000000
,
00020000
00000000
00000000
00030000
,
00001000
00100000
00010000
00000000
,
00200000
00000000
00000000
00300000
,
00010000
10000000
00010000
00000000
,
02000000
00000000
00000000
00000000
,
00000000
03000000
10010000
00000000
,
10000000
00000000
00100000
00000000
,
01000000
00010000
01000000
00000000
,
00010000
00000000
00100000
00000000
,
00001000
00010000
00001000
00000000
,
00011000
00000000
00000000
00000000
,
00010000
00000100
00001000
00000000
,
00000110
00000000
00000000
00000000
,
00001001
00000000
00000000
00000000
,
00000002
00000000
00000000
00000003
,
00000001
00000100
00000010
00000000
,
00000020
00000000
00000000
00000030
,
00001000
00000100
00001000
00000000
,
00000100
00000000
00010000
00001000
,
00010000
00000000
00011000
00000000
,
00001000
00000000
00010000
00000000
,
00100000
01000000
00100000
00000000
,
20020000
00000000
00000000
00000000
,
00000000
00000000
30030000
00000000
,
00100000
00000000
00000000
00100000
00000000
00000000
00100000
00000000
,
20020000
00000000
30030000
00000000
,
10000000
01000000
00100000
00000000
,
01000000
00100000
00001000
00000000
,
00100000
00001000
00010000
00000000
,
00001000
00010000
00000100
00000000
,
00001000
00000000
00001001
00000000
,
00000001
00000000
00000100
00000000
,
00001000
00010000
00001000
00000000
,
00022000
00000000
00000000
00033000
,
00001000
00000000
00010000
00000000
,
00100000
10000000
00100000
00000000
,
10000000
00000000
01000000
00000000
,
01100000
00000000
00000000
00000000
,
00011000
00000000
00000000
00000000
,
00011000
00000000
00000000
00000000
,
00000110
00000000
00000000
00000000
,
00000110
00000000
00000000
00000000
,
00000001
00000000
00001000
00000000
,
00000010
00000100
00000010
00000000
,
00010000
00000000
00001000
00000000
,
00010000
00001000
01000000
00000000
,
00010000
00000000
01000000
00000000
,
10000000
00000000
01000000
00000000
,
00010000
00000000
00100000
00001000
,
00020000
00000000
00000000
00000000
,
00031000
00000000
00001000
00000000
,
00000010
00000000
00000000
00000000
,
00000220
00000000
00000000
00000000
,
00000000
00000000
00000330
00000000
,
00000001
00000000
00000010
00000000
,
00000001
00000000
00000100
00000000
,
00001000
00000000
00010000
00000000
,
00022000
00000000
00033000
00000000
,
00001000
00010000
00001000
00000000
,
00001000
00010000
01000000
00000000
,
10000000
00000000
00100000
00000000
,
01000000
00000000
00001000
00000000
00010000
00000000
00000000
00011000
,
00000000
00000000
00000000
00000000
;
#NOTES:
     dance-double:
     :
     Medium:
     10:
     :
00000000
00000000
00000000
00000000
,
00000000
00000000
00000000
00000000
,
00000000
00000000
00000000
00000000
,
00000000
00000000
00000000
00000000
,
00000000
00000000
00000000
00000000
,
00000000
00000000
00000000
00000000
,
00000000
00000000
00000000
00000000
,
00000000
00000000
00000000
00000000
,
00000000
00000000
00000000
00000000
,
00000000
00000000
00000000
00000000
,
10000000
01000000
00000000
10000000
01000000
00000000
00100000
00010000
,
00000000
00100000
00010000
00000000
11000000
00000000
00110000
00000000
,
00100000
00001000
00000000
00100000
00001000
00000000
00010000
00001000
,
00010000
00000000
00001000
00000000
00011000
00000000
00000000
00010000
,
00000000
00010000
00000010
00000000
00001000
00000010
00001000
00000000
,
00000001
00000100
00001000
00000100
,
00000001
00000010
00000001
00000000
00001000
00000100
00001000
00000000
,
00000001
00001000
00000001
00000000
00001001
00000000
00000000
00000000
,
00000001
00000100
00000001
00000000
00001000
00000100
00001000
00000000
,
00000100
00010000
00001000
00100000
,
00010000
01000000
00010000
00000000
00100000
00010000
00100000
00000000
,
01000000
10000000
00010000
10000000
00010000
00000000
00000000
00000000
,
20000000
00000000
31000000
01000000
,
00200000
00000000
00310000
01000000
,
00020000
00000000
01030000
01000000
,
00002000
00000000
00013000
00001000
,
00020000
00000000
00030100
00000100
,
00002000
00000000
00003010
00000100
,
00000220
00000000
00000000
00000000
,
00000000
00000000
00000330
00000000
00000100
00000010
00000000
00001001
,
00000000
00000001
00000010
00001000
,
00000010
00000000
00000001
00001000
00000000
00000010
00010000
00000010
,
00000000
00000000
00010000
00000000
00001000
00010000
00001000
00000000
,
00010000
00000000
00100000
01000000
00000000
00100000
00000000
10000000
,
00000000
00010000
00000000
10010000
00000000
00000000
10000000
00100000
,
00000000
01000000
00010000
00000000
10000000
00000000
00100000
00010000
,
00000000
00010000
00000000
00001000
00000000
00001000
00000000
00022000
,
00000000
00000000
00000000
00033000
,
00002000
00000000
00000000
00000000
00003000
00000000
00001000
00010000
,
00000000
00010000
00000100
00000000
00000000
00000000
00001000
00000010
,
00001000
00000000
00000000
00000000
00000001
00001000
00000000
00000001
,
00000000
00000001
00000100
00000010
,
00002000
00003000
00001000
00000001
,
00000010
00001000
00010000
01000000
,
10000000
00000000
00000000
10000000
00010000
00000000
00000000
00000000
,
10000000
01000000
00010000
00001000
,
00020000
00000000
00000000
00001000
00002000
00000000
00000000
00000000
,
00000000
00000000
00033000
00000000
00001000
00010000
00001000
00000000
,
00010000
00000000
00000000
00010000
00000000
00000000
00010000
00000000
,
00001000
00000000
00000000
00000000
00010000
00000000
00000000
00000000
00001000
00000000
00000000
00000000
00011000
00000000
00000000
00000000
00000000
00000000
00000000
00000000
00000000
00011000
00000000
00000000
,
00000000
00010000
00000010
00001000
,
00000100
00000010
00000000
00000011
00000000
00000001
00000100
00000001
,
00000000
00000001
00001000
00000000
00000001
00000000
00000100
00000000
,
00001000
00010000
00000000
00011000
00000000
00001000
00010000
00001000
,
00000000
00000000
00001000
00010000
,
00100000
10000000
00010000
01000000
,
10000000
00000000
01000000
00010000
00000000
01000000
00100000
02000000
,
00000000
00000000
00000000
03000000
,
10000000
01000000
00100000
00010000
,
10000000
01000000
00000000
00100000
00000000
00000000
00000000
00001000
,
00000000
00010000
00001000
00000000
00010000
00001000
00000000
00022000
,
00000000
00000000
00000000
00033000
,
00010000
00000100
00000000
00010000
00000100
00000000
00001000
00000100
,
00000000
00001000
00000100
00000000
00000020
00000000
00000030
00000000
,
00000001
00000100
00000000
00000001
00000100
00000000
00000010
00001000
,
00000000
00000010
00001000
00000000
00000020
00000000
00000030
00000000
,
00001000
00000010
00000000
00010000
00000010
00000000
00010000
00001000
,
00000000
01000000
00001000
00000000
02000000
00000000
03000000
00000000
,
00010000
10000000
00000000
00010000
00100000
00000000
01000000
00100000
,
00000000
00001000
00100000
00000000
00002000
00000000
00003000
00000000
,
00020000
00000000
00031000
00000000
,
00010000
00000100
00001000
00000000
,
00000020
00000000
00000000
00000000
00000130
00000000
00000000
00000001
,
00000000
00000010
00000000
00000001
00000000
00000100
00000000
00000000
,
00000001
00000000
00000010
00000000
00000100
00000000
00010000
00001000
,
00000000
00011000
00000000
00000000
00000000
00000000
00000000
00000000
,
00022000
00000000
00000000
00000000
,
00033000
00000000
00010000
00001000
00010000
00000000
00000000
00011000
,
00000000
00001000
00100000
00000000
00001000
00000000
00010000
00100000
,
00000000
01000000
00010000
01000000
00010000
00000000
10000000
00010000
,
00000000
10010000
00000000
10000000
01000000
00000000
00100000
00001000
,
00000000
00010000
00001000
00010000
00001000
00000000
00000000
00000000
,
00010000
00000000
00001000
00000010
00000000
00000010
00001000
00000000
,
00010000
00001000
00000000
00001000
00000200
00000000
00000000
00000000
,
00000301
00000000
00000001
00000010
00000100
00001000
00000100
00000000
,
00010000
00001000
00010000
00001000
00100000
00010000
00000000
01010000
,
00000000
00000000
00000000
00000000
;
#NOTES:
     dance-double:
     :
     Hard:
     15:
     :
00000000
00000000
00000000
00000000
,
00000000
00000000
00000000
00000000
,
00000000
00000000
00000000
00000000
,
00000000
00000000
00000000
00000000
,
00000000
00000000
00000000
00000000
,
00000000
00000000
00000000
00000000
,
00000000
00000000
00000000
00000000
,
00000000
00000000
00000000
00000000
,
00000000
00000000
00000000
00000000
,
00000000
00000000
00000000
00000000
,
10000000
00100000
00100000
01000000
00100000
00100000
10000000
01000000
,
01000000
00100000
00001000
00001000
00010000
00000100
00001000
00000000
,
00000001
00000010
00000010
00000100
00000010
00000010
00000001
00000100
,
00000010
00000000
00001000
00000000
00000010
00000000
00010000
00001000
00010000
00000000
00000000
00000000
00000000
00000000
00011000
00000000
,
00000000
00001000
00010000
00100000
10000000
00010000
01000000
00100000
,
10000000
01000000
00010000
01000000
10000000
00100000
01000000
00000000
,
00010000
10000000
01000000
00100000
00010000
00100000
01000000
10000000
,
01000000
00000000
00010000
00000000
00001000
00000000
00010000
00000000
00001000
00000000
00001000
00000000
00010000
00001000
00010000
00000000
,
00001000
00010000
00001000
00000010
00000001
00001000
00000100
00000010
,
00000001
00000100
00001000
00000100
00000001
00000010
00000100
00000000
,
00001000
00000001
00000100
00000010
00001000
00000010
00000100
00000001
,
00000100
00000000
00001000
00000000
00010000
00000000
00001000
00000000
00010000
00000000
00010000
00000000
00001000
00010000
00001000
00000000
,
00010000
00001000
00010000
00001000
,
00100000
00000000
00010000
00000000
01000000
00010000
01000000
00000000
,
00100000
10000000
00100000
10000000
,
01000000
00000000
00100000
00000000
01000000
00100000
01000000
00000000
,
00010000
00001000
00010000
00001000
,
00000010
00000000
00000000
00000000
00000100
00000000
00000000
00000000
00000010
00000000
00000000
00000000
00000001
00000000
00001000
00000001
,
00002000
00000000
00000000
00000000
,
00000000
00000000
00003000
00000000
00001000
00000001
00000100
00000001
,
00000000
00000001
00000010
00000100
00001000
00000010
00000100
00001000
,
00010000
00000000
00010000
00001000
00000000
00001000
00100000
00001000
,
00000000
00001000
00010000
01000000
00100000
00010000
10000000
01000000
,
00100000
00010000
01000000
10000000
00000000
10000000
01000000
00010000
,
00000000
00000000
10000000
00000000
01000000
00000000
00010000
00000000
00001000
00010000
00001000
00010000
00001000
00000000
00011000
00000000
,
00000000
00000000
00010000
00000000
00001000
00000000
00000010
00000000
00000001
00000000
00001000
00000001
00001000
00000000
00001001
00000000
,
00000000
00000001
00000100
00000110
00000000
00000010
00010000
00021000
,
00000000
00031000
00010000
00100000
10000000
00010000
00100000
01000000
,
20000000
00000000
00000000
00000000
30000000
00000000
10000000
01000000
,
00000000
01000000
00200000
00000000
00300000
00000000
00100000
00001000
,
00020000
00000000
00030000
00000000
00010000
00100000
00000000
00100000
,
00010000
00002000
00010000
00003000
00011000
00001000
00010000
00000100
,
00002000
00000000
00000010
00000000
00003001
00000100
00001000
00000000
,
00001000
00010000
00100000
00000000
00100000
10000000
00010000
00000000
,
20000000
00000000
01000000
00000000
31000000
00000000
00100000
00010000
00100000
00000000
00001000
00000000
00011000
00000000
00000000
00000000
,
00020000
00000010
00030020
00001000
00002030
00000001
00003002
00000010
,
00000023
00000000
00000000
00000001
00000002
00000000
00000000
00000000
,
00000000
00000000
00000033
00000000
00000001
00000100
00001000
00000000
,
00011000
00000000
00000000
01100000
00000000
00000000
10010000
00000000
,
01000000
00000000
00000000
00000000
00100000
00000000
00000000
00000000
01000000
00000000
00000000
00000000
10010000
00000000
00000000
00000000
00000000
00000000
00000000
00000000
00000000
10010000
00000000
00000000
,
00000000
00000000
10000000
00100000
10000000
00000000
00010000
00100000
00010000
00000000
10000000
00000000
01000000
00000000
00100000
00000000
,
00001000
00000000
00010000
00000000
00000000
00000000
00011000
00000000
00000000
00000000
00010000
00000100
00010000
00000000
00000100
00000000
,
00000000
00000000
00001000
00000010
00001000
00000000
00000001
00000010
00000001
00000000
00000100
00000000
00000010
00000000
00000100
00000000
,
00001000
00010000
00000000
00011000
00000000
00001000
00010000
00100000
,
20000000
00100000
30100000
00000000
10000000
10000000
00010000
00010000
,
01000000
00000000
01000000
00000000
00001000
00000000
00001000
00000000
00010000
00000000
00010000
00001000
00010000
00000000
00000000
00000000
,
00001000
00010000
00010000
00000010
00001000
00001000
00000100
00000010
,
00000000
00000000
00000010
00000000
00000001
00000010
00000001
00000000
00001000
00000100
00001000
00000100
00010000
00000100
00010000
00000000
,
00000000
00001000
00010000
00100000
00010000
00001000
00010000
00100000
,
00010000
00001000
00000000
00011000
00000000
00001000
00010000
01000000
,
00000000
00000000
10000000
00000000
01000000
00000000
10000000
00000000
00100000
01000000
00100000
01000000
00100000
00000000
10000000
00010000
,
10000000
00000000
01000000
00000000
00100000
00000000
00010000
00000000
10000000
00000000
01000000
00100000
01000000
00000000
00000000
00000000
,
10000000
00100000
10100000
10000000
01000000
00010000
00001000
00010000
,
00011000
00001000
00010000
00000100
00001000
00000010
00000100
00000000
,
00000001
00000010
00000011
00000001
00000100
00001000
00010000
00001000
,
00011000
00010000
00001000
01000000
00010000
00100000
01000000
00000000
,
10000000
01000000
01100000
00010000
01000000
01100000
10000000
01000000
,
01100000
00010000
01000000
01100000
10000000
01000000
00010000
00001000
,
00000010
00000001
00000101
00000010
00001000
00001100
00000010
00000001
,
00000101
00000010
00001000
00001100
00000010
00000001
00000010
00000000
,
00000001
00000000
00000100
00000000
00000000
00000000
00000010
00001000
00000010
00000000
00000100
00000000
00001000
00000000
00010000
00000000
,
00000000
00010000
00001000
00100000
00001000
00010000
00100000
01000000
,
00000000
01000000
00010000
01000000
00000000
00010000
00100000
00020000
,
00000000
02030000
00000000
03200000
00000000
20300000
00000000
00000000
,
30000000
00000000
10010000
00000000
10000000
01000000
00010000
00001000
,
00000000
00011000
00000000
00000000
00000000
00000000
00000000
00000000
,
00022000
00000000
00000000
00000000
,
00033000
00000000
00000000
00000000
00010000
00001000
00010000
00000000
00000010
00001000
00000010
00000000
00000000
00000000
00001010
00000000
,
00000000
00000000
00001000
00000000
00000100
00000000
00000010
00000001
00000010
00000000
00000000
00000000
00000001
00000000
00000100
00000010
,
00000100
00000001
00000010
00001000
00010000
00001000
00001000
00010000
,
00000000
00000000
00011000
00000000
00000000
00000000
00001000
00100000
00010000
00000000
00100000
00000000
00010000
00000000
01000000
00000000
,
00000000
00000000
00100000
00000000
10000000
00000000
00010000
10000000
00010000
00000000
00000000
00000000
00000000
00000000
00000000
00000000
,
10000000
00000000
01000000
00100000
01000000
00000000
00100000
00000000
00001000
00010000
00001000
00000000
00010000
00000000
00000010
00001000
,
00000010
00000000
00000100
00000000
00000001
00000010
00000001
00000000
00000200
00000000
00000010
00000000
00000000
00000000
00000001
00000000
,
00000301
00000000
00000000
00000000
00001000
00000100
00001000
00000100
00000010
00000001
00000010
00000000
00000100
00001000
00000100
00010000
,
00001000
00000000
00100000
00010000
00100000
00010000
00100000
00000000
01000000
10000000
00010000
10000000
00010000
00000000
10010000
00000000
,
00000000
00000000
00000000
00000000
;
