
//----- song ID: newm -----//
#TITLE:New Millennium;
#ARTIST:BEMANI Sound Team "Sota F.";
#BANNER:New Millennium.png;
#BACKGROUND:New Millennium-bg.png;
#CDTITLE:./CDTitles/DDR A3.png;
#MUSIC:New Millennium.ogg;
#SAMPLESTART:68.001;
#SAMPLELENGTH:15;
#DISPLAYBPM:60:300;
#BPMS:0=300,34=237.305,34.396=187.5,34.708=112.5,34.896=62.695,35=300,65=150,66=300,80=150,81=300,111=150,112=300,126=237.305,126.396=187.5,126.708=112.5,126.896=62.695,127=300,156=150,157=300,165=150,166=300,167=150,168=300,183=150,184=300,213=150,214=300,228=150,229=300,231=237.305,231.396=187.5,231.708=112.5,231.896=62.695,232=300,234=237.305,234.396=187.5,234.708=112.5,234.896=62.695,235=300,241=150,242=300,260=150,261=300,263=150,264=300,284=237.305,284.396=187.5,284.708=112.5,284.896=62.695,285=300,287=150,288=300,290=150,291=300,297=240,298.604=178.125,299.792=121.875,300.604=60.449,301.208=118.5,301.604=181.348,302.208=237.5,303=300,379=150,383=300,396=150,397=300,425=237.305,425.396=187.5,425.708=112.5,425.896=62.695,426=300,433=150,434=300,464=150,465=237.305,465.792=181.348,466.396=118.652,466.792=62.695,467=237.305,467.792=181.348,468.396=118.652,468.792=62.695,469=150,471=300;
#STOPS:155=0.1,155.5=0.1,166=0.1,166.5=0.1,182=0.1,182.5=0.1,212=0.1,212.5=0.1,268=0.1,268.5=0.1,269=0.1,269.5=0.1,295=0.1,295.5=0.1,296=0.1,296.5=0.1,395=0.05,395.25=0.05,395.5=0.05,395.75=0.05,432=0.1,432.5=0.1;
#BGSTAGE:14;
#NOTES:
     dance-single:
     :
     Beginner:
     6:
     :
0000
0000
0000
0000
,
0000
0000
0000
0000
,
0000
0000
0000
0000
,
0000
0000
0000
0000
,
0000
0000
0000
0000
,
0001
0000
0000
0000
,
0001
0000
0000
0000
,
0010
0000
0100
0000
,
0020
0000
0000
0030
,
0000
0010
0000
0000
,
0000
0010
0000
0000
,
0000
0100
0000
0100
,
0000
0100
0000
0000
,
0000
1000
0000
0000
,
0000
1000
0000
0000
,
0000
1000
0000
0010
,
0000
1001
0000
0000
,
0001
0000
0001
0000
,
0100
0000
0000
0000
,
0001
0000
0001
0000
,
0020
0030
0000
1000
,
0000
1000
0000
0010
,
0000
0000
0000
1000
,
0000
1000
0000
0100
,
0000
2000
0000
0000
,
0000
0000
0000
0000
,
0000
3000
0000
1000
,
0000
0100
0000
0020
,
0030
0000
0010
0000
,
0010
0000
0001
0000
,
1001
0000
0000
0000
,
0110
0000
0000
0000
,
0000
0110
0000
0000
,
0000
1001
0000
0000
,
0000
1000
0000
0100
,
0000
0001
0000
0001
,
0000
0000
1001
0000
,
0000
0110
0000
0001
,
0000
0010
0000
0200
,
0000
0300
0000
0100
,
0000
0100
0000
0010
,
0000
2000
0000
3000
,
0000
0000
1000
0000
,
0000
0100
0000
0000
,
0110
0000
0010
0000
,
0010
0000
0002
0000
,
0003
0000
0001
0000
,
0100
0000
0100
0000
,
0010
0000
0010
0000
,
1000
0000
0000
0000
,
0000
0000
1000
0000
,
0100
0000
0100
0000
,
0010
0000
0010
0000
,
0002
0000
0003
0000
,
0001
0000
0100
0000
,
0110
0000
0000
0000
,
1000
0000
0100
0000
,
0110
0000
0000
1001
,
0000
0000
0110
1000
,
0000
0100
0000
0010
,
0000
0002
1003
0000
,
1000
0000
1000
0000
,
0000
0000
0100
0000
,
0100
0000
0100
0000
,
0000
0000
1001
0000
,
0000
1001
0000
0000
,
0001
0000
0001
0000
,
0002
0000
0003
0000
,
0001
0000
0100
0000
,
0100
0000
0000
0000
,
0010
0000
1000
0000
,
0000
0110
0000
0000
,
0110
0000
0000
0001
,
0000
1000
0000
0001
,
0000
1001
0000
0000
,
0000
0000
0000
0000
,
0000
0000
0000
2000
,
0000
0000
0000
3000
,
0000
0000
0000
0002
,
0000
0000
0000
0003
,
0000
0000
0000
1000
,
0000
0000
0010
0000
,
0000
1000
0000
0100
,
0000
0010
0000
0001
,
0000
0000
0000
0002
,
0000
0000
0000
0003
,
0000
0000
0000
2000
,
0000
0000
0000
3000
,
0000
0000
0000
0001
,
0000
0000
0100
0000
,
0000
0001
0000
0010
,
0000
0100
0000
1000
,
0000
0000
0000
0001
,
0000
0010
0000
1000
,
0000
0000
0000
2002
,
0000
3003
0000
1000
,
0000
0000
0001
0000
,
0000
1000
0000
0010
,
0000
0010
0000
1001
,
0000
0020
0000
0000
,
0000
0030
0000
0000
,
0000
0200
0000
0000
,
0000
0300
0000
0000
,
0000
1000
0000
0010
,
0000
0001
0000
0100
,
0000
1000
0000
1000
,
0000
0002
0003
0000
,
0000
0000
0000
0000
,
0000
0000
0000
0000
,
1000
0000
0000
0000
,
0010
0000
0000
0000
,
0100
0000
0001
0000
,
0100
0000
0000
0000
,
0001
0000
0000
0000
,
0010
0000
0000
0000
,
0100
0000
1000
0000
,
0000
0010
0000
0010
,
0000
0000
0000
2002
,
0000
0000
0000
0000
,
0000
0000
0000
0000
,
0000
0000
0000
0000
,
0000
0000
0000
0000
,
0000
0000
0000
0000
,
3003
0000
0000
0000
,
0000
0000
0000
0000
;
#NOTES:
     dance-single:
     :
     Easy:
     12:
     :
0000
0000
0000
0000
,
0000
0000
0000
0000
,
0000
0000
0000
0000
,
0000
0000
0000
0000
,
0000
0000
0000
0000
,
1000
0000
1000
0000
,
0001
0000
0001
0000
,
1000
0000
0100
0000
,
0010
0001
2000
3001
,
0100
0001
0000
0010
,
0000
0110
0000
1000
,
0100
1000
0000
0010
,
0000
0110
0000
0001
,
0100
0010
0000
1000
,
0100
0010
0000
0001
,
1000
0001
0000
1000
,
0000
2002
3003
0000
,
0011
0000
0000
0000
,
0101
0000
0000
0000
,
1010
0000
1000
0001
,
2000
3000
0000
0110
,
0000
0000
0000
1010
,
0000
0000
0000
0110
,
0000
0001
1000
0001
,
0000
1000
0010
1000
,
0000
0001
0100
0001
,
0000
0000
0010
0010
,
0000
0100
0000
2000
,
3001
0100
1000
0000
,
1000
0100
0001
0000
,
1000
0000
0100
0000
,
0010
0001
0020
0031
,
0000
1000
0000
0010
,
0100
0010
0000
1000
,
0010
0100
0000
0001
,
0010
0100
0000
1000
,
0000
1010
0000
0000
1001
0000
0000
1000
,
0100
0010
0000
0001
,
0100
0001
0000
0200
,
0000
0301
0010
0100
,
0000
1000
0001
0010
,
0000
0000
0020
0000
0100
0100
0130
0000
,
0110
0000
0000
0000
0001
0000
0000
0011
,
0000
0000
1001
0000
0000
0001
0100
0000
,
0010
0000
1000
0000
,
0001
0010
0200
0000
,
1300
0001
0000
1000
0001
0000
0100
0000
,
0000
0010
1000
0000
,
0001
0010
0000
0001
0010
0000
0100
0000
,
0000
1000
0001
0000
,
1000
0010
0000
1000
0010
0000
0100
0000
,
0000
0001
0010
0000
,
0100
0010
0000
0100
0010
0000
0000
0000
,
0002
0003
0001
0000
,
0001
0101
0000
1000
,
1010
0000
1000
1100
,
0000
0100
0110
0000
,
0011
0000
0001
0000
0000
0000
0220
0330
,
1000
0000
0000
0000
0220
0330
0001
0000
,
0010
1000
0010
0001
,
0001
0000
2000
0000
3001
0100
0000
0100
,
0000
0000
0101
0000
1000
0100
0000
0100
,
0000
1100
1000
0010
,
0001
0000
0010
0000
1000
0001
0000
0001
,
0000
0000
1000
0010
,
0220
0330
0001
0000
0010
0000
0220
0330
,
1000
0100
0001
0100
,
2000
0000
0000
0000
3001
0100
0000
0010
,
0000
0000
1010
0000
1000
0100
0000
0010
,
0000
0011
0001
0010
,
1000
0010
0001
0100
,
0020
0000
1030
0000
0000
0000
0220
0330
,
0001
0000
0000
0000
0220
0330
1000
0000
,
1000
0000
0001
0100
0001
0000
1000
1000
,
1000
2002
0000
0000
,
0000
0000
0000
0000
,
0000
3003
0000
0001
,
0100
0010
1000
0001
,
0100
0000
0010
1000
0010
0000
1000
0000
,
0100
0010
0001
1000
,
0100
0010
0000
0001
,
0000
0101
0000
0000
0100
0000
0000
0110
,
0000
0000
0010
0000
1000
0000
0010
0100
,
0000
0010
0000
0000
0100
0000
0001
0000
,
0000
1001
0000
1000
,
0010
0100
0001
1000
,
0010
0000
0100
0001
0100
0000
0001
0000
,
0010
0100
1000
0001
,
0010
0000
0100
1000
0100
0000
1000
0000
,
0000
1010
0000
0000
0010
0000
0000
0110
,
0000
0100
0001
0100
,
0000
0010
0000
0000
0110
0000
0000
0000
,
0001
1001
0000
1000
,
0010
0001
0010
1000
,
0100
0000
0001
0000
0100
0000
2000
3000
,
1100
0110
0011
0001
,
0000
0101
0000
0000
1000
0000
0000
1100
,
0000
0001
0010
0001
,
0000
0100
0000
0000
0010
0000
2000
0000
,
3000
1000
0010
0100
,
0001
0000
1000
0000
0100
0000
0010
0001
,
0010
0001
1000
0010
,
0100
0000
0001
0000
1000
0000
0100
0010
,
0100
0000
1000
0000
0000
1010
0000
0000
,
0110
0000
0001
1000
0000
0001
1000
0000
,
0000
0001
1000
0010
,
0000
2002
3003
0000
,
1000
0010
0100
0001
,
0200
0300
1000
0010
,
1000
0000
0100
0000
,
1001
0000
0001
0010
,
0001
0000
0100
0000
,
1001
0000
1000
0010
,
0100
0000
0001
0010
,
0100
0000
1000
0001
,
1000
0000
0001
0000
,
1001
0000
0000
0000
0000
0000
0000
0000
0200
0000
0000
0000
0000
0000
0000
0000
0000
0000
0000
0300
0000
0000
0000
0000
0200
0000
0000
0000
0000
0000
0000
0000
,
0000
0000
0000
0300
0000
0000
0000
0000
0010
0000
0000
0000
0000
0000
0000
0000
0010
0000
0000
0000
0000
0000
0000
0000
2002
0000
0000
0000
0000
0000
0000
0000
,
0000
0000
0000
0000
,
0000
0000
0000
0000
,
0000
0000
0000
0000
,
0000
0000
0000
0000
,
0000
0000
0000
0000
,
3003
0000
0000
0000
,
0000
0000
0000
0000
;
#NOTES:
     dance-single:
     :
     Medium:
     15:
     :
0000
0000
0000
0000
,
0000
0000
0000
0000
,
0000
0000
0000
0000
,
0000
0000
0000
0000
,
0000
0000
0000
0000
,
1000
0100
0010
0000
,
0001
0100
0010
0000
,
1000
0001
1000
0001
,
1000
0001
0002
1003
,
0100
1000
0100
0010
,
0001
0000
0010
0001
0100
0000
0010
1000
,
0000
0010
0000
1000
0010
0000
0100
0000
,
0001
0000
1000
0001
1000
0000
0001
0000
,
0100
0010
0000
0100
0000
0010
1000
0000
,
0001
0000
0100
0000
0010
0000
1000
0100
,
0000
0010
0000
0001
0010
0000
0100
1000
,
0001
0000
2000
0000
3001
0000
0100
0010
,
0000
1000
0000
0100
0010
0000
0001
0010
,
0000
0000
0110
0000
1001
0000
0001
0010
,
0000
0000
0100
1000
0100
0000
1100
0000
,
2002
3003
1000
0000
0100
0010
0000
0001
,
0000
0100
0010
0000
1000
0010
0000
0000
,
0110
0000
1001
0000
1000
0010
0000
0000
,
0100
0001
0200
0000
0302
0000
2003
0000
,
3020
0000
1030
0001
1000
0001
0000
0100
,
0010
1000
0001
0010
,
0100
0010
0000
0000
0001
0100
0000
0010
,
1000
0000
0000
0010
0000
0100
0000
0001
0000
2000
0000
0000
,
3001
0000
0001
0010
0000
0100
1000
0000
,
0010
0000
0010
0100
0000
0000
1001
0000
,
0001
0100
0000
0100
0010
0000
1000
0000
,
0100
0010
0000
0010
0002
0000
1003
0000
,
0001
0100
0001
0100
0001
0000
0010
0000
,
0100
1000
0100
1000
0100
0000
1000
0010
,
1000
0000
0001
0100
0001
0000
1000
0000
,
0100
0001
0100
1000
,
0010
0100
0000
0001
1000
0000
0100
0010
,
0001
0000
1001
0000
0000
0000
0001
0100
,
0001
0000
0100
0000
0010
0000
1000
0000
0010
0000
0000
0000
0200
0300
0200
0300
,
0002
0000
1003
0000
1000
0100
0010
0000
,
0010
0000
0001
0000
0001
0100
0010
0000
,
0010
0000
0000
0000
1000
0001
1000
0001
1000
0000
0000
0000
0002
0000
0000
0000
,
1003
0000
0000
0000
0001
0000
0100
0010
,
0000
0010
1000
0000
1000
0100
0010
0000
,
0001
0000
1000
0000
0001
0010
0001
0000
,
1000
0000
0010
0000
1000
0000
0000
0000
0200
0300
0200
0300
0002
0000
0000
0000
,
1003
0100
1000
0100
1000
0000
0001
0100
,
0001
0100
0001
0000
1000
0001
1000
0000
,
0001
0010
0001
0010
0001
0000
1000
0010
,
1000
0010
1000
0000
0110
0000
0000
0000
,
1000
0001
1000
0001
0010
0000
0100
0010
,
0100
0010
0001
0000
0100
0010
1000
0000
,
0001
1000
0001
1000
0010
0000
0100
0001
,
0200
0000
0300
0000
0001
0010
0001
0010
,
0100
0000
1000
0010
1000
0010
0100
0000
,
0001
0000
1001
0000
0001
0000
0100
0010
,
1000
0010
1000
0000
0001
1000
0001
0000
,
1001
0000
0001
0010
0000
0100
2000
3000
,
1000
0010
0000
0100
0002
0003
0001
0000
,
0100
0000
0010
0000
1000
0000
0001
1000
,
0001
0000
2000
0000
3001
0010
0000
0011
,
0000
0010
0001
0000
1000
0100
0000
1100
,
0000
0100
1000
0000
0010
1000
0100
0000
,
0010
0001
0100
0000
0010
1000
0000
1001
,
0000
0001
0010
0000
0001
0100
0001
0100
,
0002
0000
1003
0100
1000
0100
2000
0000
,
3001
0010
0100
0000
1000
0010
0100
0000
,
0001
0001
0001
0001
0001
0100
0000
0101
,
0000
0100
0001
0000
1000
0010
0000
1010
,
0000
0010
1000
0000
0100
1000
0010
0000
,
0100
0001
0010
0000
0100
1000
0000
1000
,
0002
0000
1003
0010
1000
0010
2000
0000
,
3001
0010
0001
0010
0002
0000
1003
0100
,
0010
0000
0001
0100
0010
0000
1000
1000
,
1000
1000
0200
0000
0000
0000
0000
0000
,
0000
0000
0000
0000
,
0000
0000
0300
0000
0000
0000
1000
0001
,
0010
0000
0100
1000
0001
0000
0100
0010
,
0100
0010
1000
0000
0000
0000
0001
0010
,
0001
0000
0100
0010
1000
0000
0001
1000
,
0001
1000
0100
0000
0000
0000
1000
0000
,
0001
0100
0000
0000
0001
0000
1000
0100
,
0000
0000
1000
0001
1000
0000
0001
0010
,
0000
1000
0000
0010
0001
0000
1000
0000
,
0100
0000
0110
0000
0000
0000
0001
1000
,
0100
0000
0010
0001
1000
0000
0010
0100
,
0010
0100
0001
0000
0000
0000
1000
0100
,
1000
0000
0010
0100
0001
0000
1000
0001
,
1000
0001
0010
0000
0000
0000
0001
0000
,
1000
0010
0000
0000
1000
0000
0001
0010
,
0000
0000
0001
1000
0001
0000
1000
0000
,
0000
0100
0000
0000
0110
0000
0000
0001
,
0100
0000
1001
0000
0000
0000
1000
0100
,
1000
0000
0100
0010
0100
0000
0010
0001
,
0010
0000
0001
1000
0001
1000
0002
0000
,
1003
0010
1000
0000
0001
0100
0001
0000
0100
0010
0100
0000
0001
0000
0100
0000
,
0000
0110
0000
0000
1000
0100
0000
0110
,
0000
0000
0001
0100
0001
0000
1000
0000
,
0010
0000
0100
0000
0000
0000
0100
0000
0010
0000
0000
0000
1000
0001
1000
0001
,
1000
0000
0001
0010
0100
1000
0010
0100
,
0001
0000
1000
0001
1000
0000
0100
0010
,
0100
0000
1000
0100
0010
0001
0100
0010
,
1000
0000
0010
0100
0010
0000
1000
0001
,
1000
0000
0001
0000
0100
0010
0000
0010
,
1000
0000
0001
0010
0000
0010
0100
0000
,
0000
0000
1000
0100
0010
0000
0001
1000
,
0000
1000
0002
0000
0003
0000
0000
0000
,
1000
0100
0000
1000
0100
0000
0010
0001
,
0020
0030
0001
0010
,
0001
0010
0100
1000
,
0100
1000
0010
0000
0100
0001
0000
0100
,
0000
0001
0100
0000
0010
0000
1000
0000
,
0001
1000
0001
0000
1000
0000
0010
0100
,
0000
0010
0000
0100
0001
0000
1000
0000
,
0010
0000
0100
0000
0001
0010
0000
0100
,
0000
1000
0100
0000
0010
0001
1000
0000
,
0001
0000
0000
0000
0000
0000
0000
0000
0200
0000
0000
0000
0000
0000
0000
0000
0000
0000
0000
0300
0000
0000
0000
0000
0200
0000
0000
0000
0000
0000
0000
0000
,
0000
0000
0000
0300
0000
0000
0000
0000
0001
0000
0000
0000
0000
0000
0000
0000
1000
0000
0000
0000
0000
0000
0000
0000
2002
0000
0000
0000
0000
0000
0000
0000
,
0000
0000
0000
0000
,
0000
0000
0000
0000
,
0000
0000
0000
0000
,
0000
0000
0000
0000
,
0000
0000
0000
0000
,
3003
0000
0000
0000
,
0000
0000
0000
0000
;
#NOTES:
     dance-single:
     :
     Hard:
     17:
     :
0000
0000
0000
0000
,
0000
0000
0000
0000
,
0000
0000
0000
0000
,
0000
0000
0000
0000
,
0000
0000
0000
0000
,
0001
0000
0100
0010
0000
1000
0000
0010
,
0000
1000
0100
0000
0010
0000
0001
0000
,
0010
0001
0000
1000
0000
0001
0100
0000
,
0010
1000
0001
1000
0002
0000
1003
0100
,
0010
0001
0000
0010
0100
1000
0010
0100
,
0010
0000
1010
0000
0101
0000
0100
0001
,
0010
0001
0000
1000
0100
1000
0010
0000
,
0110
0000
0001
0000
1001
0000
1000
0100
,
1000
0100
0000
1000
0100
1000
0001
0010
,
0001
0100
0001
0100
0001
0000
0100
0001
,
0010
0100
1000
0010
0100
0001
0010
0100
,
1000
0010
0200
0000
0301
1000
0001
1000
,
0000
1000
0100
0010
0001
0100
0001
0100
,
0000
0100
0010
1000
0010
0100
0010
1000
,
0000
1000
0100
0010
0100
0010
0001
0010
,
0002
0000
1003
0001
1000
0001
0000
0001
,
0100
0010
1000
0100
1000
0100
0000
0100
,
0010
0001
0010
0100
0010
0001
0000
0001
,
0100
0010
1000
0010
1000
0010
0100
0001
,
0100
0001
0100
0010
1000
0100
0010
0001
,
1000
0001
0010
0100
0010
0100
1000
0001
,
0100
0002
0000
0000
0103
0010
1000
0100
,
0010
0000
0000
0100
0000
0000
1000
0000
0000
0000
0010
0000
0000
0000
0100
0000
0000
0000
0002
0000
0000
0000
0000
0000
,
1003
0010
0100
0010
0000
0010
1000
0100
,
1000
0001
0010
0001
0000
0001
0100
0010
,
1000
0100
0000
0010
0001
0000
1000
0100
,
0010
0001
0000
0010
0200
0000
1300
0010
,
1000
0010
1000
0010
1000
0000
0001
0100
,
0001
0100
0001
0100
0001
0000
0011
0000
,
1100
0000
1000
0010
0100
0001
0010
0000
,
0100
0010
0100
0010
0100
0000
1000
0100
,
1000
0001
0100
0001
1000
0010
1000
0001
,
0010
0001
1000
0000
1001
0000
0001
0010
,
0100
0000
1000
0000
0001
0000
0010
0000
0100
0000
1000
0000
0200
0300
0200
0300
,
0002
0000
1003
0010
0100
0001
1000
0010
,
0100
0001
1000
0100
1000
0100
0010
0100
,
0010
0000
0100
0000
0010
0001
0010
0001
0100
0000
0110
0000
2000
0000
0000
0000
,
3001
1000
0001
0000
1000
0010
0100
0001
,
0010
0100
1000
0010
0100
0001
0010
0100
,
1000
0010
0100
0000
0001
0100
0001
0100
,
0010
0000
1000
0000
0010
0000
1000
0000
0200
0300
0200
0300
0002
0000
0000
0000
,
1003
0010
1000
0001
0010
0001
1000
0010
,
1000
0001
0010
0001
1000
0001
1000
0001
,
1000
0100
1000
0001
0100
0001
1000
0100
,
1000
0001
0100
0001
1000
0000
1001
0000
,
0001
0010
0001
1000
0010
1000
0001
0010
,
0001
1000
0010
1000
0001
1000
0001
1000
,
0001
0100
0001
1000
0100
1000
0001
0100
,
0010
0010
0010
0000
1000
0100
0010
0100
,
1000
0010
1000
0100
0010
0100
1000
0010
,
0100
0001
1000
0010
0100
0001
0010
0100
,
0010
0001
0100
0001
0010
0100
0010
0000
,
2002
0000
0000
0000
0000
0000
0000
0000
0000
0000
0000
0000
3003
0000
0000
0000
0000
0000
0000
0000
0000
0000
0000
0000
1000
0000
0000
0000
0000
0000
0000
0000
0000
0000
0000
0000
0100
0000
0000
0000
0000
0000
0000
0000
0000
0000
0000
0000
0010
0000
0000
0000
0000
0000
0000
0000
0000
0000
0000
0000
0001
0000
0000
0000
0000
0000
0000
0000
0000
0000
0000
0000
2000
0000
0000
0000
0000
0000
0000
0000
0000
0000
0000
0000
0000
0000
0000
0000
0000
3000
0000
0000
0000
0000
0000
0000
,
0001
0000
0000
0000
0000
0000
0000
0000
0000
0000
0000
0000
0100
0000
0000
0000
0000
0000
0000
0000
0000
0000
0000
0000
0010
0000
0000
0000
0000
0000
0000
0000
0000
0000
0000
0000
1000
0000
0000
0000
0000
0000
0000
0000
0000
0000
0000
0000
0002
0000
0000
0000
0000
0000
0000
0000
0000
0000
0000
0000
0000
0000
0000
0000
0000
0003
0000
0000
0000
0000
0000
0000
0001
0000
0000
0000
0000
0000
0000
0000
0000
0000
0000
0000
0000
0000
0000
0000
0000
0000
0000
0000
0000
0000
0000
0000
,
0010
0000
0100
0000
1000
0000
0010
0100
,
0010
0000
0220
0330
0001
0100
0001
0100
,
0010
1000
0100
1000
0010
0100
0000
0110
,
0000
0010
1000
0010
0100
0001
0010
0001
,
0100
0010
1000
0100
1000
0010
0000
1001
,
0000
0001
1000
0001
0100
0010
1000
0001
,
0022
0033
0100
0010
0001
1000
2020
3030
,
0001
1000
0100
0000
1000
0001
0100
0000
,
0010
0010
0010
0010
0010
1000
0000
1010
,
0000
0010
1000
0100
0010
0001
0000
0101
,
0000
0100
0001
0010
0100
1000
0010
0000
,
0100
0001
0010
0000
0100
0010
0100
0010
,
0200
0000
0000
0000
0000
0000
0000
0000
0000
0000
0000
0000
0000
0000
0000
0000
0000
0300
0000
0000
0000
0000
0000
0000
1000
0000
0000
0000
0000
0000
0000
0000
0000
0000
0000
0000
0001
0000
0000
0000
0000
0000
0000
0000
0000
0000
0000
0000
1000
0000
0000
0000
0000
0000
0000
0000
0000
0000
0000
0000
0100
0000
0000
0000
0000
0000
0000
0000
0000
0000
0000
0000
0220
0000
0000
0000
0000
0000
0000
0000
0000
0000
0000
0000
0330
0000
0000
0000
0000
0000
0000
0000
0000
0000
0000
0000
,
0001
1000
0001
0100
0220
0330
0001
1000
,
0010
0000
1000
0001
0010
0000
0100
0100
,
0100
0100
0200
0000
0000
0000
0000
0000
,
0000
0000
0000
0000
,
0000
0000
0300
0000
0000
0000
1000
0100
,
0010
0001
1000
0010
0100
0001
0010
0100
,
1000
0010
1000
0100
0010
0001
0100
0010
,
1000
0010
1000
0100
0010
0100
1000
0001
,
0010
0100
1000
0100
0010
0001
1000
0010
,
1000
0010
0000
0000
0001
0010
0001
0010
,
0000
0000
1000
0100
1000
0100
1000
0001
,
0000
0101
0000
0100
0001
0000
0011
0000
,
0110
0000
1001
0000
0000
0000
0001
0010
,
0001
1000
0100
0010
0001
0100
0010
1000
,
0001
0100
0001
1000
0010
0100
0010
1000
,
0100
1000
0010
1000
0100
0010
0001
1000
,
0100
0010
0001
0100
0010
1000
0001
0100
,
0001
0100
0000
0000
1000
0100
1000
0100
,
0000
0000
0001
0010
0001
0010
0001
0000
,
0100
0010
1000
0000
1001
0000
0000
0100
,
0010
0000
0110
0000
1001
0000
0001
0100
,
0001
0010
0001
0100
0010
1000
0000
0001
,
0010
0100
0010
0001
1000
0100
0020
0000
,
0031
1000
0100
1000
0010
0100
0010
1000
0001
0010
0100
1000
0001
0000
0100
0000
,
0010
1000
0000
0000
0001
0100
0010
1000
,
0000
0000
0001
0100
0010
1000
0010
0100
,
0010
0000
1000
0000
0001
0000
1000
0000
0100
0000
0010
0000
0100
0010
0001
0010
,
0001
0000
0001
0010
0100
1000
0010
0100
,
0001
0010
0001
1000
0010
0100
0010
1000
,
0100
0010
0001
0010
0100
0010
0001
0100
,
0001
0010
0100
1000
0010
1000
0100
1000
,
0010
1000
0001
0100
0010
1000
0100
0010
,
0001
0010
0100
1000
0010
0100
0001
1000
,
0100
0010
0001
0100
0001
0100
0001
0010
,
0100
1000
0020
0000
0030
0000
0000
0000
,
1000
0100
0000
0100
0010
0000
0010
0001
,
0101
0110
1001
0000
1000
0010
1000
0010
,
0000
0010
0100
0010
1000
0100
0010
0000
,
0011
0000
1001
0000
1000
0100
0000
0110
,
0000
0010
0001
0100
0001
0010
0001
1000
,
0001
0000
0110
0000
1000
0010
1000
0010
,
0000
0100
0010
1000
0100
0010
0100
0010
,
0100
1000
0010
0000
0100
0001
0010
0001
,
1000
0001
0100
0010
1000
0001
1000
0001
,
1000
0000
0000
0000
0000
0000
0000
0000
0200
0000
0000
0000
0000
0000
0000
0000
0000
0000
0000
0300
0000
0000
0000
0000
0200
0000
0000
0000
0000
0000
0000
0000
,
0000
0000
0000
0300
0000
0000
0000
0000
0001
0000
0000
0000
1000
0000
0000
0000
0001
0000
0000
0000
0000
0000
0000
0000
2002
0000
0000
0000
0000
0000
0000
0000
,
0000
0000
0000
0000
,
0000
0000
0000
0000
,
0000
0000
0000
0000
,
0000
0000
0000
0000
,
0000
0000
0000
0000
,
3003
0000
0000
0000
,
0000
0000
0000
0000
;
#NOTES:
     dance-single:
     :
     Challenge:
     18:
     :
0000
0000
0000
0000
,
0000
0000
0000
0000
,
0000
0000
0000
0000
,
0000
0000
0000
0000
,
0000
0000
0000
0000
,
1000
0100
0010
0001
0000
0011
0000
1010
,
0000
0010
1000
0010
0100
0000
0101
0000
,
0001
0010
0100
1000
0001
0010
0100
0100
,
1000
0001
1000
0000
2002
3003
1000
0010
,
0100
0101
0000
0001
0010
0001
0100
0010
,
1010
0000
0001
0100
0101
0000
0001
0010
,
0100
0110
0000
1000
1001
0000
0001
0100
,
1000
0000
1001
0000
0110
0000
0010
1000
,
0010
0000
1000
0000
0000
0000
0100
0000
0010
0000
0100
0000
0010
0001
0010
0000
,
0001
0000
0011
0000
1100
0000
1000
0100
,
0001
0100
1000
0010
0001
0010
0100
0001
,
1000
0000
2002
3003
0001
0100
0001
0100
,
1000
0001
1000
0001
0010
1000
0010
1000
,
0100
0001
0100
0001
1000
0010
0100
0010
,
1000
0010
0100
0010
1000
0010
0001
1000
,
2002
3003
1000
0100
1000
0100
0001
1000
,
0001
1000
0010
0001
0010
0001
0100
1000
,
0100
1000
0001
0010
0100
0010
0001
0010
,
0100
0010
0002
0000
0023
0000
2030
0000
,
3200
0000
0310
0001
0100
0010
0001
0010
,
0100
0001
1000
0100
0010
1000
0010
0100
,
1000
0001
0000
0000
0011
0001
0100
0001
,
0010
0000
0000
0100
0000
0000
1100
0000
0000
0000
1000
0000
0000
0000
0001
0000
0000
0000
0022
0000
0000
0033
0000
0000
,
0010
0001
0010
0001
0100
1000
0100
0001
,
1000
0100
1000
0100
0010
1000
0010
0001
,
1000
0100
0000
0001
1000
0000
0010
0001
,
0100
1000
0000
0001
0020
0000
1030
0100
,
1000
0100
0001
0100
0001
0100
0010
0001
,
0100
0010
1000
0100
0010
0001
0100
1000
,
0100
1000
0100
0001
0010
0100
1000
0010
,
0100
0001
1000
0100
0010
0001
0100
0010
,
1000
0100
0010
0001
0100
0010
1000
0100
,
0100
0010
0001
0100
0010
1000
0001
0100
,
0110
0000
0000
0000
1000
0000
0100
0000
0110
0000
0000
0000
0200
0300
0200
0300
,
0002
0000
1003
0010
1000
0010
1000
0010
,
1000
0000
0000
0100
0000
0000
0010
0000
0000
0001
0000
0000
0010
0000
0000
0001
0000
0000
0010
0000
0001
0000
0010
0000
,
0001
0000
1000
0000
0001
0100
0010
1000
0100
0000
0110
0000
2002
0000
3003
0000
,
1000
0010
0100
0001
1000
0001
0100
0001
,
1000
0100
1000
0001
0010
0001
1000
1000
,
0010
0000
0110
0100
0001
0010
0100
1000
,
0001
0000
0010
0000
0100
0000
1000
0000
0200
0300
0200
0300
0002
0000
0000
0000
,
1003
0100
0100
0001
0100
0100
1000
0010
,
0010
0001
0010
0010
1000
0100
0010
0001
,
0100
0001
0001
0010
0100
0100
1000
0010
,
0010
0100
0010
0000
0220
0000
0330
0000
,
0001
0100
0100
1000
0100
0100
0001
0010
,
0010
1000
0010
0010
0001
0100
0010
1000
,
0100
1000
1000
0010
0100
0100
0001
0010
,
0110
0000
0000
0110
0000
0000
1001
0000
0000
0000
0000
0000
1000
0000
0000
0010
0000
0000
0100
0000
0001
0000
0100
0000
,
0001
0000
0000
0010
0000
0000
0100
0000
0000
0010
0000
0000
0001
0000
1000
0000
0001
0000
1000
0000
0000
0100
0000
0000
,
0010
0000
0000
0001
0000
0000
0100
0000
0000
0001
0000
0000
1000
0000
0000
0010
0000
0000
0100
0000
0001
0000
1000
0000
,
0001
0000
0000
0100
0000
0000
0010
0000
0000
1000
0000
0000
0100
0000
1000
0000
0001
0000
1000
0000
0000
0000
0000
0000
,
2002
3003
0001
0100
0100
1000
0020
0000
,
1030
0100
0100
0001
0020
0000
0031
0000
,
0101
0000
0110
0000
1010
0000
1000
0001
,
1000
0000
2002
3003
1000
0010
0100
0001
,
1000
0100
0010
0001
0100
0010
0100
0110
,
0000
0010
1000
0010
0100
0001
1001
1000
,
0100
1000
1001
0001
0100
0010
1000
1010
,
0000
0001
1001
0000
1000
1000
0010
0010
,
2020
3030
0001
0001
0100
0100
0202
0303
,
0001
0100
1000
1000
0001
0010
1000
1000
,
0001
1000
0100
0001
1000
0100
0010
1010
,
0000
1000
0001
0100
0010
0001
0100
0110
,
0000
0010
0001
0010
1000
0100
0001
0100
,
1000
0010
0001
0010
1000
1000
0100
0010
,
0022
0033
0001
0001
0100
0010
2020
3030
,
1000
1000
0010
0100
0202
0303
0001
0010
,
0100
1000
0100
0010
0001
1000
0100
0001
,
0010
1000
0200
0000
0000
0000
0000
0000
,
0000
0000
0000
0000
,
0000
0000
0300
0000
0000
0000
0001
0010
,
0100
1000
0100
0010
0100
0001
1000
0010
,
0100
0010
0001
1000
0001
0100
0010
1000
,
0001
0100
0010
0100
1000
0100
0010
0001
,
1000
0100
0010
1000
0100
0010
0001
0100
,
0010
1010
0000
0000
1000
0100
0010
0011
,
0000
0000
0001
0100
1000
0100
0001
0010
,
0100
1100
0000
1000
0001
0010
0011
0000
,
1100
0000
2002
0000
3003
0000
1000
0010
,
0100
0001
0100
0010
0100
1000
0001
0010
,
0100
0010
1000
0001
1000
0100
0010
0001
,
1000
0100
0010
0100
0001
0100
0010
1000
,
0001
0100
0010
0001
0100
0010
1000
0100
,
0010
0011
0000
0000
0001
0100
0010
1010
,
0000
0000
1000
0100
0001
0100
1000
0010
,
0100
0100
0001
0010
0100
0100
1000
0001
,
0100
0000
0110
0000
1001
0000
1000
0010
,
0100
0001
0100
0010
1000
0001
0010
0001
,
0010
0000
0100
0000
1000
0000
0100
0000
0010
0000
0001
0000
1000
0100
1000
0000
,
0001
0010
0001
0001
0100
0010
0100
0100
0010
1000
0001
0100
0001
0000
1000
0000
,
0010
0110
0000
0000
1000
0001
0010
0110
,
0000
0000
0001
0010
0100
1000
0010
0100
,
0100
0000
1000
0000
0100
0000
0100
0000
0001
0000
0100
0000
0100
1000
0010
0100
,
0202
0303
1000
0010
1000
0010
0100
0100
,
0001
0001
0010
0100
1000
0010
0100
0010
,
1010
1000
0001
0010
0001
0010
0100
0100
,
1000
1000
0010
0100
1000
0100
0001
0010
,
0011
0001
0100
0010
1000
0100
0010
0001
,
0100
0010
1000
0100
0001
1000
0010
0001
,
1000
0100
0001
0100
1000
0001
0100
0100
,
0000
0010
0220
0000
0330
0000
0000
0000
,
1000
0010
1000
0010
0100
0010
0100
0001
,
0101
1100
0101
0000
1000
0010
0100
0001
,
1000
0100
0010
0001
0100
0010
1010
1000
,
0001
0010
0011
0000
0001
0100
0100
1000
,
0100
0100
0001
0010
0100
0100
1100
0000
,
1010
0010
0110
0000
0100
0001
0010
0001
,
0100
0000
0010
0000
0001
0000
1000
0000
0100
0010
0100
0000
0010
0000
1000
0000
,
0100
0010
0001
0100
0010
0010
1000
0001
,
0010
0100
0100
1000
0001
0010
0100
1000
,
0001
0000
0000
0000
0000
0000
0000
0000
0020
0000
0000
0000
0000
0000
0000
0000
0000
0000
0000
0030
0000
0000
0000
0000
0200
0000
0000
0000
0000
0000
0000
0000
,
0000
0000
0000
0300
0000
0000
0000
0000
0001
0000
0001
0000
0001
0000
0000
0000
1000
0000
1000
0000
1000
0000
0000
0000
2002
0000
0000
0000
0000
0000
0000
0000
,
0000
0000
0000
0000
,
0000
0000
0000
0000
,
0000
0000
0000
0000
,
0000
0000
0000
0000
,
0000
0000
0000
0000
,
3003
0000
0000
0000
,
0000
0000
0000
0000
;
#NOTES:
     dance-double:
     :
     Easy:
     12:
     :
00000000
00000000
00000000
00000000
,
00000000
00000000
00000000
00000000
,
00000000
00000000
00000000
00000000
,
00000000
00000000
00000000
00000000
,
00000000
00000000
00000000
00000000
,
00100000
00000000
10000000
00000000
,
00100000
00000000
01000000
00000000
,
00001000
00000000
00010000
00000000
,
00001000
00010000
00020000
00031000
,
00000000
00010000
00000000
00000100
,
00000000
00001000
00000000
00000010
,
00000000
00001000
00000000
00000100
,
00000010
00000001
00000000
00000001
,
00000100
00000100
00000000
00000001
,
00000010
00000010
00000000
00000100
,
00010000
00001000
00010000
00001000
,
00000000
00022000
00033000
00000000
,
00011000
00000000
00000000
00000000
,
00110000
00000000
00000000
00000000
,
01100000
00000000
10000000
00010000
,
20000000
30000000
00000000
01100000
,
00000000
00000000
00000000
01010000
,
00000000
00000000
00000000
00011000
,
00000000
00001000
00010000
00001000
,
00000000
00010000
00000100
00010000
,
00000000
00000100
00001000
00000100
,
00001000
00000000
00000010
00000010
,
00000000
00000000
00000100
00000000
00000000
00000000
00002002
00003003
,
00000001
00000100
00000010
00000000
,
00001000
00000100
00000010
00000000
,
00000001
00000000
00000100
00000000
,
00001000
00010000
00002000
00013000
,
00000000
00001000
00000000
00100000
,
01000000
00100000
00000000
00010000
,
10000000
01000000
00000000
10000000
,
00010000
01000000
00000000
00100000
,
00000000
10100000
00000000
00000000
10010000
00000000
00000000
00010000
,
01000000
00100000
00000000
10000000
,
01000000
00010000
00001000
00020000
,
00000000
00031000
00000000
00011000
,
00000000
00010000
00000100
00000010
,
00000000
00000002
00000003
00001001
,
00000000
00000000
00000000
00000000
00000001
00000000
00000000
00000011
,
00000000
00000000
00001001
00000000
00000000
00001000
00000010
00000000
,
00000100
00000000
00000001
00000000
,
00000100
00001000
00020000
00000000
,
00031000
01000000
00000000
00001000
01000000
00000000
00010000
00000000
,
00000000
10000000
10000000
00000000
,
01000000
00100000
00000000
01000000
00100000
00000000
00001000
00000000
,
00000000
00010000
00010000
00000000
,
00000100
00001000
00000000
00000100
00001000
00000000
00000010
00000000
,
00000000
00000100
00000100
00000000
,
00000001
00001000
00000000
00000001
00001000
00000000
00000001
00000000
,
00000020
00000030
00000001
00000000
,
00001000
00001100
00000000
00000010
,
00010010
00000000
00010000
00011000
,
00000000
00001000
01001000
00000000
,
00110000
00000000
00010000
00000000
00000000
00000000
02200000
03300000
,
10000000
00000000
00000000
00000000
02200000
03300000
00010000
00000000
,
10000000
01000000
00000000
00010000
,
00000000
00000000
00022000
00033000
00001000
00010000
00000000
00010000
,
00000000
00000000
00010010
00000000
00000010
00001000
00000000
00001000
,
00000000
00001010
00001000
00000100
,
00000001
00000000
00000100
00000000
00001000
00000001
00000000
00000001
,
00000000
00000000
00000001
00000100
,
00000220
00000330
00001000
00000000
00010000
00000000
00022000
00033000
,
00001000
00010000
00100000
10000000
,
00020000
00000000
00000000
00000000
10030000
01000000
00000000
01000000
,
00000000
00000000
01100000
00000000
00100000
00001000
00000000
00001000
,
00000000
00011000
00010000
00000100
,
00000001
00000100
00000010
00000001
,
00002000
00000000
00003100
00000000
00000000
00000000
00022000
00033000
,
01000000
00000000
00000000
00000000
00022000
00033000
00000100
00000000
,
00000010
00000000
00000001
00000000
00000000
00000000
00001000
00001000
,
00001000
00002002
00000000
00000000
,
00000000
00000000
00000000
00000000
,
00000000
00003003
00000000
00000001
,
00000100
00001000
00000000
00010000
,
00100000
00000000
10000000
00010000
10000000
00000000
01000000
00000000
,
00010000
00001000
00000000
00000010
,
00000001
00000000
00001000
00000001
00001000
00000000
00000001
00000000
,
00000000
00000110
00000000
00000000
00010000
00000000
00000000
00011000
,
00000000
00000000
01100000
00000000
00000000
00000000
10000000
00010000
,
00000000
01000000
00000000
00000000
00100000
00000000
10000000
00000000
,
00000000
10010000
00000000
10000000
,
01000000
00010000
00000000
00001000
,
00000010
00000000
00000001
00001000
00000001
00000000
00000100
00000000
,
00001000
00010000
00000000
00100000
,
10000000
00000000
00010000
10000000
00010000
00000000
10000000
00000000
,
00000000
01100000
00000000
00000000
00001000
00000000
00000000
00011000
,
00000000
00000110
00000000
00000001
,
00000000
00001000
00000000
00000000
00000100
00000000
00000000
00000000
,
00000010
00001001
00000000
00000001
,
00000010
00000100
00000000
00001000
,
00000100
00000010
00001000
00020000
,
00100000
00001000
01030000
10000000
,
00000000
10100000
00000000
00000000
00100000
00000000
00000000
01100000
,
00000000
01000000
00001000
00010000
,
00000000
00010000
00000000
00000000
00001000
00000000
00002000
00000000
,
00003000
00001000
00010000
00000100
,
00000000
00000000
00000010
00000000
00000100
00000000
00000010
00000001
,
00000010
00000001
00000100
00001000
,
00000000
00000000
00010000
00000000
00000100
00000000
00010000
00001000
,
00010000
00000000
00001000
00000000
00000000
01001000
00000000
00000000
,
00110000
00000000
00010000
01000000
00000000
00100000
10000000
00000000
,
00000000
00000000
10000000
00000000
01000000
00000000
00010000
00001000
,
00000000
00022000
00033000
00000000
,
00010000
00001000
00000010
00000000
,
00000002
00000003
00000001
00000000
,
00000100
00000000
00000010
00001000
,
00000010
00000000
00000100
00000000
,
00000100
00000000
00001000
00010000
,
00010000
00000000
00100000
01000000
,
00100000
00000000
10000000
01000000
,
00100000
00000000
00001000
00010000
,
00001000
00000000
00010000
00000000
,
00011000
00000000
00000000
00000000
00000000
00000000
00000000
00000000
00002000
00000000
00000000
00000000
00000000
00000000
00000000
00000000
00000000
00000000
00000000
00003000
00000000
00000000
00000000
00000000
00002000
00000000
00000000
00000000
00000000
00000000
00000000
00000000
,
00000000
00000000
00000000
00003000
00000000
00000000
00000000
00000000
00010000
00000000
00000000
00000000
00000000
00000000
00000000
00000000
00010000
00000000
00000000
00000000
00000000
00000000
00000000
00000000
00022000
00000000
00000000
00000000
00000000
00000000
00000000
00000000
,
00000000
00000000
00000000
00000000
,
00000000
00000000
00000000
00000000
,
00000000
00000000
00000000
00000000
,
00000000
00000000
00000000
00000000
,
00000000
00000000
00000000
00000000
,
00033000
00000000
00000000
00000000
,
00000000
00000000
00000000
00000000
;
#NOTES:
     dance-double:
     :
     Medium:
     15:
     :
00000000
00000000
00000000
00000000
,
00000000
00000000
00000000
00000000
,
00000000
00000000
00000000
00000000
,
00000000
00000000
00000000
00000000
,
00000000
00000000
00000000
00000000
,
00100000
01000000
00010000
00000000
,
00100000
00001000
00010000
00000000
,
00000010
00000100
00000001
00000000
,
00001000
00000010
00020000
00031000
,
00100000
00001000
00000000
01000000
,
00010000
00000000
00100000
00010000
00100000
00000000
01000000
10000000
,
00000000
00100000
00000000
10000000
00100000
00000000
01000000
00000000
,
00010000
00100000
00010000
01000000
,
00001000
00010000
00000000
00001000
00000000
00010000
00001000
00000000
,
00000010
00000000
00000001
00000000
00000010
00000000
00001000
00010000
,
00000000
00001000
00000000
00000100
00000001
00000000
00001000
00000001
,
00001000
00000000
00000002
00000000
00000103
00000000
00001000
00010000
,
00000000
00010000
00000000
00100000
10000000
00000000
01000000
00100000
,
00000000
00000000
01100000
00000000
10000000
00000000
01000000
00010000
,
00000000
00000000
00001000
00010000
00001000
00000000
00001000
00000000
,
00000020
00000000
00000031
00000000
00000100
00001000
00000000
00010000
,
00000000
00010000
00001000
00000000
00010000
01000000
00000000
00000000
,
01100000
00000000
10000000
00000000
10000000
01000000
00000000
01000000
,
00010000
00002000
00003020
00000032
,
00002003
00000000
00003100
00000000
00000010
00000001
00000000
00000001
,
00000000
00000001
00000100
00000000
00001000
00010000
00000000
00010000
,
00001000
00000000
00011000
00000000
,
00001000
00000000
00000000
00010000
00000000
00000000
00100000
00000000
00000000
00000000
10000000
00000000
00000000
00000000
00010000
00000000
00000000
00000000
02000000
00000000
00000000
00000000
00000000
00000000
,
03100000
00000000
10000000
01000000
00000000
01000000
00000000
01000000
,
00100000
00000000
00001000
00010000
00000000
00010000
00001000
00000000
,
00010000
00000010
00000000
00001000
00000100
00000000
00000010
00000000
,
00000001
00000100
00000000
00000001
00000020
00000000
00000031
00000000
,
00000100
00000010
00000100
00000010
00000100
00000000
00001000
00000000
,
00010000
00001000
00010000
00001000
00010000
00000000
00001000
01000000
,
00001000
00000000
00100000
00010000
00100000
00000000
00010000
00000000
,
01000000
10000000
01000000
00010000
,
10000000
01000000
00000000
00100000
00010000
00000000
00100000
00001000
,
00010000
00000000
00011000
00000000
00000000
00000000
00010000
00001000
,
00010000
00000000
00000000
00000000
00000010
00000000
00001000
00000000
00000001
00000000
00001000
00000000
00000200
00000300
00000200
00000300
,
00000002
00000000
00001003
00000000
00000010
00001000
00000010
00001000
,
00000100
00000000
00010000
00000000
00001000
01000000
00001000
01000000
,
00010000
00000000
00000000
00000000
00100000
01000000
00100000
01000000
00100000
00000000
00000000
00000000
20020000
00000000
00000000
00000000
,
30030000
00000000
00000000
00000000
10000000
00000000
01000000
00010000
,
00000000
00010000
00001000
00000000
00001000
00000010
00000001
00000000
,
00001000
00000000
00001000
00000000
00000001
00000010
00000001
00000000
,
00001000
00000000
00000010
00000000
00001000
00000000
00000000
00000000
00000200
00000300
00000200
00000300
00000002
00000000
00000000
00000000
,
00001003
00000010
00000000
00000010
00001000
00000000
00000100
00010000
,
00000000
00010000
00000100
00000000
00010000
00000000
00011000
00000000
,
00001000
00100000
00000000
00001000
01000000
00000000
00010000
00100000
,
00000000
01000000
10000000
00000000
10010000
00000000
00000000
00000000
,
10000000
01000000
00000000
01000000
00100000
00000000
00100000
00001000
,
00000000
00001000
00010000
00000000
00000100
00001000
00000100
00000000
,
00000010
00000001
00000000
00000001
00000100
00000000
00000010
00000000
,
00002000
00000000
00003000
00000000
00000001
00000010
00000100
00001000
,
00000100
00000000
00001000
00000010
00010000
00001000
00010000
00000000
,
00001000
00000000
01001000
00000000
01010000
00000000
00010000
00100000
,
00010000
00000000
01000000
00000000
00100000
10000000
00010000
00000000
,
10010000
00000000
10000000
01000000
00000000
10000000
02000000
03000000
,
00100000
00010000
00000000
00100000
00020000
00030000
00100000
00000000
,
00001000
00000000
00010000
00000000
00001000
00000000
00000010
00000100
,
00000010
00000000
00000220
00000330
00000001
00000100
00000000
00000100
,
00000000
00000001
00000010
00000000
00000100
00001000
00000000
00001000
,
00000000
00000100
00010000
00000000
00001000
00100000
00010000
00000000
,
01000000
00001000
00010000
00000000
00100000
10000000
00000000
10000000
,
00000000
00010000
01000000
00000000
00100000
10000000
00000000
01000000
,
00020000
00000000
00031000
00000010
00000000
00000001
00000200
00000000
,
00001300
00010000
00100000
00000000
10000000
01000000
00010000
00000000
,
00001000
00001000
00001000
00001000
00001000
00010000
00000000
00010000
,
00000000
00000100
00001000
00000000
00000010
00000100
00000000
00000100
,
00000000
00000001
00000010
00000000
00000001
00000100
00000010
00000000
,
00001000
00000100
00000010
00000000
00000001
00000100
00000000
00000100
,
00002000
00000000
00013000
00100000
00000000
00100000
20000000
00000000
,
31000000
00010000
00000000
00010000
00002000
00000000
00013000
00000100
,
00001000
00000000
00000010
00000100
00000001
00000000
00001000
00001000
,
00001000
00001000
00000002
00000000
00000000
00000000
00000000
00000000
,
00000000
00000000
00000000
00000000
,
00000000
00000000
00000003
00000000
00000000
00000000
00000001
00000100
,
00000001
00000000
00001000
00000010
00001000
00000000
00000100
00010000
,
00000100
00010000
00001000
00000000
00000000
00000000
00100000
00010000
,
00100000
00000000
00010000
01000000
00010000
00000000
10000000
00100000
,
10000000
00100000
01000000
00000000
00000000
00000000
00010000
00000000
,
00100000
01000000
00000000
00000000
00001000
00000000
00000100
00000010
,
00000000
00000000
00000001
00001000
00000001
00000000
00000100
00001000
,
00000000
01000000
00000000
10000000
01000000
00000000
00100000
00000000
,
10000000
00000000
10010000
00000000
00000000
00000000
10000000
01000000
,
10000000
00000000
00010000
00100000
00010000
00000000
01000000
00001000
,
01000000
00001000
00010000
00000000
00000000
00000000
00000010
00001000
,
00000010
00000000
00001000
00000100
00001000
00000000
00000001
00000010
,
00000001
00000010
00000100
00000000
00000000
00000000
00001000
00000000
,
00000010
00000100
00000000
00000000
00010000
00000000
01000000
00100000
,
00000000
00000000
10000000
00010000
10000000
00000000
01000000
00000000
,
00010000
00000100
00000000
00000001
00000100
00000000
00000000
00000010
,
00000001
00000000
00001001
00000000
00000000
00000000
00000001
00001000
,
00000001
00000000
00001000
00000010
00001000
00000000
00000010
00010000
,
00000010
00000000
00010000
00001000
00010000
00000000
00002000
00000000
,
01003000
00010000
01000000
00000000
00100000
10000000
00100000
00000000
10000000
00010000
10000000
00000000
01000000
00000000
00000000
00000000
,
01000000
00100000
00000000
00000000
00001000
00000000
00001000
00010000
,
00000000
00000000
00000100
00000010
00000100
00000000
00001000
00000000
,
00000001
00000000
00000100
00000000
00000000
00000000
00000100
00000000
00001000
00000000
00000000
00000000
00010000
00001000
00010000
00001000
,
00010000
00000000
00001000
00100000
00001000
00100000
00001000
00010000
,
00001000
00000000
00010000
00100000
01000000
00000000
00010000
10000000
,
00010000
00000000
10000000
01000000
10000000
01000000
00100000
00001000
,
00010000
00000000
00000010
00001000
00000010
00000000
00000100
00000001
,
00000010
00000000
00000001
00000000
00000100
00000010
00000000
00010000
,
00001000
00000000
01000000
00100000
00000000
10000000
00010000
01000000
,
00010000
00000000
10000000
01000000
00100000
00000000
00001000
00010000
,
00000000
00010000
00002000
00000000
00003000
00000000
00000000
00000000
,
00010000
00000010
00000000
00001000
00000010
00000000
00000100
00000000
,
00002000
00003000
00010000
00000010
,
00010000
00000000
00000100
00001000
,
00000010
00001000
00000010
00000000
00000100
00000001
00000000
00000010
,
00000000
00000001
00000010
00000000
00000100
00000000
00001000
00000000
,
00000010
00000000
00001000
00000000
00000100
00000000
00010000
00001000
,
00000000
00010000
00000000
00001000
00010000
00000000
00100000
00000000
,
10000000
00000000
00100000
00000000
00010000
00001000
00000000
00010000
,
00000000
01000000
10000000
00000000
00010000
00000000
00010000
00000000
,
10000000
00000000
00000000
00000000
00000000
00000000
00000000
00000000
02000000
00000000
00000000
00000000
00000000
00000000
00000000
00000000
00000000
00000000
00000000
03000000
00000000
00000000
00000000
00000000
02000000
00000000
00000000
00000000
00000000
00000000
00000000
00000000
,
00000000
00000000
00000000
03000000
00000000
00000000
00000000
00000000
00010000
00000000
00000000
00000000
00000000
00000000
00000000
00000000
00001000
00000000
00000000
00000000
00000000
00000000
00000000
00000000
00022000
00000000
00000000
00000000
00000000
00000000
00000000
00000000
,
00000000
00000000
00000000
00000000
,
00000000
00000000
00000000
00000000
,
00000000
00000000
00000000
00000000
,
00000000
00000000
00000000
00000000
,
00000000
00000000
00000000
00000000
,
00033000
00000000
00000000
00000000
,
00000000
00000000
00000000
00000000
;
#NOTES:
     dance-double:
     :
     Hard:
     17:
     :
00000000
00000000
00000000
00000000
,
00000000
00000000
00000000
00000000
,
00000000
00000000
00000000
00000000
,
00000000
00000000
00000000
00000000
,
00000000
00000000
00000000
00000000
,
00100000
00000000
00100000
10000000
00000000
01000000
00000000
10000000
,
00000000
00010000
01000000
00000000
00010000
00000000
00100000
00000000
,
00001000
00100000
00000000
00001000
00000000
00010000
00000100
00000000
,
00001000
00000001
00000100
00000000
00000002
00000000
00001003
00000010
,
00001000
00000010
00000000
00000100
00000001
00000100
00000001
00000000
,
00001001
00000000
00001000
00000100
00001000
00000000
00000010
00010000
,
00000000
00010000
00000000
00001000
00010000
00000000
00001000
00000000
,
00011000
00001000
01001000
01000000
,
01000000
00010000
00000000
00100000
00010000
00100000
00010000
10000000
,
00010000
00000000
10000000
00010000
10000000
00000000
00010000
00100000
,
01000000
10000000
01000000
00100000
00010000
00000000
00100000
00001000
,
00010000
00001000
00020000
00000000
00031000
00010000
00001000
00010000
,
00000000
00010000
00000010
00001000
00000010
00000100
00000010
00000100
,
00000000
00000100
00000001
00001000
00000001
00000010
00000001
00001000
,
00000000
00001000
00000100
00000010
00000100
00000010
00000001
00001000
,
00000002
00000000
00001003
00000010
00001000
00000010
00000000
00000010
,
00000100
00000010
00010000
00001000
00010000
00001000
00000000
00001000
,
01000000
00001000
00010000
00001000
00100000
00010000
00000000
00010000
,
00100000
01000000
20000000
00000000
30200000
00000000
00320000
00000000
,
00230000
00000000
10300000
01000000
10000000
01000000
00100000
00010000
,
00100000
00001000
00010000
00001000
00010000
00001000
00010000
00000100
,
00001000
00000200
00000000
00000000
00000310
00000001
00000010
00000100
,
00001000
00000000
00000000
00000001
00000000
00000100
00000000
00001000
00000000
00020000
00000000
00000000
,
00031000
00100000
00010000
01000000
00000000
01000000
00100000
10000000
,
00100000
01000000
00010000
10000000
00000000
10000000
01000000
00100000
,
00010000
00100000
00000000
00100000
00001000
00000000
00001000
00010000
,
00000100
00001000
00000000
00001000
00000002
00000000
00000103
00000010
,
00000100
00000010
00000100
00000010
00000100
00000000
00000010
00010000
,
00000010
00010000
00000010
00010000
00000010
00000000
00010000
00000000
,
00011000
00000000
00001000
01000000
00001000
01000000
00010000
00000000
,
00100000
00010000
00100000
00010000
10000000
00000000
00100000
00000000
,
10000000
01000000
00000000
00010000
00001000
00000000
00000000
00000010
,
00000001
00000000
00001000
00000000
00001001
00000000
00001000
00000100
,
00010000
00000000
00001000
00000000
00100000
00000000
00010000
00000000
01000000
00000000
00100000
00000000
02000000
03000000
02000000
03000000
,
00020000
00000000
10030000
00100000
01000000
00000000
00010000
10000000
,
01000000
00000000
00100000
00010000
01000000
00000000
00100000
00010000
,
00001000
00000000
00000000
00000000
00010000
00001000
00010000
00001000
00010000
00000000
00010000
00000000
00022000
00000000
00033000
00000000
,
00010000
00001000
00010000
00000000
00000100
00000000
00001000
00000010
,
00000000
00000010
00000001
00000000
00001000
00000100
00000001
00000000
,
00000010
00000100
00001000
00000000
00000001
00000100
00000001
00000100
,
00000010
00000000
00001000
00000000
00000010
00000000
00001000
00000000
00000200
00000300
00000200
00000300
00000002
00000000
00000000
00000000
,
00001003
00000010
00001000
00000100
00001000
00000100
00010000
00000010
,
00010000
00000100
00010000
00000100
00010000
00000000
00011000
00000000
,
00001000
00100000
00001000
01000000
00001000
01000000
00010000
00100000
,
00010000
01000000
00010000
00000000
10010000
00000000
00000000
00000000
,
00010000
00100000
00010000
01000000
00010000
01000000
00001000
00100000
,
00001000
01000000
00001000
01000000
00001000
00000000
00011000
00000000
,
00010000
00000010
00010000
00000100
00010000
00000100
00001000
00000010
,
00001000
00001000
00001001
00000000
00000001
00000010
00000100
00000010
,
00000001
00000100
00000010
00001000
00000010
00010000
00000100
00010000
,
00001000
00100000
00001000
00010000
00001000
01000000
00010000
00100000
,
01000000
10000000
00010000
01000000
00100000
10000000
00100000
00000000
,
20020000
30030000
10000000
01000000
00000000
00100000
00020000
00030000
,
00001000
00000100
00000000
00000010
00000002
00000003
00000001
00000000
,
00000100
00000000
00001000
00000000
00010000
00000000
00100000
01000000
,
00100000
00000000
02200000
03300000
10000000
00100000
10000000
00100000
,
00000000
00100000
01000000
00010000
10000000
00010000
00100000
00010000
,
00000000
00010000
00100000
00001000
00010000
00001000
00010000
00000000
,
00000100
00001000
00000100
00000000
00001000
00000010
00001000
00000010
,
00000000
00000010
00000100
00000001
00001000
00000001
00000000
00001000
,
00000002
00000003
00000010
00000100
00000000
00000010
00000200
00000300
,
00000010
00000001
00000100
00000000
00001000
00010000
00100000
00000000
,
10000000
10000000
10000000
10000000
10000000
01000000
10000000
01000000
,
00000000
01000000
00100000
00010000
10000000
00010000
01000000
00010000
,
00000000
00010000
01000000
00001000
00010000
00001000
00010000
00000000
,
00000010
00001000
00000010
00000000
00001000
00000100
00001000
00000100
,
00000020
00000000
00000031
00001000
00000000
00000001
00000200
00000000
,
00000310
00000100
00000000
00001000
00000200
00000000
00000310
00010000
,
00001000
00000000
00100000
00001000
00010000
00000000
01000000
01000000
,
01000000
01000000
02000000
00000000
00000000
00000000
00000000
00000000
,
00000000
00000000
00000000
00000000
,
00000000
00000000
03000000
00000000
00000000
00000000
10000000
01000000
,
10000000
01000000
00100000
00010000
10000000
01000000
00100000
00001000
,
00010000
00001000
00100000
00001000
00010000
00000000
00000100
00001000
,
00000100
00001000
00000010
00000100
00000010
00001000
00000100
00000010
,
00000001
00001000
00000010
00000100
00000001
00000000
00001000
00000010
,
00001000
00000010
00000000
00000000
00001000
00000100
00001000
00000100
,
00000000
00000000
00010000
00001000
00010000
00001000
00010000
00000010
,
00000000
00001010
00000000
00001000
00000001
00000000
00001001
00000000
,
00000110
00000000
00001001
00000000
00000000
00000000
00000001
00000100
,
00000001
00000100
00000010
00001000
00000001
00000100
00000010
00010000
,
00001000
00010000
00000010
00010000
00001000
00000000
01000000
00010000
,
01000000
00010000
00100000
01000000
00100000
00010000
01000000
00100000
,
10000000
00010000
00100000
01000000
10000000
00000000
00010000
00100000
,
00010000
00100000
00000000
00000000
00010000
01000000
00010000
01000000
,
00000000
00000000
00001000
00010000
00001000
00010000
00001000
00000000
,
00100000
00010000
00100000
00000000
01100000
00000000
00000000
10000000
,
00010000
00000000
10010000
00000000
00000000
00000000
10000000
01000000
,
10000000
00100000
01000000
00010000
00100000
00010000
01000000
00100000
,
00010000
00100000
00010000
00001000
00000100
00000000
00000002
00000000
,
00000013
00000100
00000010
00000100
00001000
00000100
00001000
00000100
00010000
00001000
00010000
00000000
00001000
00000000
00100000
00000000
,
00010000
01000000
00000000
00000000
00010000
00100000
00001000
01000000
,
00000000
00000000
00010000
00100000
01000000
00100000
00010000
00000000
,
10000000
00000000
01000000
00000000
00000000
00000000
01000000
00000000
00010000
00000000
00000000
00000000
00010000
00001000
00000010
00000001
,
00000020
00000000
00000031
00001000
00000010
00000100
00000001
00000010
,
00000100
00001000
00000100
00010000
00001000
00100000
00001000
00010000
,
00100000
10000000
01000000
00100000
00010000
10000000
00100000
01000000
,
00010000
10000000
00100000
01000000
00100000
00010000
00001000
00010000
,
00001000
00000010
00000100
00000010
00000001
00000100
00000010
00001000
,
00000100
00000010
00000001
00000100
00000010
00010000
00001000
00010000
,
00001000
01000000
00010000
00100000
01000000
10000000
00010000
01000000
,
00000000
01000000
00200000
00000000
00300000
00000000
00000000
00000000
,
10000000
01000000
00000000
01000000
00010000
00000000
00010000
00001000
,
00010000
00010000
00011000
00000000
00001000
00000000
00001000
00010000
,
00000000
00010000
00000010
00001000
00000010
00001000
00000010
00000000
,
00000100
00000000
00000101
00000000
00000001
00000010
00000000
00000010
,
00000000
00000001
00000100
00000000
00000010
00001000
00000010
00000000
,
00010000
00001000
00010000
00000000
00001000
00000000
00001000
01000000
,
00000000
00010000
00100000
00010000
00100000
00010000
01000000
00000000
,
00100000
00000000
10100000
00000000
10000000
01000000
00100000
00001000
,
00000000
00000010
00000001
00000000
00001000
00000001
00001000
00000000
,
00001001
00000000
00000000
00000000
00000000
00000000
00000000
00000000
00000002
00000000
00000000
00000000
00000000
00000000
00000000
00000000
00000000
00000000
00000000
00000003
00000000
00000000
00000000
00000000
00002000
00000000
00000000
00000000
00000000
00000000
00000000
00000000
,
00000000
00000000
00000000
00003000
00000000
00000000
00000000
00000000
00010000
00000000
00000000
00000000
00001000
00000000
00000000
00000000
00010000
00000000
00000000
00000000
00000000
00000000
00000000
00000000
00022000
00000000
00000000
00000000
00000000
00000000
00000000
00000000
,
00000000
00000000
00000000
00000000
,
00000000
00000000
00000000
00000000
,
00000000
00000000
00000000
00000000
,
00000000
00000000
00000000
00000000
,
00000000
00000000
00000000
00000000
,
00033000
00000000
00000000
00000000
,
00000000
00000000
00000000
00000000
;
#NOTES:
     dance-double:
     :
     Challenge:
     18:
     :
00000000
00000000
00000000
00000000
,
00000000
00000000
00000000
00000000
,
00000000
00000000
00000000
00000000
,
00000000
00000000
00000000
00000000
,
00000000
00000000
00000000
00000000
,
00000001
00000010
00000100
00001000
00000000
00000100
00000010
00000001
,
00000100
00000000
00001000
00000000
00010000
00100000
01000000
00000000
,
00100000
10000000
01000000
00100000
00010000
01000000
00100000
00010000
,
00001000
00000100
00000010
00000000
00000220
00000330
00000001
00000010
,
00000100
00001000
00000000
00001000
00000100
00000010
00000100
00010000
,
00001000
00000000
00001000
00100000
00010000
00000000
00010000
01000000
,
00100000
10000000
00000000
10000000
01000000
00010000
10000000
00100000
,
00010000
10000000
01000000
00100000
00010000
00000000
10000000
01000000
,
00010000
00001000
00000000
00001000
00010000
00000100
00001000
00000000
,
00000010
00000000
00000100
00000001
00000010
00000000
00000001
00000100
,
00000010
00001000
00010000
01000000
00100000
10000000
00010000
00000000
,
00010000
00000000
20020000
30030000
10000000
01000000
10000000
01000000
,
00010000
00001000
00010000
00001000
00010000
00100000
00010000
00100000
,
01000000
10000000
01000000
10000000
01000000
00010000
01000000
00001000
,
00010000
00000010
00001000
00000001
00000100
00001000
00000100
00000000
,
00002002
00003003
00000001
00000100
00000001
00000100
00001000
00010000
,
00001000
00010000
00001000
00000010
00001000
00000010
00000100
00000001
,
00000100
00000001
00000100
00001000
00000100
00010000
00001000
00100000
,
00010000
10000000
02000000
00000000
03020000
00000000
00032000
00000000
,
00003020
00000000
00000031
00000100
00000010
00000001
00001000
00000100
,
00000010
00001000
00000100
00010000
00001000
00010000
00001000
00100000
,
00010000
01000000
00000000
00000000
01000000
00100000
00010000
10000000
,
01000000
00000000
00000000
00100000
00000000
00000000
00010000
00000000
00000000
00000000
00001000
00000000
00000000
00000000
00000100
00000000
00000000
00000000
00000002
00000000
00000000
00000003
00000000
00000000
,
00000010
00000001
00000100
00001000
00000001
00000010
00001000
00000000
,
00000100
00010000
00001000
00100000
01000000
00010000
01000000
00000000
,
10000000
01000000
00000000
00100000
00010000
00000000
00001000
00000100
,
00000010
00000001
00000000
00000001
00002000
00000000
00003001
00000100
,
00000010
00010000
00001000
00100000
01000000
00000000
10000000
00010000
,
01000000
10000000
01000000
00100000
00010000
00000000
00001000
00000100
,
00000010
00000000
00001000
00000100
00000010
00000000
00000001
00000100
,
00001000
00000000
00010000
00100000
01000000
00000000
00010000
00000000
,
00100000
10000000
00000000
00100000
00010000
10000000
01000000
00010000
,
00001000
00000000
00000110
00000000
00001001
00000000
00000001
00000010
,
00000100
00000000
00000010
00000000
00001000
00000000
00010000
00000000
01000000
00000000
00100000
00000000
02000000
03000000
02000000
03000000
,
00020000
00000000
10030000
01000000
00100000
00010000
10000000
00100000
,
01000000
00000000
00000000
00010000
00000000
00000000
00100000
00000000
00000000
01000000
00000000
00000000
00100000
00000000
00000000
00001000
00000000
00000000
00010000
00000000
00001000
00000000
00010000
00000000
,
00001000
00000000
00000000
00000000
00010000
00001000
00000100
00000001
00001000
00000000
00000110
00000000
00002002
00000000
00003003
00000000
,
00001000
00000001
00001000
00000000
00000010
00010000
00010000
01000000
,
00001000
00001000
00000100
00010000
00010000
00100000
00001000
00001000
,
00000010
00000000
00000110
00000000
00000001
00000010
00000100
00010000
,
00001000
00000000
00010000
00000000
00000010
00000000
00001000
00000000
00000200
00000300
00000200
00000300
00000002
00000000
00000000
00000000
,
00001003
00000010
00000010
00001000
00000100
00000100
00010000
00001000
,
00100000
00010000
01000000
00010000
00100000
01000000
10000000
00000000
,
00010000
00100000
00100000
00010000
01000000
01000000
00010000
10000000
,
00100000
01000000
00010000
00000000
20020000
00000000
30030000
00000000
,
00010000
00100000
00100000
00010000
01000000
01000000
00001000
00010000
,
00000010
00001000
00000100
00001000
00000010
00000100
00000001
00000000
,
00001000
00000010
00000010
00001000
00000100
00000100
00001000
00000001
,
00000010
00000000
00000000
00000110
00000000
00000000
00001001
00000000
00000000
00000000
00000000
00000000
00001000
00000000
00000000
00000100
00000000
00000000
00000010
00000000
00000001
00000000
00000010
00000000
,
00000001
00000000
00000000
00000000
00000000
00000000
00001000
00000000
00000000
00000100
00000000
00000000
00010000
00000000
00001000
00000000
00010000
00000000
00001000
00000000
00000000
00000000
00000000
00000000
,
00100000
00000000
00000000
00010000
00000000
00000000
00100000
00000000
00000000
00000000
00000000
00000000
00010000
00000000
00000000
01000000
00000000
00000000
00100000
00000000
10000000
00000000
00100000
00000000
,
10000000
00000000
00000000
00000000
00000000
00000000
01000000
00000000
00000000
00100000
00000000
00000000
00010000
00000000
10000000
00000000
00010000
00000000
10000000
00000000
00000000
00000000
00000000
00000000
,
02200000
03300000
10000000
01000000
00010000
00001000
00000020
00000000
,
00000031
00000100
00001000
00010000
00200000
00000000
10300000
01000000
,
00100000
00000000
00001000
00010000
00000010
00000000
00001000
00000001
,
00001000
00000000
00002002
00003003
00000001
00001000
00000100
00000010
,
00000001
00001000
00000010
00000000
00000100
00000001
00001000
00000100
,
00010000
00001000
00100000
00000000
00010000
10000000
01000000
00000000
,
10000000
00010000
01000000
00000000
00100000
10000000
01000000
00100000
,
00010000
10000000
01000000
00000000
10000000
01000000
00000000
00010000
,
00002000
00003000
00001000
00000010
00000000
00000001
00002000
00003000
,
00000001
00000100
00000010
00001000
00010000
01000000
00100000
10000000
,
01000000
01000000
01000000
01000000
10000000
00010000
01000000
00100000
,
10000000
00010000
00100000
00000000
01000000
10000000
00010000
01000000
,
00001000
00010000
00000010
00000000
00001000
00000001
00000100
00000000
,
00000001
00001000
00000100
00000000
00000010
00000001
00000100
00000000
,
00001001
00000000
00000001
00000100
00000000
00001000
00020000
00030000
,
00010000
00100000
00000000
10000000
00020000
00030000
10000000
01000000
,
00100000
00010000
00001000
00000100
00000010
00000001
00000100
00000100
,
00000100
00000100
00000200
00000000
00000000
00000000
00000000
00000000
,
00000000
00000000
00000000
00000000
,
00000000
00000000
00000300
00000000
00000000
00000000
00000001
00000100
,
00000010
00010000
00001000
01000000
00010000
00100000
01000000
10000000
,
00100000
01000000
00010000
00100000
01000000
00000000
10000000
01000000
,
00100000
00001000
00010000
00000100
00001000
00000010
00000100
00000001
,
00001000
00000100
00000010
00000001
00001000
00000000
00000100
00010000
,
00010000
00001000
00000000
00000000
00100000
00001000
00001000
00010000
,
00000000
00000000
00001000
00010000
00001000
00010000
00001000
01000000
,
00010000
00100000
00000000
00010000
00100000
01000000
10000000
00000000
,
00010000
00000000
20020000
00000000
30030000
00000000
10000000
01000000
,
00100000
00001000
00010000
00000100
00001000
00000010
00000100
00000001
,
00000010
00000100
00001000
00000010
00000100
00000000
00000001
00000100
,
00000010
00010000
00001000
01000000
00010000
00100000
01000000
10000000
,
00010000
01000000
00100000
10000000
00010000
00000000
01000000
00001000
,
00001000
00010000
00000000
00000000
00000010
00010000
00010000
00001000
,
00000000
00000000
00010000
00001000
00010000
00001000
00010000
00000000
,
00000100
00001000
00000000
00000010
00000100
00000000
00000001
00001000
,
00000001
00000000
00002002
00000000
00003003
00000000
00000001
00000010
,
00001000
00000010
00000100
00010000
00001000
00010000
01000000
00100000
,
00010000
01000000
10000000
00010000
00100000
10000000
01000000
01100000
,
10000000
01000000
00100000
00001000
00010000
00000100
00000010
00000001
00001000
00000001
00000100
00000000
00000001
00000000
00000100
00000000
,
00001000
00010000
00000000
00000000
00100000
00010000
00001000
00000100
,
00000000
00000000
00001000
00010000
01000000
10000000
00100000
01000000
,
00100000
00000000
01000000
00000000
00000000
00000000
00010000
00000000
10000000
00000000
01000000
00000000
00100000
00010000
00100000
01000000
,
20000000
30000000
10000000
00100000
01000000
00010000
00100000
01000000
,
00010000
00001000
00100000
01000000
00100000
00001000
00010000
00000100
,
00000010
00001000
00000010
00000100
00001000
00000001
00000100
00000010
,
00000001
00001000
00000100
00000010
00010000
00001000
00100000
00010000
,
00100000
01000000
00010000
00001000
00000010
00000100
00000010
00001000
,
00010000
01000000
00100000
00010000
00100000
01000000
00010000
00001000
,
00010000
00000000
00001000
00000010
00000001
00001000
00000100
00000010
,
00000000
00000010
00000002
00000000
00000003
00000000
00000000
00000000
,
00000001
00000100
00000000
00000010
00001000
00000000
00000100
00010000
,
00001000
00001000
00011000
00000000
00001000
00100000
00010000
01000000
,
00001000
01000000
00010000
00100000
00001000
00000000
00010000
00000000
,
01000000
10000000
00010000
00000000
10000000
00100000
00000000
01000000
,
00000000
00010000
00100000
01000000
00100000
00010000
00100000
00001000
,
00010000
00000000
00011000
00000000
00001000
00010000
00000100
00001000
,
00000010
00001000
00000100
00000010
00000001
00000100
00000010
00000001
,
00000010
00001000
00000100
00000000
00010000
00010000
00001000
01000000
,
01000000
00010000
00100000
01000000
10000000
00010000
10000000
00000000
,
10010000
00000000
00000000
00000000
00000000
00000000
00000000
00000000
20000000
00000000
00000000
00000000
00000000
00000000
00000000
00000000
00000000
00000000
00000000
30000000
00000000
00000000
00000000
00000000
02000000
00000000
00000000
00000000
00000000
00000000
00000000
00000000
,
00000000
00000000
00000000
03000000
00000000
00000000
00000000
00000000
00010000
00000000
00010000
00000000
00010000
00000000
00000000
00000000
00001000
00000000
00001000
00000000
00001000
00000000
00000000
00000000
00022000
00000000
00000000
00000000
00000000
00000000
00000000
00000000
,
00000000
00000000
00000000
00000000
,
00000000
00000000
00000000
00000000
,
00000000
00000000
00000000
00000000
,
00000000
00000000
00000000
00000000
,
00000000
00000000
00000000
00000000
,
00033000
00000000
00000000
00000000
,
00000000
00000000
00000000
00000000
;
