
//----- song ID: nali -----//
#TITLE:ナナイロライト;
#ARTIST:ここなつ;
#TITLETRANSLIT:Nanairo light;
#ARTISTTRANSLIT:CocoNatsu;
#BANNER:Nanairo light.png;
#BACKGROUND:Nanairo light-bg.png;
#CDTITLE:./CDTitles/SDVX IV HEAVENLY HAVEN.png;
#MUSIC:Nanairo light.ogg;
#SAMPLESTART:88.502;
#SAMPLELENGTH:15;
#BPMS:0=135;
#BGSTAGE:2;
#NOTES:
     dance-single:
     :
     Beginner:
     3:
     :
0000
0000
0000
0000
,
0000
0000
0000
0000
,
0000
0000
0000
0000
,
0000
0000
0000
0000
,
0000
0000
0000
0000
,
0000
0000
0000
0000
,
1000
0000
0000
0000
,
0001
0000
0000
0000
,
1000
0000
0001
0000
,
1001
0000
0000
0000
,
1000
0000
1000
0000
,
0001
0000
0001
0000
,
0010
0000
0010
0000
,
0100
0000
0100
0000
,
0010
0000
0010
0000
,
0001
0000
0001
0000
,
1000
0000
1000
0000
,
1001
0000
0000
0000
,
0001
0000
0010
0000
,
0001
0000
1000
0000
,
0010
0000
0100
0000
,
0010
0000
0000
0000
,
1000
0000
0100
0000
,
1000
0000
0001
0000
,
0100
0000
0010
0000
,
0100
0000
0001
0000
,
1000
0000
0000
0000
,
0001
0000
0001
0000
,
0100
0000
0000
0000
,
0020
0000
0000
0030
,
0100
0000
0000
0000
,
0001
0000
0001
0000
,
1000
0000
0000
0000
,
0000
0000
0000
0000
,
0001
0000
0000
0000
,
1000
0000
1000
0000
,
0010
0000
0000
0000
,
0200
0000
0000
0300
,
0010
0000
0000
0000
,
1000
0000
1000
0000
,
0001
0000
0000
0000
,
0000
0000
0000
0000
,
1000
0000
1000
0000
,
0001
0000
0001
0000
,
0010
0000
0010
0000
,
0100
0000
0100
0000
,
1000
0000
1000
0000
,
0001
0000
0001
0000
,
0100
0000
0010
0000
,
0110
0000
0000
0000
,
1000
0000
0010
0000
,
1000
0000
0010
0000
,
0100
0000
0001
0000
,
0100
0000
0001
0000
,
0010
0000
0001
0000
,
0010
0000
0001
0000
,
1000
0000
0001
0000
,
1001
0000
0000
0000
,
2000
0000
3000
0000
,
0100
0000
0010
0000
,
0002
0000
0003
0000
,
2000
0000
3000
0000
,
0001
0000
0100
0000
,
0001
0000
1000
0000
,
0010
0000
0100
0000
,
0001
0000
1000
0000
,
1001
0000
0000
0000
,
0000
0000
0000
0000
;
#NOTES:
     dance-single:
     :
     Easy:
     5:
     :
0000
0000
0000
0000
,
0000
0000
0000
0000
,
0000
0000
0000
0000
,
0000
0000
0000
0000
,
0000
0000
0000
0000
,
0000
0000
0000
0000
,
0001
0000
1000
0000
,
0001
0000
0000
0000
,
0110
0000
1001
0000
,
0001
0100
0010
0000
,
1000
0000
0001
0000
,
1000
0000
0001
0000
,
0100
0000
0010
0000
,
0100
0000
0010
0000
,
1000
1000
0001
0001
,
1000
1000
0001
0001
,
1001
0000
0110
0000
,
1000
0100
0010
0000
,
0001
0100
0001
1000
,
0010
0100
0010
0100
,
0001
1000
0100
0000
,
1000
0010
0100
0001
,
1000
0010
1000
0001
,
0100
0010
0100
0010
,
1000
0001
0010
0000
,
0001
0100
0010
1000
,
0001
0000
1000
0000
,
0100
0100
0100
0000
,
1000
0000
0001
0000
,
0020
0030
0200
0300
,
0001
0000
1000
0000
,
0010
0010
0010
0000
,
0000
1000
0001
1001
,
0000
0000
0000
0000
,
1000
0000
0010
0000
,
0100
0100
0100
0000
,
0001
0000
0010
0000
,
0200
0300
0020
0030
,
0001
0000
0100
0000
,
0010
0010
0010
0000
,
0000
1000
0001
1001
,
0000
0000
0000
0000
,
1000
1000
0001
0001
,
0100
0100
0010
0010
,
0100
0100
0001
0001
,
1000
1000
0010
0010
,
1000
0010
1000
0010
,
0100
0001
0100
0001
,
1001
0000
0110
0000
,
1001
0000
0000
0000
,
1000
0010
1000
0100
,
1000
0010
0100
0000
,
0001
0100
0001
0010
,
0001
0100
0010
0000
,
1000
0001
0100
0001
,
1000
0010
0100
0000
,
0110
0000
1001
0000
,
0001
0010
0100
0000
,
2000
3010
0002
0013
,
1000
0100
0010
0001
,
0200
0310
0020
0130
,
0001
0010
0100
0000
,
0001
0100
0001
0010
,
0001
0100
0010
0000
,
0110
0000
1001
0000
,
1000
0001
0100
0000
,
1001
0000
0000
0000
,
0000
0000
0000
0000
;
#NOTES:
     dance-single:
     :
     Medium:
     11:
     :
0000
0000
0000
0000
,
0000
0000
0000
0000
,
0000
0000
0000
0000
,
0000
0000
0000
0000
,
0000
0000
0000
0000
,
0000
0000
0000
0000
,
1000
0010
1000
0010
,
0100
0001
0010
0001
,
1001
0000
0100
0000
0110
0000
0001
0010
,
0100
1000
0010
0100
0010
0000
0000
0000
,
1000
1000
0001
0001
,
1000
1000
0001
0001
,
1001
0100
1001
0010
,
1001
0100
1001
0110
,
0001
0100
0001
0100
0010
1000
0010
0000
,
1000
0100
1000
0100
0010
0001
0010
0000
,
1001
0000
0100
0000
1001
0000
1000
0010
,
0100
0001
1000
0010
1000
0000
0001
0010
,
0001
0000
1000
0010
1000
0000
0001
0010
,
0100
0010
0011
1100
,
1001
0000
0000
0000
1000
0000
0010
0000
1000
0000
0000
0000
0000
0000
0010
0100
,
0010
0000
0100
0000
0001
1000
0100
0010
,
0100
0000
0010
0001
0010
0000
0100
1000
,
0001
1000
1010
0101
,
1001
0000
0000
0000
0001
0000
0100
0000
0001
0000
0000
0000
0000
0000
0100
0010
,
0100
0010
0110
1001
,
1000
0100
0010
0001
,
0100
0010
0100
0010
0100
0000
0010
1000
,
0001
0010
0100
1000
,
0020
0000
1030
0200
0000
0310
0000
0001
,
0100
0010
1000
0100
,
0010
0001
0010
0001
0010
0000
0100
0000
,
0000
1000
0010
0100
0010
0000
1000
0001
,
0100
0000
0000
0010
0000
0000
1000
0000
,
0001
0010
0100
1000
,
0010
0100
0010
0100
0010
0000
0100
0001
,
1000
0100
0010
0001
,
0200
0000
0301
0020
0000
0130
0000
1000
,
0010
0100
0001
0010
,
0100
1000
0100
1000
0100
0000
1000
0010
,
1000
0000
1001
0000
0011
0000
1000
0010
,
0100
0000
0000
0010
0000
1000
0000
0001
,
0010
0100
0010
0001
0010
0100
0010
0001
,
1000
0010
1000
0001
1000
0010
1000
0000
,
0100
0010
0100
1000
0100
0010
0100
1000
,
0001
0010
0001
1000
0001
0010
0001
0000
,
0100
0010
0100
0010
0100
0010
0100
0000
,
0001
1000
0001
1000
0001
1000
0001
0000
,
1001
0000
0000
0100
0000
0000
0010
0000
1001
0000
0000
0010
0000
0000
0100
0000
,
1001
0000
0000
0110
,
1000
0100
0010
0100
1000
0001
0100
0001
,
1000
0100
0010
0001
1000
0000
0001
0100
,
0001
0010
0100
0010
0001
1000
0010
1000
,
0001
0100
0010
1000
0001
0000
0100
0010
,
0100
0001
0010
0001
0100
0010
1000
0100
,
1000
0001
0010
0100
1000
0000
0010
0100
,
0010
0000
1000
0001
1000
0000
0001
0010
,
0100
1000
0010
0100
0010
0000
1001
0000
,
2000
0000
3010
0100
0002
0000
0013
0100
,
0110
1100
1001
0011
,
0002
0000
0103
0010
2000
0000
3100
0010
,
0001
0000
0100
0000
0010
1000
0010
0000
,
1000
0010
0100
0001
1000
0010
0001
0010
,
0100
0001
0010
0100
1000
0000
0010
0100
,
0001
0001
0010
0100
1000
1000
0001
1000
,
0010
1000
0100
0010
0001
0000
0100
0000
,
1001
0000
0000
0000
,
0000
0000
0000
0000
;
#NOTES:
     dance-single:
     :
     Hard:
     14:
     :
0000
0000
0000
0000
,
0000
0000
0000
0000
,
0000
0000
0000
0000
,
0000
0000
0000
0000
,
0000
0000
0000
0000
,
0000
0000
0000
0001
,
0100
0001
0010
0100
,
1000
0001
0100
0010
,
1010
0000
0001
0000
0011
0000
1000
0010
,
0100
0000
0001
1000
0000
0010
0000
0100
0000
0000
0000
0000
0000
0000
0000
0000
,
0001
0001
1000
1000
,
0010
0010
0100
0100
,
0101
0101
1010
1010
,
1100
1100
0011
0011
,
0001
0100
0010
1000
0001
0100
0010
1000
,
0001
1000
0001
1000
0100
0010
0100
0010
0001
0100
0001
0100
0010
1000
0010
1000
,
0001
0000
0100
0010
0110
0000
0001
0010
,
0100
0000
1000
0010
0000
0100
0000
0001
0010
0001
1000
0000
0010
0000
0100
0000
,
1001
0000
0100
0010
1001
0000
1000
0001
,
0110
1000
0110
0001
1000
0100
0010
0001
,
1001
0000
0000
0000
0100
0000
0010
0000
1001
0000
0000
0000
1100
0000
1000
0010
,
0100
0000
0101
0000
1000
0001
0100
0010
,
0110
0000
1000
0001
0110
0000
0010
0100
,
1001
0010
1001
0100
0001
1000
0100
0010
,
0110
0000
0000
0000
0001
0000
1000
0000
0110
0000
0000
0000
0101
0000
1000
0010
,
0100
0000
0110
0000
0001
1000
0010
0100
,
0001
0000
0010
0000
0100
0010
0000
0010
0001
0000
1000
0000
0010
0000
0100
0000
,
0001
0000
1000
0100
0000
1000
0000
0010
0100
0000
0001
0000
0010
0000
1000
0000
,
0010
0000
0001
0000
0100
0010
0000
0010
1000
0000
0001
0000
0010
0000
0100
0000
,
2000
0010
3010
0200
0001
0301
1000
0100
,
0010
0000
0100
0000
0010
0001
0000
0001
1000
0000
0001
0000
0100
0000
1000
0000
,
0100
0000
0010
1000
0000
0001
0000
0010
0100
0000
0010
0000
0001
0000
0010
0000
,
0001
1000
0010
0100
0110
0000
1010
0101
,
1000
0010
0000
1000
0100
0000
0010
0001
,
1000
0000
0100
0000
0010
0100
0000
0100
1000
0000
0001
0000
0100
0000
0010
0000
,
1000
0000
0001
0010
0000
0001
0000
0100
0010
0000
1000
0000
0100
0000
0001
0000
,
0100
0000
1000
0000
0010
0100
0000
0100
0001
0000
1000
0000
0100
0000
0010
0000
,
0002
0100
0103
0020
1000
1030
0001
0010
,
0100
0000
0010
0000
0100
1000
0000
1000
0001
0000
1000
0000
0010
0000
0001
0000
,
0010
0000
0100
0001
0000
1000
0000
0100
0010
0000
0100
0000
1000
0000
0100
0000
,
1000
0000
1001
0000
0011
0000
0110
1001
,
0001
0100
0000
0001
0010
0001
1000
0100
,
0010
0000
0001
0010
0001
0000
0010
0000
0100
0000
1000
0100
1000
0000
0100
0000
,
1000
0000
0010
1000
0010
0000
1000
0000
0001
0000
0100
0001
0100
0000
0001
0000
,
0010
0000
0100
0010
0100
0000
0010
0000
0001
0000
1000
0001
1000
0000
0001
0000
,
0100
0000
0010
0100
0010
0000
0100
0000
0001
0000
0010
0100
1000
0000
0000
0000
,
0001
0100
0001
0100
0001
0100
0110
0000
,
1000
0100
0010
0001
0100
0010
1000
0010
0100
0001
0010
0100
1000
0000
0000
0000
,
0101
0000
0000
0110
0000
0000
1010
0000
1001
0000
0000
1100
0000
0000
0110
0000
,
1001
0000
0000
0000
0000
0000
0001
1000
,
0001
0000
0100
0010
0000
1000
0000
0100
0000
0010
0100
0000
1000
0000
0001
0000
,
0100
0000
0100
0010
0000
1000
0000
0001
0010
0100
1000
0000
0010
0000
0100
0000
,
0010
0000
1000
0100
0000
0010
0000
0100
0000
1000
0001
0000
0100
0000
0010
0000
,
1000
0000
0100
1000
0000
1000
0000
0001
0010
0100
1000
0000
0001
0000
0100
0000
,
0010
0000
0100
0001
0000
1000
0000
0100
0000
0010
0100
0000
1000
0000
0001
0000
,
0100
0000
0100
0010
0000
1000
0000
0001
0010
0100
1000
0000
0010
0000
0100
0000
,
0110
0000
0001
1000
1001
0000
0001
0100
,
0010
0000
1000
0100
0000
1000
0000
0001
0100
0010
1000
0000
0001
0000
0001
0000
,
2000
0010
3010
0100
0002
0100
0103
0010
,
1010
0001
1100
0010
0101
1000
0011
0100
,
0002
0100
0103
0010
2000
0100
3100
0010
,
0001
0000
0100
0000
0010
0000
0100
0000
0001
0010
0100
0000
1000
0000
0001
0000
,
1000
0000
0010
0100
0000
0001
0000
0010
0000
0100
0010
0000
0001
0000
1000
0000
,
0010
0000
0010
0100
0000
0001
0000
1000
0100
0010
0001
0000
0100
0000
0010
0000
,
1001
1001
0010
0100
1001
1001
1000
0100
,
0010
0000
0001
0100
0000
0010
0000
1000
0100
1000
0001
0000
0100
0000
0010
0000
,
1001
0000
0000
0000
,
0000
0000
0000
0000
;
#NOTES:
     dance-double:
     :
     Easy:
     5:
     :
00000000
00000000
00000000
00000000
,
00000000
00000000
00000000
00000000
,
00000000
00000000
00000000
00000000
,
00000000
00000000
00000000
00000000
,
00000000
00000000
00000000
00000000
,
00000000
00000000
00000000
00000000
,
00010000
00000000
00000010
00000000
,
00001000
00000000
00000000
00000000
,
00001001
00000000
00000110
00000000
,
00000001
00001000
00000100
00000000
,
00010000
00000000
00001000
00000000
,
01000000
00000000
00010000
00000000
,
10000000
00000000
01000000
00000000
,
10000000
00000000
00010000
00000000
,
01000000
01000000
00001000
00001000
,
00010000
00010000
00000100
00000100
,
00001100
00000000
00000011
00000000
,
00000001
00000100
00000010
00000000
,
00001000
00000100
00010000
00000000
,
00001000
00100000
00010000
00100000
,
00010000
10000000
01000000
00000000
,
10000000
00010000
01000000
00001000
,
00010000
00000010
00001000
00000000
,
00000001
00000010
00000001
00000010
,
00000100
00001000
00000010
00000000
,
00010000
00001000
01000000
00010000
,
10000000
00000000
00010000
00000000
,
00100000
00100000
00100000
00000000
,
00001000
00000000
00010000
00000000
,
00002000
00003000
00000200
00000300
,
00000001
00000000
00001000
00000000
,
00000010
00000010
00000010
00000000
,
00000000
00010000
00001000
00011000
,
00000000
00000000
00000000
00000000
,
00010000
00000000
00000100
00000000
,
00001000
00001000
00001000
00000000
,
00000001
00000000
00000010
00000000
,
00002000
00003000
00020000
00030000
,
01000000
00000000
10000000
00000000
,
00010000
00010000
00010000
00000000
,
01000000
00100000
01100000
00000000
,
00000000
00000000
00000000
00000000
,
10000000
10000000
00010000
00010000
,
01000000
01000000
00001000
00001000
,
00010000
00010000
00000010
00000010
,
00001000
00001000
00000001
00000001
,
00001000
00000100
00001000
00000100
,
00010000
00001000
00010000
00001000
,
00011000
00000000
01100000
00000000
,
10010000
00000000
00000000
00000000
,
10000000
01000000
00010000
00001000
,
00000010
00000001
00001000
00000000
,
00000001
00000100
00001000
00010000
,
00100000
10000000
00010000
00000000
,
10000000
01000000
00100000
00010000
,
00001000
00000100
00000010
00000000
,
00000110
00000000
00001001
00000000
,
00000001
00001000
00000100
00000000
,
00000002
00000013
00002000
00003010
,
00000001
00000100
00001000
00010000
,
00200000
10300000
00020000
01030000
,
00100000
10000000
01000000
00000000
,
10000000
00010000
00100000
00001000
,
00010000
00000010
00001000
00000000
,
00000011
00000000
00001100
00000000
,
00000100
00010000
00001000
00000000
,
00011000
00000000
00000000
00000000
,
00000000
00000000
00000000
00000000
;
#NOTES:
     dance-double:
     :
     Medium:
     11:
     :
00000000
00000000
00000000
00000000
,
00000000
00000000
00000000
00000000
,
00000000
00000000
00000000
00000000
,
00000000
00000000
00000000
00000000
,
00000000
00000000
00000000
00000000
,
00000000
00000000
00000000
00000000
,
00001000
00100000
00001000
00100000
,
00010000
10000000
01000000
10000000
,
10010000
00000000
00010000
00000000
01010000
00000000
01000000
00001000
,
00010000
00000010
00001000
00000001
00001000
00000000
00000000
00000000
,
00000001
00000001
00000100
00000100
,
00001000
00001000
00010000
00010000
,
00100000
00100000
10000000
10000000
,
01000000
00010000
00001000
00000000
,
00010000
00000100
00010000
00000100
00001000
00000100
00001000
00000000
,
00000001
00000100
00000001
00000100
00000010
00001000
00000010
00000000
,
00001010
00000000
00010000
00000000
00011000
00000000
00001000
00100000
,
00010000
10000000
00010000
10000000
01000000
00000000
00100000
00010000
,
00100000
00000000
00001000
00010000
00001000
00000000
00010000
00000010
,
00001000
00000001
00001001
00000101
,
00001010
00000000
00000000
00000000
00001000
00000000
00000100
00000000
00001000
00000000
00000000
00000000
00000000
00000000
00000100
00010000
,
00000100
00000000
00010000
00000000
00001000
00100000
00010000
01000000
,
00100000
00000000
10000000
01000000
10000000
00000000
00010000
00100000
,
00001000
00010000
00010100
00001100
,
00001001
00000000
00000000
00000000
00000001
00000000
00000010
00000000
00000001
00000000
00000000
00000000
00000000
00000000
00001000
00000100
,
00001000
00000100
00010100
00011000
,
00001000
00010000
01000000
10000000
,
00010000
00100000
00010000
00100000
00010000
00000000
00100000
00001000
,
00010000
00001000
00000100
00000001
,
00000020
00000000
00000130
00002000
00000000
00003010
00000000
00010000
,
00001000
00100000
00010000
10000000
,
00010000
01000000
00010000
01000000
00010000
00000000
00100000
00000000
,
00000000
00001000
00010000
00000010
00001000
00000000
00000001
00001000
,
00000100
00000000
00000000
00010000
00000000
00000000
00001000
00000000
,
00010000
00001000
00000010
00000001
,
00001000
00000100
00001000
00000100
00001000
00000000
00000100
00010000
,
00001000
00010000
00100000
10000000
,
02000000
00000000
03100000
00020000
00000000
01030000
00000000
00001000
,
00010000
00000100
00001000
00000001
,
00001000
00000010
00001000
00000010
00001000
00000000
00000100
00010000
,
00001000
00000000
00011000
00000000
00101000
00000000
00100000
00010000
,
10000000
00000000
00000000
01000000
00000000
00010000
00000000
00001000
,
00010000
00000100
00010000
00000100
00001000
00000100
00001000
00000100
,
00000010
00000001
00000010
00000001
00000010
00000100
00000010
00000100
,
00001000
00000010
00001000
00000010
00010000
00001000
00010000
00001000
,
00100000
00010000
00100000
00010000
10000000
00100000
10000000
00000000
,
00010000
01000000
00010000
01000000
00010000
01000000
00001000
00000000
,
00010000
00000010
00001000
00000010
00001000
00000010
00001000
00000000
,
00001001
00000000
00000000
00000001
00000000
00000000
00001000
00000000
00001010
00000000
00000000
00010000
00000000
00000000
00001000
00000000
,
00011000
00000000
00000000
00011000
,
00001000
00100000
00010000
00100000
01000000
10000000
00010000
10000000
,
01000000
00100000
00010000
00001000
00000100
00000000
00000010
00000001
,
00001000
00000100
00001000
00000001
00000010
00000100
00001000
00010000
,
00100000
00010000
10000000
00100000
01000000
00000000
00010000
01000000
,
00010000
10000000
00100000
10000000
01000000
00100000
00010000
00100000
,
00001000
00010000
00001000
00000100
00000010
00000000
00001000
00000001
,
00001000
00000000
00000100
00000010
00000100
00000000
00000010
00000001
,
00001000
00000100
00010000
00001000
00010000
00000000
00011000
00000000
,
00002000
00000000
00103000
00010000
20000000
00000000
31000000
00100000
,
00010000
00100000
00101000
00011000
,
00020000
00000000
00030010
00001000
00000200
00000000
00000310
00000001
,
00000100
00000000
00001000
00000000
00010000
00001000
00010000
00000000
,
00001000
00100000
00010000
01000000
00100000
10000000
01000000
00100000
,
00010000
01000000
00001000
00010000
00001000
00000000
00010000
00000010
,
00001000
00000000
00000001
00000010
00000100
00000000
00000010
00000001
,
00000100
00001000
00010000
00100000
10000000
00000000
01000000
00000000
,
10010000
00000000
00000000
00000000
,
00000000
00000000
00000000
00000000
;
#NOTES:
     dance-double:
     :
     Hard:
     14:
     :
00000000
00000000
00000000
00000000
,
00000000
00000000
00000000
00000000
,
00000000
00000000
00000000
00000000
,
00000000
00000000
00000000
00000000
,
00000000
00000000
00000000
00000000
,
00000000
00000000
00000000
00001000
,
00100000
00010000
10000000
01000000
,
00100000
00010000
01000000
00001000
,
00011000
00000000
00010000
00000000
00010100
00000000
00000100
00001000
,
00000001
00000000
00000010
00000100
00000000
00001000
00000000
00000001
00000000
00000000
00000000
00000000
00000000
00000000
00000000
00000000
,
00000100
00000100
00001000
00001000
,
00010000
00010000
00100000
00100000
,
01100000
01100000
10100000
10100000
,
10010000
10010000
01010000
01010000
,
01000000
00001000
00010000
00000010
00001000
00000001
00000010
00000100
,
00001000
00000001
00001000
00000001
00001000
00000001
00001000
00000001
00001000
00000001
00001000
00000001
00001000
00000001
00001000
00000001
,
00001000
00000000
00000010
00000100
00000110
00000000
00000001
00000100
,
00001000
00000000
00010000
00001000
00000000
00010000
00000000
01000000
10000000
00000000
00010000
00000000
01000000
00000000
00100000
00000000
,
10010000
00000000
00100000
01000000
10010000
00000000
10000000
00010000
,
10000000
01000000
00010000
00001000
00100000
00010000
00001000
00000100
,
00000110
00000000
00000000
00000000
00000001
00000000
00001000
00000000
00000110
00000000
00000000
00000000
00001001
00000000
00000001
00000010
,
00000100
00000000
00001000
00000000
00000001
00000010
00001000
00010000
,
00011000
00000000
01000000
00010000
01010000
00000000
10000000
00010000
,
10000000
01000000
00010000
00001000
00000010
00000100
00001000
00000001
,
00001001
00000000
00000000
00000000
00000100
00000000
00000010
00000000
00001001
00000000
00000000
00000000
00001100
00000000
00000100
00010000
,
00001000
00000000
00100000
00000000
00010000
01000000
00100000
10000000
,
01000000
00000000
10000000
00000000
00100000
00010000
00000000
00010000
00001000
00000000
00010000
00000000
00001000
00000000
00000100
00000000
,
00000001
00000000
00000010
00000100
00000000
00000010
00000000
00000001
00001000
00000000
00000100
00000000
00000001
00000000
00000100
00000000
,
00000010
00000000
00000001
00000000
00000100
00001000
00000000
00001000
00010000
00000000
00001000
00000000
00010000
00000000
00100000
00000000
,
20000000
01000000
31000000
00020000
01000000
01030000
10000000
00010000
,
10000000
00000000
01000000
00000000
00100000
00010000
00000000
00010000
00100000
00000000
00010000
00000000
00001000
00000000
00000100
00000000
,
00000010
00000000
00000001
00001000
00000000
00000100
00000000
00000001
00000100
00000000
00001000
00000000
00000001
00000000
00001000
00000000
,
00000010
00010000
00001000
01000000
00010000
00000000
01010000
10010000
,
10000000
00100000
00000000
00010000
00001000
00000000
00000100
00000001
,
00000010
00000000
00000001
00000000
00000100
00001000
00000000
00001000
00010000
00000000
00001000
00000000
00010000
00000000
00100000
00000000
,
10000000
00000000
01000000
00100000
00000000
01000000
00000000
10000000
00010000
00000000
00100000
00000000
10000000
00000000
00100000
00000000
,
01000000
00000000
10000000
00000000
00100000
00010000
00000000
00010000
00001000
00000000
00010000
00000000
00001000
00000000
00000100
00000000
,
00000002
00000010
00000013
00002000
00000010
00003010
00000001
00001000
,
00000001
00000000
00000010
00000000
00000100
00001000
00000000
00001000
00000100
00000000
00001000
00000000
00010000
00000000
00100000
00000000
,
01000000
00000000
10000000
00010000
00000000
00100000
00000000
10000000
00100000
00000000
00010000
00000000
10000000
00000000
00010000
00000000
,
01000000
00000000
01010000
00000000
00011000
00000000
00001100
00001001
,
00000001
00000100
00000000
00001000
00010000
00001000
00100000
00010000
,
01000000
00000000
00010000
01000000
00010000
00000000
01000000
00000000
00001000
00000000
00100000
00001000
00100000
00000000
00001000
00000000
,
00010000
00000000
00000100
00010000
00000100
00000000
00010000
00000000
00000010
00000000
00001000
00000010
00001000
00000000
00000010
00000000
,
00001000
00000000
00000100
00001000
00000100
00000000
00001000
00000000
00000100
00000000
00010000
00000100
00010000
00000000
00000100
00000000
,
00010000
00000000
00001000
00010000
00001000
00000000
00010000
00000000
00001000
00000000
00100000
00000000
00010000
00000000
00000000
00000000
,
10000000
00100000
10000000
00100000
10000000
00100000
00010000
00000000
,
00001000
00010000
00001000
00010000
00001000
00010000
00001000
00010000
00001000
00010000
00001000
00010000
00001000
00000000
00000000
00000000
,
00010100
00000000
00000000
00001100
00000000
00000000
00000011
00000000
00001001
00000000
00000000
00001010
00000000
00000000
00010010
00000000
,
00011000
00000000
00000000
00000000
00000000
00000000
00001000
00100000
,
00010000
00000000
01000000
00100000
00000000
10000000
00000000
00010000
00000000
01000000
00001000
00000000
00010000
00000000
00100000
00000000
,
10000000
00000000
10000000
01000000
00000000
00010000
00000000
00001000
00000100
00000000
00000010
00000000
00000100
00000000
00000001
00000000
,
00000010
00000000
00000100
00001000
00000000
00000010
00000000
00000100
00000000
00000001
00001000
00000000
00000100
00000000
00010000
00000000
,
00001000
00000000
00000010
00000001
00000000
00000001
00000000
00001000
00000100
00000000
00010000
00000000
00001000
00000000
00010000
00000000
,
00001000
00000000
01000000
00010000
00000000
10000000
00000000
01000000
00000000
00100000
00010000
00000000
00001000
00000000
00000100
00000000
,
00000010
00000000
00000010
00000001
00000000
00001000
00000000
00000100
00010000
00000000
00001000
00000000
00100000
00000000
00010000
00000000
,
00110000
00000000
10000000
00100000
10100000
00000000
10000000
00010000
,
01000000
00000000
00001000
00010000
00000000
00000010
00000000
00001000
00000100
00000000
00000010
00000000
00000001
00000000
00000001
00000000
,
00000200
00001000
00001300
00010000
00200000
01000000
01300000
00010000
,
00100000
00001000
00010000
00000010
00010000
00001000
00100000
00010000
,
20000000
01000000
31000000
00010000
00002000
00000010
00003010
00000001
,
00000100
00000010
00001000
00000001
00000010
00000100
00001000
00010000
,
00100000
00000000
00010000
10000000
00000000
00100000
00000000
01000000
00000000
00010000
01000000
00000000
00001000
00000000
00010000
00000000
,
00000100
00000000
00000100
00001000
00000000
00000001
00000000
00000010
00000001
00000000
00001000
00000000
00000001
00000000
00001000
00000000
,
00000100
00000100
00010000
00001000
01000000
01000000
00010000
10000000
,
01000000
00000000
00100000
00010000
00000000
01000000
00000000
00001000
00010000
00001000
00010000
00000000
00000100
00000000
00001000
00000000
,
00001001
00000000
00000000
00000000
,
00000000
00000000
00000000
00000000
;
