
//----- song ID: naho -----//
#TITLE:ナナホシ;
#ARTIST:S-C-U;
#TITLETRANSLIT:Nanahoshi;
#BANNER:Nanahoshi.png;
#BACKGROUND:Nanahoshi-bg.png;
#CDTITLE:./CDTitles/jb copious APPEND.png;
#MUSIC:Nanahoshi.ogg;
#SAMPLESTART:60.363;
#SAMPLELENGTH:15;
#BPMS:0=166;
#STAGE:5;
#NOTES:
     dance-single:
     :
     Beginner:
     2:
     :
0000
0000
0000
0000
,
0000
0000
0000
0000
,
0000
0000
0000
0000
,
0000
0000
0000
0000
,
0000
0000
0000
0000
,
0001
0000
0000
0000
,
0010
0000
0000
0000
,
0001
0000
0000
0000
,
0100
0000
0000
0000
,
1000
0000
1000
0000
,
0010
0010
1000
0000
,
1000
0000
0000
0000
,
0000
0000
0000
0000
,
0001
0000
0001
0000
,
0010
0010
0001
0000
,
0001
0000
0000
0000
,
0000
0000
0000
0000
,
1000
0000
0100
0000
,
1000
0000
0100
0000
,
0010
0000
0000
0000
,
0010
0000
0000
0000
,
0001
0000
0100
0000
,
0001
0000
0100
0000
,
0010
0000
0000
0000
,
0010
0000
0000
0000
,
1000
0000
0100
0000
,
0010
0000
0100
0000
,
1000
0000
0000
0000
,
1000
0000
0000
0000
,
0001
0000
0100
0000
,
0010
0000
0100
0000
,
0001
0000
0000
0000
,
0001
0000
0000
0000
,
0001
0001
0010
0000
,
0001
0001
0100
0000
,
0010
0000
0000
0000
,
0000
0000
0000
0000
,
1000
1000
0010
0000
,
1000
1000
0100
0000
,
0010
0000
0000
0000
,
0000
0000
0000
0000
,
1001
0000
0000
0000
,
1000
0000
0100
0000
,
0010
0010
1000
0000
,
1000
0000
0100
0000
,
0001
0000
0000
0000
,
0002
0000
0000
0000
,
0003
0000
0000
0000
,
2000
0000
0000
0000
,
3000
0000
0000
0000
,
0001
0000
0100
0000
,
0010
0010
0001
0000
,
0001
0000
0100
0000
,
1000
0000
0000
0000
,
2000
0000
0000
0000
,
3000
0000
0000
0000
,
0002
0000
0000
0000
,
0003
0000
0000
0000
,
0001
0000
0100
0000
,
0010
0000
0100
0000
,
1000
0000
0000
0000
,
1001
0000
0000
0000
,
1000
0000
0100
0000
,
0010
0000
0100
0000
,
0001
0000
0000
0000
,
0000
0000
0000
0000
,
0001
0000
1000
0000
,
1001
0000
0000
0000
,
0000
0000
0000
0000
;
#NOTES:
     dance-single:
     :
     Easy:
     6:
     :
0000
0000
0000
0000
,
0000
0000
0000
0000
,
0000
0000
0000
0000
,
0000
0000
0000
0000
,
0000
0000
0000
0000
,
0001
0000
0100
0000
,
0001
0010
0001
0000
,
1000
0000
0100
0000
,
1000
0010
1000
0000
,
0001
0010
0001
0010
,
0100
1000
0100
0000
,
0110
0000
0000
0000
,
1001
0000
0000
0000
,
1000
0100
1000
0100
,
0010
0001
0010
0000
,
0110
0000
0000
0000
,
1001
0000
0000
0000
,
0001
0100
0001
0100
,
0010
1000
0010
0100
,
0001
1000
0001
0010
,
0001
0000
1001
0000
,
1000
0100
1000
0100
,
0010
0001
0010
0100
,
1000
0001
1000
0010
,
1000
0000
1001
0000
,
0001
0100
0001
0100
,
0010
1000
0100
0010
,
0001
1000
0001
0100
,
0010
0000
0110
0000
,
1000
0100
1000
0100
,
0010
0001
0100
0010
,
1000
0001
1000
0100
,
0010
0000
0110
0000
,
0001
0100
1000
0100
,
0001
0001
0001
0000
,
1000
0100
0001
0100
,
1000
1000
1000
0000
,
1000
0100
0110
0000
,
0001
0100
0110
0000
,
0001
1000
0010
0100
,
1001
0000
0110
0000
,
1001
0000
0000
0000
,
1000
1000
0100
0100
,
0010
0001
0010
0000
,
0001
0001
0100
0100
,
0010
1000
0010
0000
,
1001
0000
0100
0100
,
1001
0000
0010
0010
,
1001
0000
0110
0000
,
1000
0001
1000
0000
,
0001
0100
0010
1000
,
0001
0100
0010
1000
,
0001
0010
0100
1000
,
0001
0010
0100
1000
,
0001
0001
0110
0000
,
1000
1000
0110
0000
,
1001
0000
0110
0000
,
0001
1000
1001
0000
,
2000
0000
0000
3000
,
0100
0010
0100
0000
,
0002
0000
0000
0003
,
0100
0010
0100
0000
,
2000
0000
0000
3000
,
0010
0100
0010
0000
,
0002
0000
0000
0003
,
0010
0100
0010
0000
,
1000
0000
0000
1000
0000
0000
0001
0000
,
0000
0001
0000
0000
0000
0000
0000
0000
,
0000
0000
0000
0000
;
#NOTES:
     dance-single:
     :
     Medium:
     11:
     :
0000
0000
0000
0000
,
0000
0000
0000
0000
,
0000
0000
0000
0000
,
0000
0000
0000
0000
,
0000
0000
0000
0000
,
1000
0000
0000
0100
0000
0000
0010
0000
,
0000
0001
0000
0000
0101
0000
1100
0000
,
0001
0000
0000
0100
0000
0000
0010
0000
,
0000
1000
0000
0000
1010
0000
0011
0000
,
1000
0100
0010
0100
1000
0100
0010
0000
,
0001
0100
0010
0100
0001
0100
0010
0000
,
2000
3200
0302
0203
,
1300
0010
1000
0010
0100
0001
0100
0000
,
0001
0010
0100
0010
0001
0010
0100
0000
,
1000
0010
0100
0010
1000
0010
0100
0000
,
0002
0023
2030
3020
,
0031
0100
0001
0100
0010
1000
0010
0000
,
0000
1000
0010
0000
0010
0000
0100
0001
,
0100
0100
0001
1000
,
0001
0010
0001
0000
1000
0000
0001
1000
,
0000
0001
1000
0001
1000
0000
1001
0000
,
0000
0001
0100
0000
0100
0000
0010
1000
,
0010
0010
1000
0001
,
1000
0000
0100
1000
0100
1000
0000
0001
,
0000
1000
0001
1000
0001
0000
1001
0000
,
1000
0000
0001
0010
0100
0000
1000
0000
,
0001
0010
0100
0000
1000
0000
0010
0000
,
1000
0000
0001
0100
0010
0000
0100
0010
,
0000
1000
0001
0000
1001
0000
0000
0000
,
0001
0000
1000
0100
0010
0000
0001
0000
,
1000
0100
0010
0000
0001
0000
0100
0000
,
0001
0000
1000
0010
0100
0010
0000
0100
,
0000
0001
1000
0000
1001
0000
0000
0000
,
1000
0000
1010
0000
1000
0100
0010
0000
,
0001
0001
0001
0000
,
0001
0000
0011
0000
0001
0100
0010
0000
,
1000
1000
1000
0000
,
0001
0000
0000
0010
0000
0000
0001
0000
1001
0000
0000
0000
0000
0000
0000
0000
,
1000
0000
0000
0010
0000
0000
1000
0000
1001
0000
0000
0000
0000
0000
0000
0000
,
0001
0000
0000
0100
0000
0000
0010
0000
1000
0000
0001
0000
1000
0000
0000
0000
,
0001
0001
0000
0001
0000
0001
0000
1000
,
0001
0000
0000
0000
,
1000
0000
0001
1000
0000
0000
0001
0000
0010
0000
0100
0010
0000
0000
0001
0000
,
1000
0000
0100
0010
0000
0000
0100
0000
1000
0000
0001
0000
0100
0000
0000
0000
,
0001
0000
0100
0001
0000
0000
1000
0000
0010
0000
0100
0010
0000
0000
1000
0000
,
0001
0011
0110
1100
,
1000
0000
0000
0100
0000
0000
0010
0000
0002
0000
0000
0000
0003
0000
0000
0000
,
0001
0000
0000
0100
0000
0000
0010
0000
2000
0000
0000
0000
3000
0000
0000
0000
,
1000
0100
0001
0100
2000
0000
3000
0000
,
0001
0000
0000
0010
0000
0000
0001
0000
1000
0000
0001
0000
1000
0000
0000
0000
,
0001
0000
0000
0100
0010
0000
1000
0000
0010
0000
0000
1000
0100
0000
0010
0000
,
0100
0000
0000
0010
0001
0000
1000
0000
0001
0000
0100
0000
0001
0000
0000
0000
,
1000
0000
0000
0010
0100
0000
0001
0000
0100
0000
0000
0001
0010
0000
0100
0000
,
0010
0000
0001
1000
0000
0001
1000
0000
0001
0000
0100
0000
0010
0000
0000
0000
,
1000
0000
0001
0010
0000
0000
0001
0000
2000
0000
0000
0000
3000
0000
0000
0000
,
0001
0000
1000
0010
0000
0000
1000
0000
0002
0000
0000
0000
0003
0000
0000
0000
,
1000
0010
0100
0001
2000
0000
3000
0000
,
0001
0000
0000
1000
0000
0000
1001
0000
0001
0000
1000
0000
0001
0000
0000
0000
,
1000
0000
0000
0010
0000
0000
1000
0000
0000
0100
0000
0000
1000
0000
0000
0000
,
0001
0000
0000
0010
0000
0000
0001
0000
0000
0100
0000
0000
0001
0000
0000
0000
,
1000
0010
1000
0010
0100
0001
0010
0001
,
0020
0000
0230
0000
1300
0001
1000
0000
,
0001
0000
0000
1000
0000
0000
0001
0000
0000
0100
0000
0000
0010
0000
0000
0000
,
1000
0000
0000
0001
0000
0000
1000
0000
0000
0100
0000
0000
0010
0000
0000
0000
,
0001
0010
0001
0010
0100
1000
0010
1000
,
0200
0000
0320
0000
0031
1000
0001
0000
,
1000
1000
0000
0100
0100
0000
0010
0010
,
0000
0001
0001
0000
0000
0000
0000
0000
,
0000
0000
0000
0000
;
#NOTES:
     dance-single:
     :
     Hard:
     15:
     :
0000
0000
0000
0000
,
0000
0000
0000
0000
,
0000
0000
0000
0000
,
0000
0000
0000
0000
,
0000
0000
0000
0000
,
1000
0100
0000
1000
0100
0000
0010
0001
,
0000
0010
0001
0000
0011
0000
1100
0000
,
0001
0100
0000
0001
0100
0000
0010
1000
,
0000
0010
1000
0000
1010
0000
0101
0000
,
1000
0010
0000
1000
0010
0000
0100
0001
0000
0100
0001
0000
1000
0000
0001
0000
,
0010
0001
0000
0010
0001
0000
1000
0100
0000
1000
0100
0000
1000
0000
0001
0000
,
1000
0000
0010
0100
0010
0000
1000
0001
1000
0001
1000
0000
0001
0000
0010
0100
,
0010
0000
0001
0100
0001
0000
0100
0010
0100
0000
0010
1000
0010
0100
0010
0000
,
1000
0100
0000
1000
0100
0000
0010
0001
0000
0010
0001
0000
1000
0000
0001
0000
,
0100
0001
0000
0100
0001
0000
1000
0010
0000
1000
0010
0000
1000
0000
0001
0000
,
1000
0000
0100
0010
0100
0000
1000
0001
1000
0001
1000
0000
0001
0000
0100
0010
,
0100
0000
0001
0010
0001
0000
0010
0100
0010
0000
0100
1000
0100
0010
0100
0000
,
1000
0001
0010
0001
1000
0000
1000
0001
,
0100
0001
1000
0000
1000
0010
0100
0001
,
0010
0001
0100
0001
1000
0000
0001
0100
,
0000
1000
0100
0001
0100
0001
1001
0000
,
0001
1000
0010
1000
0001
0000
0001
1000
,
0100
1000
0001
0000
0001
0010
0100
1000
,
0010
0000
0100
0010
1000
0001
0000
0001
,
0000
0000
1000
0000
0010
0000
0100
0000
0010
0000
1000
0001
1000
0000
0000
0000
,
0001
0100
0010
0100
0001
0000
0001
0010
,
0100
0010
0001
0000
0001
0100
1000
0100
,
0001
1000
0010
0100
0001
0000
0010
0100
,
0000
0000
0010
0000
0100
0000
0010
0000
0001
0000
1000
0000
1000
0000
1000
0001
,
1000
0010
0100
0010
1000
0000
1000
0100
,
0010
0100
1000
0000
1000
0010
0001
0010
,
1000
0000
0001
0100
0010
1000
0000
1000
,
0000
0000
0001
0000
0100
0000
0010
0000
1000
0000
0001
1000
0001
0000
0000
0000
,
1000
0000
0010
0000
0100
0001
0000
0001
0000
0001
0000
0001
1000
0000
0001
0000
,
0100
0000
0010
0000
1000
0010
0000
1000
0000
0000
0000
0000
0000
0000
0001
1000
,
0001
0000
0010
0000
0100
1000
0000
1000
0000
1000
0000
1000
0001
0000
1000
0000
,
0100
0000
0010
0000
0001
0010
0000
0001
0000
0000
0000
0000
0000
0000
1000
0100
,
0010
0000
0000
0011
0000
0000
1001
0000
0001
0000
0100
0000
1000
0000
0100
0001
,
0100
0000
0000
0101
0000
0000
1001
0000
1000
0000
0100
0000
0001
0000
0100
1000
,
0100
0000
0000
1100
0000
0000
1010
0000
0010
0000
0100
0001
0100
0001
0100
0000
,
0001
0000
0001
0000
0000
0000
0011
0000
0000
0000
1100
0000
0000
0000
1000
0001
,
1000
0000
0000
0000
0000
0000
0000
0000
0000
0000
0000
0000
1000
0100
0010
0001
,
1000
0000
0100
0010
0000
0001
0010
0000
0100
0000
1000
0010
0000
0100
0010
0000
,
1000
0000
0001
0100
0000
0010
0100
0000
0001
0000
0010
0000
1000
0000
0010
0000
,
0001
0000
0100
0010
0000
0100
0010
0000
1000
0000
0100
0010
0000
0100
0010
0000
,
0001
0000
0010
0100
1000
0000
0010
0100
0001
0000
0100
0000
1000
0000
0100
0000
,
0001
0010
0100
0010
0000
0001
1000
0000
0010
0100
0000
0100
0001
0000
0000
0000
,
1000
0010
0100
0010
0000
1000
0001
0000
0010
0100
0000
0100
1000
0000
0000
0000
,
1001
0000
0001
0100
0001
0100
0001
0000
1000
0100
1000
0100
1000
0000
0001
1000
,
0001
0000
0100
0010
0000
0100
0010
1000
0010
0000
1000
0000
0001
0010
0100
1000
,
0001
0000
0010
0100
0000
1000
0100
0000
0010
0000
0001
0100
0000
0010
0100
0000
,
0001
0000
1000
0010
0000
0100
0010
0000
1000
0000
0100
0000
0001
0000
0100
0000
,
1000
0000
0010
0100
0000
0001
0100
0000
0010
0000
1000
0100
0000
0010
0100
0000
,
1000
0010
1000
0010
0000
0100
0001
0000
1000
0000
0010
0000
0001
0000
0010
0000
,
1000
0100
0010
0100
0000
1000
0001
0000
0100
0010
0000
0010
1000
0000
0000
0000
,
0001
0100
0010
0100
0000
0001
1000
0000
0100
0010
0000
0010
0001
0000
0000
0000
,
1001
0000
1000
0010
1000
0010
1000
0000
0001
0010
0001
0010
0001
0000
1000
0001
,
1000
0000
0010
0100
0000
0010
0100
0001
0100
0000
0001
0000
0010
0001
0100
0010
,
2000
0100
0010
0100
,
3002
0100
0010
0103
,
0001
0000
1000
0010
1000
0000
0001
0100
0001
0100
0001
0000
1000
0000
0010
0100
,
0010
0000
1000
0001
1000
0000
0100
0010
0100
0000
1000
0001
1000
0100
1000
0000
,
0020
0001
1000
0001
,
0230
0001
1000
0301
,
1000
0000
0001
0010
0001
0000
1000
0100
1000
0100
1000
0000
0001
0000
0010
0100
,
0010
0000
0001
1000
0001
0000
0100
0010
0100
0000
0001
1000
0001
0100
0001
0000
,
1000
1010
0000
0001
0011
0000
1000
1100
,
0000
0001
0101
0000
0000
0000
0000
0000
,
0000
0000
0000
0000
;
#NOTES:
     dance-double:
     :
     Easy:
     6:
     :
00000000
00000000
00000000
00000000
,
00000000
00000000
00000000
00000000
,
00000000
00000000
00000000
00000000
,
00000000
00000000
00000000
00000000
,
00000000
00000000
00000000
00000000
,
00000001
00000000
00000010
00000000
,
00000001
00001000
00000001
00000000
,
00001000
00000000
00000100
00000000
,
00001000
00000100
00001000
00000000
,
00000100
00010000
00000100
00010000
,
00001000
00010000
00001000
00000000
,
00010000
00000000
00001000
00000000
,
00011000
00000000
00000000
00000000
,
00001000
00100000
00001000
00100000
,
00010000
00100000
00010000
00000000
,
01000000
00000000
00100000
00000000
,
01100000
00000000
00000000
00000000
,
10000000
01000000
10000000
00010000
,
00100000
00010000
00100000
00001000
,
00010000
00010000
00000100
00000100
,
00001000
00000001
00001000
00000000
,
00000001
00000100
00000001
00001000
,
00000010
00001000
00000010
00010000
,
00001000
00001000
00100000
00100000
,
00010000
01000000
00010000
00000000
,
10000000
01000000
10000000
01000000
,
00100000
00001000
00010000
00001000
,
00100000
00001000
00010000
00000100
,
00001000
00000010
00000100
00000000
,
00000001
00000010
00000001
00000010
,
00000100
00010000
00001000
00010000
,
00000010
00010000
00001000
00010000
,
00001000
00100000
00010000
00000000
,
01000000
01000000
01000000
00000000
,
00010000
10000000
00010000
00000000
,
00100000
00100000
00100000
00000000
,
00001000
00010000
00001000
00000000
,
00011000
00000000
00010000
00000010
,
00001000
00000000
00000001
00000100
,
00000010
00000000
00001000
00000001
,
00000100
00001000
00010000
00000000
,
00011000
00000000
00000000
00000000
,
00001000
00010000
00001000
01000000
,
00010000
00100000
00010000
00000000
,
10000000
01000000
10000000
01000000
,
00100000
00001000
00100000
00000000
,
01100000
00000000
00000000
00000000
,
00011000
00000000
00000000
00000000
,
00001000
00010000
00001000
00000000
,
00010000
00000100
00001000
00000000
,
00000001
00000100
00000001
00000100
,
00000010
00001000
00000010
00000000
,
00010000
00001000
00010000
00001000
,
01000000
00010000
01000000
00000000
,
10010000
00000000
00000000
00000000
,
01100000
00000000
00000000
00000000
,
10000000
01000000
00100000
00000000
,
00001000
00010000
00001000
00000000
,
00010000
00000000
00001000
00000000
,
00000010
00000001
00000010
00000000
,
00000001
00000000
00001000
00000000
,
00000001
00000100
00000001
00000000
,
00000100
00000000
00001000
00000000
,
00010000
00001000
00010000
00000000
,
00001000
00000000
00010000
00000000
,
00100000
01000000
00100000
00000000
,
10000000
00000000
00000000
10000000
00000000
00000000
00010000
00000000
,
00000000
00010000
00000000
00000000
00000000
00000000
00000000
00000000
,
00000000
00000000
00000000
00000000
;
#NOTES:
     dance-double:
     :
     Medium:
     11:
     :
00000000
00000000
00000000
00000000
,
00000000
00000000
00000000
00000000
,
00000000
00000000
00000000
00000000
,
00000000
00000000
00000000
00000000
,
00000000
00000000
00000000
00000000
,
00000001
00000000
00000000
00000010
00000000
00000000
00000001
00000000
,
00000000
00000100
00000000
00000000
00000110
00000000
00001010
00000000
,
00001000
00000000
00000000
00000100
00000000
00000000
00010000
00000000
,
00000000
00001000
00000000
00000000
01001000
00000000
01010000
00000000
,
00010000
00100000
00010000
00100000
01000000
10000000
01000000
00000000
,
10000000
00010000
10000000
00010000
00100000
00010000
00100000
00000000
,
00002000
00023000
02030000
03020000
,
00031000
00100000
00001000
00010000
00001000
00100000
00001000
00000000
,
00010000
00000100
00010000
00000100
00001000
00000100
00001000
00000000
,
00000001
00000010
00000001
00000010
00000100
00001000
00000100
00000000
,
00020000
00032000
00003200
00002300
,
00013000
00000010
00010000
00001000
00010000
00000010
00010000
00000000
,
00000000
00001000
00010000
00001000
00010000
00000000
00001000
01000000
,
00001000
01000000
00010000
10000000
,
01000000
00100000
01000000
00000000
10000000
00000000
00010000
00100000
,
00000000
00001000
00010000
00001000
00010000
00000000
00011000
00000000
,
00000000
00010000
00001000
00010000
00001000
00000000
00010000
00000100
,
00010000
00000100
00001000
00000001
,
00000100
00000000
00000010
00000100
00000010
00001000
00000000
00000100
,
00000000
00010000
00001000
00010000
00001000
00000000
00011000
00000000
,
00001000
00000000
00100000
00010000
01000000
00000000
00001000
00000000
,
00100000
00010000
01000000
00000000
00001000
00000000
00100000
00010000
,
01000000
00000000
00100000
10000000
01000000
00000000
00100000
00010000
,
00000000
00100000
00001000
00000000
00011000
00000000
00000000
00000000
,
00010000
00000000
00000100
00001000
00000010
00000000
00010000
00000000
,
00000100
00001000
00000010
00000000
00010000
00000000
00000100
00001000
,
00000010
00000000
00000100
00000001
00000010
00000100
00000000
00001000
,
00000000
00000100
00010000
00000000
00011000
00000000
00000000
00000000
,
00001000
00000000
00100000
00000000
00010000
00010000
00010000
00000000
,
00100000
01000000
10000000
00000000
,
10000000
00000000
00100000
00000000
01000000
01000000
01000000
00000000
,
00010000
00100000
00001000
00000000
,
00010000
00000000
00000000
00000100
00000000
00000000
00001000
00000000
00000100
00000000
00000000
00000000
00001100
00000000
00000000
00000000
,
00001000
00000000
00000000
00000001
00000000
00000000
00000100
00000000
00000001
00000000
00000000
00000000
00000011
00000000
00000000
00000000
,
00000010
00000000
00000000
00000001
00000000
00000000
00001000
00000000
00000100
00000000
00000000
00000000
00001100
00000000
00000000
00000000
,
00001000
00000100
00000000
00010000
00000000
00001000
00000000
00010000
,
00011000
00000000
00000000
00000000
,
00001000
00010000
00001000
00100000
00010000
00100000
01000000
10000000
,
00100000
01000000
00010000
01000000
00100000
00010000
00001000
00000000
,
00010000
00001000
00000010
00000100
00010000
00001000
00000010
00000100
,
00001000
00000010
00000100
00000001
00000010
00000100
00001000
00000000
,
00000001
00000000
00000000
00000001
00000000
00000000
00000100
00000000
00000020
00000000
00000000
00000000
00000030
00000000
00000000
00000000
,
00001000
00000000
00000000
00001000
00000000
00000000
00000100
00000000
00020000
00000000
00000000
00000000
00030000
00000000
00000000
00000000
,
00001000
00100000
00010000
00100000
00002000
00000000
00003000
00000000
,
00010000
00000000
00000000
00001000
00000000
00000000
01000000
00000000
00001000
00000000
00010000
00000000
00001000
00000000
00000000
00000000
,
00010000
00001000
00010000
00000010
00001000
00000010
00000100
00000001
,
00000010
00000100
00001000
00000100
00000010
00001000
00010000
00000000
,
00001000
00010000
00100000
01000000
00001000
00010000
00100000
01000000
,
00010000
00100000
01000000
10000000
00100000
01000000
00010000
00000000
,
10000000
00000000
00000000
10000000
00000000
00000000
01000000
00000000
00200000
00000000
00000000
00000000
00300000
00000000
00000000
00000000
,
00010000
00000000
00000000
00010000
00000000
00000000
01000000
00000000
00002000
00000000
00000000
00000000
00003000
00000000
00000000
00000000
,
00010000
00000010
00001000
00000010
00020000
00000000
00030000
00000000
,
00001000
00000000
00000000
00010000
00000000
00000000
00000100
00000000
00010000
00000000
00001000
00000000
00010000
00000000
00000000
00000000
,
00001000
00000000
00000000
00000100
00000000
00000000
00000010
00000000
00000000
00000100
00000000
00000000
00000001
00000000
00000000
00000000
,
00000010
00000000
00000000
00000100
00000000
00000000
00001000
00000000
00000000
00000100
00000000
00000000
00010000
00000000
00000000
00000000
,
00001000
00100000
00001000
00100000
00010000
01000000
00010000
01000000
,
00200000
00000000
20300000
00000000
30010000
01000000
00010000
00000000
,
10000000
00000000
00000000
00100000
00000000
00000000
01000000
00000000
00000000
00010000
00000000
00000000
00100000
00000000
00000000
00000000
,
00010000
00000000
00000000
01000000
00000000
00000000
00001000
00000000
00000000
00010000
00000000
00000000
00001000
00000000
00000000
00000000
,
00010000
00001000
00010000
00001000
00000010
00000100
00000010
00000100
,
00002000
00000000
00003020
00000000
00000130
00000001
00000100
00000000
,
00000010
00000010
00000000
00001000
00001000
00000000
00000100
00000100
,
00000000
00010000
00010000
00000000
00000000
00000000
00000000
00000000
,
00000000
00000000
00000000
00000000
;
#NOTES:
     dance-double:
     :
     Hard:
     15:
     :
00000000
00000000
00000000
00000000
,
00000000
00000000
00000000
00000000
,
00000000
00000000
00000000
00000000
,
00000000
00000000
00000000
00000000
,
00000000
00000000
00000000
00000000
,
00000001
00000010
00000000
00000001
00000010
00000000
00000100
00001000
,
00000000
00000100
00001000
00000000
00000010
00010000
00001000
00000000
,
00010000
00001000
00000000
00010000
00001000
00000000
00100000
00010000
,
00000000
00100000
00010000
00000000
01000000
00100000
10000000
00000000
,
10000000
01000000
00100000
01000000
10000000
00100000
00010000
00001000
,
00000100
00000001
00000010
00000001
00000100
00001000
00010000
00100000
,
10000000
00000000
00100000
10000000
00100000
00000000
01000000
00010000
01000000
00010000
01000000
00000000
00010000
00000000
00100000
00001000
,
00100000
00000000
00001000
00010000
00001000
00000000
00010000
00000100
00010000
00000000
00000100
00001000
00000100
00000000
00000010
00000000
,
00000001
00000100
00000010
00000100
00000001
00000010
00001000
00010000
,
01000000
10000000
00100000
10000000
01000000
00010000
00001000
00000010
,
00000001
00000000
00000010
00000001
00000010
00000000
00000100
00001000
00000100
00001000
00000100
00000000
00001000
00000000
00000010
00010000
,
00000010
00000000
00010000
00001000
00010000
00000000
00001000
01000000
00001000
00000000
01000000
00010000
01000000
00000000
00100000
00000000
,
10000000
00100000
01000000
00001000
00010000
00000000
01000000
10000000
,
00100000
00010000
00001000
00000000
00010000
00001000
00100000
00001000
,
00010000
00001000
00000010
00000001
00001000
00000000
00000001
00000100
,
00000000
00001000
00000100
00000001
00000100
00000001
00001001
00000000
,
00000001
00000010
00000100
00010000
00001000
00000000
00000100
00000001
,
00000010
00001000
00010000
00000000
00001000
00010000
00000010
00010000
,
00001000
00000000
00010000
00100000
10000000
00010000
00000000
00010000
,
00000000
00000000
10000000
00000000
01000000
00000000
00010000
00000000
00001000
00000000
00010000
00001000
00010000
00000000
00000000
00000000
,
00001000
01000000
00100000
01000000
00001000
00000000
00010000
00100000
,
01000000
00100000
00010000
00000000
00001000
01000000
00100000
01000000
,
00001000
00010000
00100000
00010000
00001000
00000000
01000000
00010000
,
00000000
00000000
00100000
00000000
00001000
00000000
00010000
00000000
00001000
00000000
00010000
00000000
00010000
00000000
00010000
00001000
,
00010000
00000010
00000100
00000010
00010000
00000000
00001000
00000100
,
00000010
00000100
00001000
00000000
00010000
00000010
00000100
00000010
,
00010000
00000000
00001000
00000010
00000001
00000010
00000000
00000100
,
00000000
00000000
00010000
00000000
00001000
00000000
00010000
00000000
00001000
00000000
00010000
00001000
00010000
00000000
00000000
00000000
,
00001000
00000000
00100000
00000000
00010000
01000000
00000000
01000000
00000000
01000000
00000000
00010000
00100000
00000000
00000000
00000000
,
00010000
00000000
10000000
00000000
01000000
00100000
00000000
01100000
00000000
00000000
00000000
00000000
00000000
00000000
10000000
01000000
,
00100000
00000000
00001000
00000000
00010000
00001000
00000000
00001000
00000000
00001000
00000000
00010000
00000100
00000000
00000000
00000000
,
00001000
00000000
00000100
00000000
00000010
00000001
00000000
00000011
00000000
00000000
00000000
00000000
00000000
00000000
00000001
00000100
,
00000010
00000000
00000000
00000110
00000000
00000000
00001010
00000000
00000010
00000000
00010000
00000000
00100000
00000000
00000000
00000000
,
10000000
00000000
00000000
10100000
00000000
00000000
10010000
00000000
00100000
00000000
00001000
00000000
00010000
00000000
00000000
00000000
,
00001000
00000000
00000000
00101000
00000000
00000000
01100000
00000000
01000000
00000000
00010000
00000000
00000100
00000000
00000000
00000000
,
00000010
00000000
00000010
00000000
00000000
00000000
00000001
00000000
00000000
00000000
00001001
00000000
00000000
00000000
00001000
00000001
,
00001000
00000000
00000000
00000000
00000000
00000000
00000000
00000000
00000000
00000000
00000000
00000000
00000001
00000010
00000100
00001000
,
00000001
00000000
00000100
00000010
00000000
00001000
00000010
00000000
00001000
00000000
00000100
00010000
00000000
00001000
00010000
00000000
,
00001000
00000000
00100000
00010000
00000000
01000000
00100000
00000000
10000000
00000000
00100000
00000000
00010000
00000000
00100000
00000000
,
10000000
00000000
01000000
00100000
00000000
00010000
00100000
00000000
00001000
00000000
00010000
00001000
00000000
00000010
00001000
00000000
,
00000010
00000000
00000001
00000010
00000001
00000000
00001000
00000100
00001000
00000000
00000001
00000100
00000001
00000000
00000000
00000000
,
00001000
00000010
00001000
00000010
00000000
00000100
00001000
00000000
00001000
00010000
00000000
00010000
00100000
00000000
00000000
00000000
,
10000000
00010000
10000000
00010000
00000000
10000000
01000000
00000000
01000000
00010000
00000000
00010000
00001000
00000000
00000000
00000000
,
00000110
00000000
00000001
00001000
00000001
00001000
00000001
00000000
00000100
00000010
00000100
00001000
00010000
00000000
00000000
00000000
,
01100000
00000000
00010000
10000000
00000000
00010000
10000000
00010000
01000000
00000000
00100000
00000000
10000000
01000000
00100000
00010000
,
10000000
00000000
01000000
00100000
00000000
00010000
01000000
00000000
00100000
00000000
00010000
00001000
00000000
00010000
00000010
00000000
,
00001000
00000000
00000100
00000010
00000000
00000100
00000001
00000000
00000100
00000000
00001000
00000000
00000001
00000000
00000100
00000000
,
00001000
00000000
00000100
00000001
00000000
00000010
00000100
00000000
00001000
00000000
00000010
00010000
00000000
00001000
00010000
00000000
,
00100000
01000000
00100000
01000000
00000000
00100000
10000000
00000000
00010000
00000000
01000000
00000000
10000000
00000000
01000000
00000000
,
00100000
10000000
00100000
10000000
00000000
00010000
00100000
00000000
00100000
00001000
00000000
00001000
00010000
00000000
00000000
00000000
,
00000010
00001000
00000010
00001000
00000000
00001000
00000100
00000000
00000100
00010000
00000000
00010000
00001000
00000000
00000000
00000000
,
00011000
00000000
00001000
01000000
00010000
01000000
00001000
00000000
00100000
00010000
00100000
00001000
00100000
00000000
00010000
00100000
,
01000000
00000000
10000000
00010000
00000000
10000000
00010000
01000000
00100000
00000000
10000000
00000000
01000000
00100000
01000000
00100000
,
00002000
00010000
00100000
00010000
,
00023000
00001000
00000010
00031000
,
00010000
00000000
00001000
00000010
00001000
00000000
00000010
00000001
00000010
00000001
00000010
00000000
00000001
00000000
00000100
00000010
,
00001000
00000000
00000100
00000010
00001000
00000000
00010000
01000000
00010000
00000000
00001000
00100000
00001000
00010000
00001000
00000000
,
00020000
00001000
00000100
00001000
,
00032000
00010000
01000000
00013000
,
00001000
00000000
00010000
01000000
00010000
00000000
01000000
10000000
01000000
10000000
01000000
00000000
10000000
00000000
00100000
01000000
,
00010000
00000000
00100000
01000000
00010000
00000000
00001000
00000010
00001000
00000000
00010000
00000100
00010000
00001000
00010000
00000000
,
00001000
00000010
00000000
00001000
00010000
00000000
00010000
00100000
,
00000000
00010000
00001000
00000000
00000000
00000000
00000000
00000000
,
00000000
00000000
00000000
00000000
;
