
//----- song ID: mull -----//
#TITLE:みゅ、みゅ、Müllる;
#ARTIST:月乃 & BEMANI Sound Team "劇団レコード";
#TITLETRANSLIT:Myu, myu, Mullru;
#ARTISTTRANSLIT:Tsukino & BEMANI Sound Team "Gekidan Record";
#BANNER:Myu, myu, Mullru.png;
#BACKGROUND:Myu, myu, Mullru-bg.png;
#CDTITLE:./CDTitles/DDR A3.png;
#MUSIC:Myu, myu, Mullru.ogg;
#SAMPLESTART:47.345;
#SAMPLELENGTH:15;
#BPMS:0=150;
#STAGE:5;
#NOTES:
     dance-single:
     :
     Beginner:
     3:
     :
0000
0000
0000
0000
,
0000
0000
0000
0000
,
0000
0000
0000
0000
,
0000
0000
0000
0000
,
0000
0000
0000
0000
,
0000
0000
0000
0000
,
0001
0000
1000
0000
,
0001
0000
0000
0000
,
1000
0000
0100
0000
,
0010
0000
0000
0000
,
0001
0000
0100
0000
,
0010
0000
0000
0000
,
1000
0000
0001
0000
,
1000
0000
0000
0000
,
0001
0000
0001
0000
,
0100
0000
0000
0000
,
0001
0000
0001
0000
,
0010
0000
0000
0000
,
0100
0000
0100
0000
,
1000
0000
0000
0000
,
0001
0000
1000
0000
,
0001
0000
0000
0000
,
0100
0000
0000
0000
,
0010
0000
0000
0000
,
1000
0000
0000
0000
,
0001
0000
0000
0000
,
0010
0000
0000
0000
,
0100
0000
0000
0000
,
1000
0000
0000
0000
,
1001
0000
0000
0000
,
0001
0000
0010
0000
,
0001
0000
1000
0000
,
0100
0000
1000
0000
,
0100
0000
1000
0000
,
0001
0000
0000
0000
,
1000
0000
0000
0000
,
0010
0000
0100
0000
,
0001
0000
1000
0000
,
0001
0000
0000
0000
,
0100
0000
0000
0000
,
0010
0000
0000
0000
,
1000
0000
0000
0000
,
0001
0000
0000
0000
,
0010
0000
0000
0000
,
0100
0000
0000
0000
,
1000
0000
0000
0000
,
0002
0000
0000
0000
,
0003
0000
0000
0000
,
2000
0000
0000
0000
,
3000
0000
0000
0000
,
0001
0000
1000
0000
,
0010
0000
1000
0000
,
0001
0000
0010
0000
,
0100
0000
0000
0000
,
1000
0000
0001
0000
,
1000
0000
0000
0000
,
0001
0000
0100
0000
,
0010
0000
0000
0000
,
1000
0000
0001
0000
,
0010
0000
0000
0000
,
0001
0000
1000
0000
,
0001
0000
1001
0000
,
0000
0000
0000
0000
;
#NOTES:
     dance-single:
     :
     Easy:
     7:
     :
0000
0000
0000
0000
,
0000
0000
0000
0000
,
0000
0000
0000
0000
,
0000
0000
0000
0000
,
0000
0000
0000
0000
,
0000
0000
0000
0000
,
1000
0001
0100
0000
,
0020
0000
2030
0000
,
3001
0010
0100
0000
,
0020
0000
0031
0001
,
1000
0001
0100
0000
,
0020
0000
0230
0000
,
0301
1000
0100
0000
,
0020
0000
0130
0100
,
1000
0001
1000
0000
,
0010
0100
0001
0000
,
1000
0100
0010
0000
,
0100
1000
0001
0000
,
0100
0100
0100
0000
,
0001
1000
0010
0000
,
0100
0001
0100
0001
,
1000
0000
1001
0000
,
0001
0000
0000
0001
0000
0000
0000
0010
,
0000
0000
0000
0020
0000
0000
0230
0000
,
1300
0000
0000
1000
0000
0000
0000
0001
,
0000
0000
0000
0200
0000
0000
0320
0000
,
1030
0000
0000
0001
0000
0000
0000
0010
,
0000
0000
0000
0200
0000
0000
1300
0000
,
0001
0001
0000
0000
1000
1000
0000
0000
,
1001
0000
0000
0000
,
0001
0000
1000
0001
0010
0000
0100
0000
,
1000
0100
0001
0100
,
1000
0000
0001
1000
0010
0000
0100
0000
,
0001
0100
1000
0100
,
0001
1000
0010
0100
,
0001
0010
0100
1000
,
0100
0100
0010
0010
,
0001
0001
1001
0000
,
1000
0010
0100
0010
,
1000
0010
0100
0001
,
0010
0100
0010
0001
,
0010
0100
1000
0001
,
0100
0010
1000
0010
,
0100
0001
0010
0001
,
1000
1000
0000
0000
0001
0001
0000
0000
,
0100
0001
1001
0000
,
1000
0000
0001
0000
,
0010
0000
0000
0000
,
0011
0000
1100
0000
,
1000
0001
0100
0010
,
1000
0000
0001
0100
0001
0000
1000
0000
,
0100
1000
0001
0000
0100
0010
1000
0000
,
0100
0100
0010
0010
,
0001
0001
1001
0000
,
1000
0001
0100
0001
,
0020
0000
0230
0000
,
1300
0001
0010
0100
,
2000
0000
3100
0100
,
0010
0001
1000
0010
,
0100
0100
0001
0001
,
0010
0100
0001
0100
,
2000
0000
3001
0000
,
0000
0000
0000
0000
;
#NOTES:
     dance-single:
     :
     Medium:
     11:
     :
0000
0000
0000
0000
,
0000
0000
0000
0000
,
0000
0000
0000
0000
,
0000
0000
0000
0000
,
0000
0000
0000
0000
,
0000
0000
0000
0000
,
0001
0000
0100
0000
0001
0000
0000
1000
0000
0000
0010
0000
0000
0000
0100
0000
,
0000
0001
1000
0100
0010
0001
0010
0000
,
0001
0000
0100
0000
0001
0000
0000
1000
0000
0000
0010
0000
0000
0000
0100
0000
,
0000
0001
0100
0010
1000
0000
1000
0001
,
0000
0000
0100
0000
0001
0000
0000
1000
0000
0000
0100
0000
0000
0000
0010
0000
,
0000
0001
1000
0010
0100
0001
0100
0000
,
0001
0000
1000
0000
0001
0000
0000
0010
0000
0000
0100
0000
0000
0000
1000
0000
,
0000
0001
0100
0001
1000
0100
0010
0000
,
0001
0000
0010
0000
0001
0000
0010
0000
0100
0000
0000
1000
0000
0000
0100
0000
,
1000
0000
0010
0000
0100
0000
0010
0000
1000
0000
0000
0001
0000
0000
1000
0000
,
0010
0000
0100
0000
0010
0000
0100
0000
0001
0000
0000
0100
0000
0000
0001
0000
,
1000
0000
0100
0000
1000
0000
0001
0000
0010
0000
0000
0100
0000
0000
0010
0000
,
0100
0000
1000
0000
0001
0000
0100
0000
0010
0000
0000
0010
0000
0000
0010
0000
,
1000
0000
0001
0000
0100
0000
0010
0000
1000
0000
0000
1000
0000
0000
1000
0000
,
0001
0000
0010
0000
0100
0000
1000
0000
0001
0000
0000
0001
0000
0000
0001
0000
,
0100
0000
0000
0010
0000
0000
1000
0000
1001
0000
0000
0000
0000
0000
0000
0000
,
0001
0100
0010
0100
0000
0010
0100
1000
,
0000
0100
0001
2000
0000
0000
3002
0000
,
0013
0100
0010
0100
0000
0010
0100
0001
,
0000
0100
1000
0002
0000
0000
2003
0000
,
3010
0100
0010
0100
0000
0001
0100
1000
,
0000
0100
0001
2000
0000
0000
3001
0010
,
0100
0100
0000
0000
0010
0010
0000
0000
,
0100
0000
0000
1000
0000
0000
1001
0000
0000
0000
0000
0000
0000
0000
0000
0000
,
1000
0000
0010
0000
0100
0000
0000
0010
0000
0000
0100
0000
0001
0000
1000
0000
,
0100
0010
0100
1000
0000
0001
0010
0100
,
1000
0000
0010
0000
0100
0000
0000
0010
0000
0000
0100
0000
0001
0000
0100
0000
,
1000
0100
0001
0100
1000
0100
0001
1000
,
0001
0000
0010
0000
0100
0000
0000
0010
0000
0000
0100
0000
1000
0000
0001
0000
,
0010
0100
0010
0001
1000
0010
0100
0001
,
1000
0000
0100
0000
0010
0000
0000
0100
0000
0000
0010
0000
0001
0000
2000
0000
,
0000
3001
0001
0010
0110
0000
1100
0000
,
1001
0001
0100
0010
,
1010
1000
0001
0010
,
0110
0100
1000
0001
,
0101
0100
0010
1000
,
1100
0001
0010
0100
,
1001
1000
0010
1000
,
0100
0100
0000
0000
0010
0010
0000
0000
,
0001
0000
0000
0100
0000
0000
1001
0000
0000
0000
0000
0000
0000
0000
0000
0000
,
2000
0000
3020
0000
,
0130
0000
0000
0000
,
0001
0001
0000
0000
1000
1000
0000
0000
,
0001
0010
0100
0010
1000
0010
0001
0010
,
0001
0000
1000
0000
0010
0000
0000
0100
0000
0000
0001
0000
0100
0000
0001
0000
,
1000
0100
0010
0001
1000
0010
1000
0001
,
0010
0000
0100
0000
1000
0000
0000
0010
0000
0000
0100
0000
0001
0000
2000
0000
,
0000
3001
0001
0100
0110
0000
0010
1000
,
0001
0000
0010
0000
0001
0000
0000
1000
0000
0000
0100
0000
0010
0000
0001
0000
,
1000
0000
0000
0100
0000
0000
0001
0000
0100
0000
0000
1000
0000
0000
0001
0000
,
1000
0000
0010
0000
1000
0000
0000
0001
0000
0000
0100
0000
0010
0000
2000
0000
,
0000
3001
0010
0100
0010
0010
0010
0002
,
0000
0000
0013
0000
0100
0000
0000
1000
0000
0000
0010
0000
0100
0000
0010
0000
,
1000
0000
0000
0010
0000
0000
0001
0000
0000
1000
0000
0000
0100
0000
0001
0000
,
1000
0000
0010
0000
0100
0000
0000
0001
0000
0000
1000
0000
0100
0000
0020
0000
,
0000
0000
0031
0000
1000
0000
0010
0100
0000
0000
0000
0000
0000
0000
0000
0000
,
0000
0000
0000
0000
;
#NOTES:
     dance-single:
     :
     Hard:
     13:
     :
0000
0000
0000
0000
,
0000
0000
0000
0000
,
0000
0000
0000
0000
,
0000
0000
0000
0000
,
0000
0000
0000
0000
,
0000
0000
0000
0000
,
1000
0000
0100
0000
1000
0000
0001
0100
0000
0001
0100
0000
0010
0000
0200
0000
,
0000
0000
0301
0000
1000
0000
0010
0000
0100
0000
0001
0000
0010
0000
0100
1000
,
0100
0000
0010
0000
0001
0000
1000
0010
0000
1000
0010
0000
0100
0000
0020
0000
,
0000
1030
0001
0010
0110
0000
0110
0200
,
0000
0000
1300
0000
0001
0000
1000
0100
0000
1000
0100
0000
0010
0000
0200
0000
,
0000
0000
0310
0000
0001
0000
0100
0000
0010
0000
1000
0000
0100
0000
0010
0001
,
0010
0000
0100
0000
1000
0000
0001
0100
0000
0001
0100
0000
0010
0000
0200
0000
,
0000
0000
0301
0000
1000
0000
0010
0000
0100
0000
0001
0000
0010
0100
0000
0000
,
1000
0000
0100
0000
0010
0000
0100
0000
0002
0000
0000
0203
0000
0000
1300
0001
,
1000
0000
0010
0000
0100
0000
0010
0000
0002
0000
0000
0023
0000
0000
1030
0001
,
1000
0000
0100
0000
0010
0000
0100
0000
0002
0000
0000
0203
0000
0000
1300
0001
,
0010
0000
0100
0000
1000
0000
0010
0000
0002
0000
0000
0023
0000
0000
1030
0001
,
0100
0000
0010
0000
1000
0000
0100
0000
0002
0000
0000
0203
0000
0000
0310
0001
,
1000
0000
0010
0000
0100
0000
0010
0000
0002
0000
0000
0023
0000
0000
1030
0001
,
0100
0000
0010
0000
1000
0000
0100
0000
0002
0000
0000
0203
0000
0000
1300
0000
,
0001
1000
0000
0001
1000
0000
0010
0000
0110
0000
0000
0000
0100
0000
0001
0000
,
1001
1000
0100
0110
0000
0010
0001
1001
,
0000
1000
0010
0210
0000
0000
0302
0000
,
0013
0100
1000
1001
0000
0001
0100
0110
,
0000
0010
1000
1002
0000
0000
0023
0000
,
0130
1000
0001
0011
0000
0010
0001
0101
,
0000
0100
0010
2010
0000
3100
0010
0001
,
1000
1000
0000
0000
0001
0001
0000
0000
,
0101
0000
0000
1100
0000
0000
0101
0000
0000
0000
0000
0000
0000
0000
0000
0000
,
1000
0000
0100
0000
0001
0000
0100
1000
0000
0010
0100
0000
0001
0000
0100
0000
,
0010
1000
0010
2000
0000
3100
0100
0100
,
0001
0000
0100
0000
1000
0000
0100
0001
0000
0100
1000
0000
0010
0000
0100
0000
,
0001
0010
1000
0010
0001
0100
1000
0100
,
0001
0000
1000
0000
0100
0000
0010
0001
0000
0001
1000
0000
0010
0000
0100
0000
,
0001
0000
0010
0000
0100
0000
1000
0010
0000
0010
0100
0000
0001
0000
0010
0100
,
1000
0000
0001
0000
0100
0000
0010
1000
0000
1000
0001
0000
0010
0000
0200
0000
,
0000
0310
0001
0100
0110
0000
1001
0000
,
1100
0000
0100
0010
0001
0000
0100
0000
,
0110
0010
0000
1000
0001
0010
0100
0000
,
0110
0000
0100
1000
0001
0000
0100
0000
,
0110
0010
0000
1000
0010
0100
0001
0000
,
1001
0000
0001
0010
0100
1000
0001
0000
,
0101
0100
0000
0001
0100
1000
0100
0001
,
0011
0011
0000
0000
1100
1100
0000
0000
,
0101
0000
0000
1010
0000
0000
0011
0000
0000
0000
0000
0000
0000
0000
0000
0000
,
2000
0000
3002
0000
,
0013
0100
1000
0001
0000
0000
0000
0000
,
0100
0100
0000
0000
0010
0010
0000
0000
,
1000
0010
0001
0010
1000
0010
0001
0010
,
1000
0000
0001
0000
0010
0000
0100
1000
0000
0100
1000
0000
0001
0000
0100
0000
,
0001
0000
1000
0001
1000
0000
0001
0100
0000
1000
0100
0000
0001
0000
0010
0100
,
1000
0000
0001
0000
0010
0000
0100
1000
0001
0000
0100
0000
0010
0000
2000
0000
,
0000
3100
0100
0100
0110
0000
0000
0000
,
1000
0000
0010
0000
1000
0000
0001
0010
0000
0001
0010
0000
0100
0000
0010
0000
,
0001
1000
0000
1000
0010
0000
0010
0100
0010
0100
0000
0010
1000
0000
1000
0001
,
0010
0000
0100
0000
1000
0000
0001
0100
0000
0001
0100
0000
0010
0000
0200
0000
,
0000
0301
1000
0010
1001
1001
1001
2000
,
0000
0000
3001
0000
0010
0000
0001
0010
0000
0001
0010
0000
0100
0000
0010
0000
,
0001
0100
0000
1000
0100
0000
0001
0010
0000
1000
0010
0000
0001
1000
0001
1000
,
0100
0000
0010
0000
0001
0000
1000
0010
0000
1000
0010
0000
0100
0000
0002
0000
,
0000
0000
0013
0000
1000
0000
0010
0001
0000
0000
0000
0000
0000
0000
0000
0000
,
0000
0000
0000
0000
;
#NOTES:
     dance-double:
     :
     Easy:
     7:
     :
00000000
00000000
00000000
00000000
,
00000000
00000000
00000000
00000000
,
00000000
00000000
00000000
00000000
,
00000000
00000000
00000000
00000000
,
00000000
00000000
00000000
00000000
,
00000000
00000000
00000000
00000000
,
10000000
01000000
00100000
00000000
,
00020000
00000000
00230000
00000000
,
00301000
00010000
00000100
00000000
,
00002000
00000000
00003020
00000000
,
00000130
00000001
00001000
00000000
,
00000200
00000000
00020300
00000000
,
00031000
00100000
00010000
00000000
,
20000000
00000000
30010000
00010000
,
00100000
01000000
00100000
00000000
,
00010000
00100000
00010000
00000000
,
00100000
00001000
00010000
00000000
,
00001000
00010000
00001000
00000000
,
00010000
00000100
00001000
00000000
,
00000001
00001000
00000100
00000000
,
00000010
00000100
00000010
00000000
,
00000001
00000000
00001001
00000000
,
00001000
00000000
00000000
00000010
00000000
00000000
00000000
00001000
,
00000000
00000000
00000000
00000020
00000000
00000000
00020030
00000000
,
00031000
00000000
00000000
00100000
00000000
00000000
00000000
00010000
,
00000000
00000000
00000000
20000000
00000000
00000000
30020000
00000000
,
01030000
00000000
00000000
00001000
00000000
00000000
00000000
00010000
,
00000000
00000000
00000000
00000200
00000000
00000000
00001300
00000000
,
00000001
00000001
00000000
00000000
00000100
00000100
00000000
00000000
,
00000101
00000000
00000000
00000000
,
00000001
00000000
00001000
00000100
00001000
00000000
00000100
00000000
,
00010000
00000100
00010000
00001000
,
00100000
00000000
00010000
00100000
00010000
00000000
00100000
00000000
,
01000000
10000000
00100000
01000000
,
00010000
01000000
00001000
00010000
,
00001000
00100000
00010000
10000000
,
00010000
00010000
00100000
00100000
,
00001000
00001000
00011000
00000000
,
00010000
00000100
00001000
00000100
,
00001000
00000001
00000100
00000001
,
00001000
00000010
00010000
00001000
,
00010000
00001000
00100000
00010000
,
00100000
01000000
10000000
00010000
,
01000000
00010000
01000000
00001000
,
00010000
00010000
00000000
00000000
00001000
00001000
00000000
00000000
,
00010000
00001000
00011000
00000000
,
00010000
00000000
00000100
00000000
,
00001000
00000000
00000000
00000000
,
00001100
00000000
00001001
00000000
,
00000001
00000100
00000010
00001000
,
00000010
00000000
00010000
00001000
00010000
00000000
00001000
00000000
,
00100000
00010000
00100000
00000000
00010000
01000000
00010000
00000000
,
10000000
10000000
00010000
00010000
,
00100000
00100000
00101000
00000000
,
00001000
00010000
00001000
00010000
,
00000200
00000000
00002300
00000000
,
00003001
00000010
00000100
00001000
,
00000020
00000000
00000230
00000000
,
00000310
00001000
00000010
00010000
,
00001000
00001000
00100000
00100000
,
00010000
00000000
10000000
00000000
01000000
00000000
00010000
02000000
,
00000000
00000000
03100000
00000000
,
00000000
00000000
00000000
00000000
;
#NOTES:
     dance-double:
     :
     Medium:
     11:
     :
00000000
00000000
00000000
00000000
,
00000000
00000000
00000000
00000000
,
00000000
00000000
00000000
00000000
,
00000000
00000000
00000000
00000000
,
00000000
00000000
00000000
00000000
,
00000000
00000000
00000000
00000000
,
00000001
00000000
00000100
00000000
00000001
00000000
00000000
00001000
00000000
00000000
00000010
00000000
00000000
00000000
00001000
00000000
,
00000000
00000100
00010000
00001000
00010000
00001000
00100000
00000000
,
00010000
00000000
01000000
00000000
00010000
00000000
00000000
10000000
00000000
00000000
01000000
00000000
00000000
00000000
00100000
00000000
,
00000000
00001000
00010000
00001000
00010000
00000000
00010000
00000100
,
00000000
00000000
00001000
00000000
00000100
00000000
00000000
00001000
00000000
00000000
00000001
00000000
00000000
00000000
00000100
00000000
,
00000000
00000001
00001000
00000010
00000100
00000001
00001000
00000000
,
00000100
00000000
00010000
00000000
00001000
00000000
00000000
00100000
00000000
00000000
00001000
00000000
00000000
00000000
00100000
00000000
,
00000000
00010000
00100000
01000000
10000000
01000000
00100000
00000000
,
00001000
00000000
00010000
00000000
00001000
00000000
00010000
00000000
00000100
00000000
00000000
00001000
00000000
00000000
00000001
00000000
,
00001000
00000000
00000010
00000000
00000100
00000000
00000001
00000000
00001000
00000000
00000000
00000010
00000000
00000000
00010000
00000000
,
00001000
00000000
00010000
00000000
00001000
00000000
00100000
00000000
00010000
00000000
00000000
00100000
00000000
00000000
01000000
00000000
,
10000000
00000000
01000000
00000000
00100000
00000000
01000000
00000000
00100000
00000000
00000000
00010000
00000000
00000000
00100000
00000000
,
00001000
00000000
00010000
00000000
00001000
00000000
00010000
00000000
00000100
00000000
00000000
00000100
00000000
00000000
00000100
00000000
,
00001000
00000000
00000010
00000000
00000100
00000000
00000001
00000000
00000010
00000000
00000000
00000010
00000000
00000000
00000010
00000000
,
00000100
00000000
00001000
00000000
00000100
00000000
00010000
00000000
00001000
00000000
00000000
00001000
00000000
00000000
00001000
00000000
,
01000000
00000000
00000000
00010000
00000000
00000000
10000000
00000000
10010000
00000000
00000000
00000000
00000000
00000000
00000000
00000000
,
00010000
00100000
01000000
10000000
00000000
00010000
00100000
01000000
,
00000000
00100000
00010000
00200000
00000000
00000000
00302000
00000000
,
00013000
00000100
00001000
00000100
00000000
00000010
00000100
00001000
,
00000000
00000100
00001000
00000002
00000000
00000000
00000203
00000000
,
00000310
00001000
00000010
00010000
00000000
00001000
00100000
00010000
,
00000000
00100000
00001000
00020000
00000000
00000000
00031000
00100000
,
00010000
00010000
00000000
00000000
10000000
10000000
00000000
00000000
,
00010000
00000000
00000000
01000000
00000000
00000000
10010000
00000000
00000000
00000000
00000000
00000000
00000000
00000000
00000000
00000000
,
10000000
00000000
00100000
00000000
01000000
00000000
00000000
00010000
00000000
00000000
01000000
00000000
00001000
00000000
00010000
00000000
,
00000100
00001000
00000100
00000010
00000000
00000001
00000010
00000100
,
00001000
00000000
00000010
00000000
00000100
00000000
00000000
00000010
00000000
00000000
00001000
00000000
00000100
00000000
00000010
00000000
,
00000001
00000100
00000010
00001000
00010000
01000000
00100000
10000000
,
00010000
00000000
00100000
00000000
01000000
00000000
00000000
10000000
00000000
00000000
00100000
00000000
01000000
00000000
00010000
00000000
,
01000000
00001000
00010000
00000100
00001000
00000001
00000100
00000001
,
00001000
00000000
00000100
00000000
00000010
00000000
00000000
00000100
00000000
00000000
00001000
00000000
00000100
00000000
00020000
00000000
,
00000000
00031000
00001000
00100000
00110000
00000000
01100000
00000000
,
11000000
10000000
00100000
01000000
,
01010000
00010000
00100000
00001000
,
00011000
00010000
00000100
00001000
,
00001001
00000001
00000010
00000100
,
00001100
00001000
00000010
00010000
,
00011000
00001000
00100000
00010000
,
10000000
10000000
00000000
00000000
00010000
00010000
00000000
00000000
,
10000000
00000000
00000000
00100000
00000000
00000000
10010000
00000000
00000000
00000000
00000000
00000000
00000000
00000000
00000000
00000000
,
00020000
00000000
02030000
00000000
,
03001000
00000000
00000000
00000000
,
00010000
00010000
00000000
00000000
00000100
00000100
00000000
00000000
,
00001000
00000100
00000010
00000001
00000100
00000010
00001000
00000010
,
00010000
00000000
00001000
00000000
00100000
00000000
00000000
00001000
00000000
00000000
00100000
00000000
00010000
00000000
00100000
00000000
,
01000000
10000000
01000000
00100000
00010000
00001000
00000100
00000010
,
00000001
00000000
00001000
00000000
00000010
00000000
00000000
00000100
00000000
00000000
00000001
00000000
00000010
00000000
00000200
00000000
,
00000000
00010300
00010000
00001000
00011000
00000000
00010000
00001000
,
00100000
00000000
00010000
00000000
01000000
00000000
00000000
00100000
00000000
00000000
10000000
00000000
00100000
00000000
10000000
00000000
,
00100000
00000000
00000000
00010000
00000000
00000000
00001000
00000000
00010000
00000000
00000000
00000100
00000000
00000000
00001000
00000000
,
00000001
00000000
00000010
00000000
00000100
00000000
00000000
00000010
00000000
00000000
00000100
00000000
00001000
00000000
00000200
00000000
,
00000000
00010300
00001000
00100000
00010000
00010000
00010000
02000000
,
00000000
00000000
03100000
00000000
10000000
00000000
00000000
01000000
00000000
00000000
00100000
00000000
01000000
00000000
10000000
00000000
,
01000000
00000000
00000000
00010000
00000000
00000000
00001000
00000000
00000000
00000010
00000000
00000000
00000100
00000000
00000010
00000000
,
00000001
00000000
00001000
00000000
00000010
00000000
00000000
00010000
00000000
00000000
00001000
00000000
00010000
00000000
00002000
00000000
,
00000000
00000000
00103000
00000000
00010000
00000000
10000000
00010000
00000000
00000000
00000000
00000000
00000000
00000000
00000000
00000000
,
00000000
00000000
00000000
00000000
;
#NOTES:
     dance-double:
     :
     Hard:
     13:
     :
00000000
00000000
00000000
00000000
,
00000000
00000000
00000000
00000000
,
00000000
00000000
00000000
00000000
,
00000000
00000000
00000000
00000000
,
00000000
00000000
00000000
00000000
,
00000000
00000000
00000000
00000000
,
10000000
00000000
01000000
00000000
00100000
00000000
00010000
00100000
00000000
00010000
00100000
00000000
00001000
00000000
00020000
00000000
,
00000000
00031000
00100000
00001000
00010000
00000100
00001000
00000010
,
00000100
00000000
00000001
00000000
00000010
00000000
00000100
00001000
00000000
00000100
00001000
00000000
00000100
00000000
00020000
00000000
,
00000000
00031000
00100000
01000000
01100000
00000000
01100000
02000000
,
00000000
00000000
13000000
00000000
00010000
00000000
01000000
00100000
00000000
01000000
00100000
00000000
01000000
00000000
00002000
00000000
,
00000000
00013000
00000010
00001000
00000001
00000010
00000100
00001000
,
00000010
00000000
00000100
00000000
00000001
00000000
00000100
00000010
00000000
00000100
00000010
00000000
00001000
00000000
00000020
00000000
,
00000000
00000000
00010030
00000000
00001000
00000000
01000000
00000000
00100000
00000000
10000000
00000000
00010000
01000000
00000000
00000000
,
00010000
00000000
10000000
00000000
01000000
00000000
00010000
00000000
02000000
00000000
00000000
03200000
00000000
00000000
00301000
00010000
,
00001000
00000000
00010000
00000000
00000100
00000000
00000010
00000000
00000002
00000000
00000000
00000023
00000000
00000000
00000130
00001000
,
00000100
00000000
00010000
00000000
00001000
00000000
01000000
00000000
00020000
00000000
00000000
20030000
00000000
00000000
31000000
00100000
,
01000000
00000000
00100000
00000000
00010000
00000000
00001000
00000000
00000200
00000000
00000000
00000320
00000000
00000000
00000031
00001000
,
00000001
00000000
00000100
00000000
00000010
00000000
00000100
00000000
00002000
00000000
00000000
00023000
00000000
00000000
00130000
01000000
,
00100000
00000000
01000000
00000000
10000000
00000000
01000000
00000000
00020000
00000000
00000000
00230000
00000000
00000000
00301000
00010000
,
00001000
00000000
00010000
00000000
00000010
00000000
00000100
00000000
00000002
00000000
00000000
00000023
00000000
00000000
00000130
00000000
,
00001000
00000100
00000000
00001000
00000100
00000000
00010000
00000000
00011000
00000000
00000000
00000000
00001000
00000000
00100000
00000000
,
00110000
00010000
10000000
10100000
00000000
00100000
01000000
01010000
,
00000000
00010000
00100000
00102000
00000000
00000000
00023000
00000000
,
00030010
00000100
00000001
00001001
00000000
00001000
00000100
00010100
,
00000000
00010000
00001000
00201000
00000000
00000000
02300000
00000000
,
13000000
00010000
01000000
01100000
00000000
00100000
01000000
01001000
,
00000000
00001000
00010000
00010200
00000000
00000310
00000001
00000010
,
00000100
00000100
00000000
00000000
00001000
00001000
00000000
00000000
,
00011000
00000000
00000000
01010000
00000000
00000000
11000000
00000000
00000000
00000000
00000000
00000000
00000000
00000000
00000000
00000000
,
10000000
00000000
01000000
00000000
00010000
00000000
01000000
10000000
00000000
01000000
00100000
00000000
00010000
00000000
00001000
00000000
,
00000100
00000010
00000100
00002000
00000000
00003001
00000001
00000001
,
00000100
00000000
00001000
00000000
00000100
00000000
00000001
00000100
00000000
00000010
00000100
00000000
00001000
00000000
00000100
00000000
,
00000010
00000100
00001000
00010000
00100000
01000000
10000000
01000000
,
00010000
00000000
10000000
00000000
01000000
00000000
00100000
00010000
00000000
00010000
00100000
00000000
00001000
00000000
00010000
00000000
,
00000010
00000000
00001000
00000000
00000100
00000000
00010000
00001000
00000000
00001000
01000000
00000000
00100000
00000000
01000000
00010000
,
01000000
00000000
00100000
00000000
00010000
00000000
00001000
00010000
00000000
00010000
00000100
00000000
00000010
00000000
00000002
00000000
,
00000000
00000013
00000100
00001000
00001001
00000000
00001010
00000000
,
00011000
00000000
00010000
00001000
00100000
00000000
01000000
00000000
,
11000000
10000000
00000000
00010000
00100000
00001000
00010000
00000000
,
00010100
00000000
00000100
00001000
00000010
00000000
00000100
00000000
,
00000101
00000001
00000000
00001000
00000100
00010000
00001000
00000000
,
00101000
00000000
00100000
01000000
10000000
01000000
00100000
00000000
,
00110000
00010000
00000000
00100000
00001000
00010000
00000100
00000010
,
00000011
00000011
00000000
00000000
00001100
00001100
00000000
00000000
,
00011000
00000000
00000000
00110000
00000000
00000000
10100000
00000000
00000000
00000000
00000000
00000000
00000000
00000000
00000000
00000000
,
20000000
00000000
32000000
00000000
,
03100000
00010000
00001000
00000100
00000000
00000000
00000000
00000000
,
00000010
00000010
00000000
00000000
00000001
00000001
00000000
00000000
,
00001000
00000100
00000001
00000100
00001000
00010000
00100000
01000000
,
10000000
00000000
00010000
00000000
01000000
00000000
00100000
01000000
00000000
00010000
01000000
00000000
00001000
00000000
00010000
00000000
,
00000100
00000000
00001000
00000100
00001000
00000000
00000001
00000010
00000000
00000100
00001000
00000000
00000010
00000000
00000100
00000010
,
00000100
00000000
00000001
00000000
00001000
00000000
00000100
00001000
00000100
00000000
00010000
00000000
00001000
00000000
00200000
00000000
,
00000000
01300000
01000000
01000000
01100000
00000000
00000000
00000000
,
10000000
00000000
01000000
00000000
00100000
00000000
00010000
00100000
00000000
00010000
00100000
00000000
00001000
00000000
00010000
00000000
,
00000100
00001000
00000000
00001000
00000100
00000000
00000110
00000000
00000010
00000001
00000000
00000001
00001000
00000000
00000100
00010000
,
00000100
00000000
00010000
00000000
00001000
00000000
01000000
00010000
00000000
01000000
00010000
00000000
10000000
00000000
00200000
00000000
,
00000000
01300000
00001000
00010000
00011000
00011000
00011000
00002000
,
00000000
00000000
00013000
00000000
00000010
00000000
00001000
00000001
00000000
00001000
00000001
00000000
00000010
00000000
00000100
00000000
,
00001000
00000100
00000000
00010000
00001000
00000000
00100000
00010000
00000000
10000000
01000000
00000000
00100000
00010000
00100000
00010000
,
00100000
00000000
00001000
00000000
00010000
00000000
00000100
00001000
00000000
00000100
00001000
00000000
00000001
00000000
00000200
00000000
,
00000000
00000000
00001300
00000000
00010000
00000000
00100000
01000000
00000000
00000000
00000000
00000000
00000000
00000000
00000000
00000000
,
00000000
00000000
00000000
00000000
;
