
//----- song ID: mydr -----//
#TITLE:My Drama;
#ARTIST:Coretex feat. MIDI War;
#BANNER:My Drama.png;
#BACKGROUND:My Drama-bg.png;
#CDTITLE:./CDTitles/DDR A3.png;
#MUSIC:My Drama.ogg;
#SAMPLESTART:28.089;
#SAMPLELENGTH:15;
#BPMS:0=220;
#BGSTAGE:14;
#NOTES:
     dance-single:
     :
     Beginner:
     7:
     :
0000
0000
0000
0000
,
0000
0000
0000
0000
,
0000
0000
0000
0000
,
0000
0000
0000
0000
,
0000
0000
0000
0000
,
0000
0000
0000
0000
,
1000
0000
0000
0000
,
1000
0000
0000
0000
,
0001
0000
0000
0000
,
0001
0000
0000
0000
,
1000
0000
0010
0000
,
1000
0000
0000
0000
,
0001
0000
0000
0000
,
0100
0000
0000
0000
,
0001
0000
0100
0000
,
0001
0000
0100
0000
,
0010
0000
1000
0000
,
0010
0000
1000
0000
,
0001
0000
0001
0000
,
1000
0000
1000
0000
,
0001
0000
0001
0000
,
0010
0000
0010
0000
,
0001
0000
0010
0000
,
0100
0000
1000
0000
,
0001
0000
1000
0000
,
2002
0000
0000
3003
,
0001
0000
0000
0000
,
0100
0000
0001
0000
,
1000
0000
0000
0000
,
0010
0000
1000
0000
,
0001
0000
0000
0000
,
0010
0000
0001
0000
,
1000
0000
0000
0000
,
0100
0000
1000
0000
,
0001
0000
0001
0000
,
1000
0000
1000
0000
,
0001
0000
0001
0000
,
1000
0000
1000
0000
,
0010
0000
0010
0000
,
0100
0000
0100
0000
,
0010
0000
0010
0000
,
0100
0000
0100
0000
,
0001
0000
0000
0000
,
0001
0000
0000
0000
,
1000
0000
0000
0000
,
1000
0000
0000
0000
,
0100
0000
0000
0000
,
0010
0000
0000
0000
,
0100
0000
0000
0000
,
0010
0000
0000
0000
,
0110
0000
0000
0000
,
0110
0000
0000
0000
,
1001
0000
0000
0000
,
1001
0000
0000
0000
,
1000
0000
1000
0000
,
0010
0000
0010
0000
,
0100
0000
0100
0000
,
0010
0100
0010
0000
,
1000
0000
0000
0000
,
0000
0000
0000
0000
,
1000
0000
0000
0000
,
0001
0000
1000
0000
,
0010
0000
1000
0000
,
0010
0000
1000
0000
,
0001
0000
0010
0000
,
0001
0000
0010
0000
,
0100
0000
1000
0000
,
0100
0000
1000
0000
,
0001
0000
0100
0000
,
0001
0000
0100
0000
,
0010
0000
0000
0000
,
0010
0010
0010
0000
,
1000
0000
0000
0000
,
1000
1000
1000
0000
,
0001
0000
0000
0000
,
0001
0001
0001
0000
,
0100
0000
0000
0000
,
0100
0100
0100
0000
,
0001
0000
0100
0000
,
0001
0000
0100
0000
,
0010
0000
1000
0000
,
0010
0000
1000
0000
,
0001
0000
1000
0000
,
0001
0000
1000
0000
,
0010
0000
0100
0000
,
0010
0000
0100
0000
,
0001
0000
0001
0000
,
1000
0000
1000
0000
,
0001
0000
0001
0000
,
1000
0000
1000
0000
,
0100
0000
0100
0000
,
0010
0000
0010
0000
,
0001
0000
1000
0000
,
0001
0000
0000
0000
,
0100
0000
0000
0000
,
0100
0000
0000
0000
,
0010
0000
0000
0000
,
0010
0000
0000
0000
,
1000
0000
0000
0000
,
1000
0000
0000
0000
,
0001
0000
0000
0000
,
0001
0000
1000
0000
,
0000
0000
0000
0000
;
#NOTES:
     dance-single:
     :
     Easy:
     10:
     :
0000
0000
0000
0000
,
0000
0000
0000
0000
,
0000
0000
0000
0000
,
0000
0000
0000
0000
,
0000
0000
0000
0000
,
0000
0000
0000
0000
,
0001
1000
0001
0100
,
0001
1000
0001
0010
,
0100
1000
0001
1000
,
0100
1000
0001
1000
,
0010
0100
0001
1000
,
0010
0010
0110
0000
,
1000
0001
1001
0000
,
0100
0010
0110
0000
,
0001
0001
0100
0100
,
0010
1000
0010
1000
,
0100
0100
0010
0010
,
0001
1000
0001
1000
,
0100
0100
0010
0100
,
1000
0001
1000
0000
,
0010
0010
0100
0010
,
1000
0001
1000
1001
,
0000
0001
0100
0001
,
1000
0010
1000
0000
,
0010
0100
0010
0100
,
0001
0100
0010
1000
,
0001
0001
1000
1000
,
0100
0100
1000
0001
,
1000
1000
0001
0001
,
0010
0010
0001
1000
,
0010
0010
0100
0100
,
0001
0001
1000
0001
,
0100
0100
0010
0010
,
0001
0001
2000
3002
,
1003
0100
0100
0010
,
0010
0001
1000
1001
,
0001
0100
0100
0010
,
0010
1000
0001
1001
,
1000
0010
0010
0100
,
0100
0001
1000
1001
,
0001
0010
0010
0100
,
0100
1000
0001
1001
,
0100
0000
0010
0000
,
0100
0010
0100
0000
,
0001
0000
1000
0000
,
0001
1000
0001
0000
,
1001
0000
0101
0000
,
0011
0000
1100
0000
,
0110
0000
0011
0000
,
0101
0000
1010
0000
,
1001
0000
0000
0000
,
1001
0000
0000
0000
,
0110
0000
0000
0000
,
0110
0000
0000
0000
,
0001
0001
0001
0001
,
1000
1000
1000
1000
,
0010
0100
0010
0100
,
0010
0100
0010
0100
,
0001
0000
0001
0000
,
1000
0100
1000
0100
,
1000
0000
1000
0000
,
0001
0100
0001
0100
,
0010
1000
0010
1000
,
0001
0010
0001
1000
,
0100
0010
0100
0010
,
0001
0100
0001
1000
,
0010
0100
0010
0100
,
0001
1000
0010
1000
,
0001
0100
0001
0010
,
0001
0100
0010
0010
,
1000
0100
1000
0001
,
0010
0010
0100
0100
,
1000
0010
1000
0001
,
0100
0100
0010
0100
,
0001
0010
0001
1000
,
0100
0100
0010
0010
,
0001
0100
0001
1000
,
0010
0010
0100
0010
,
1000
0001
0100
0100
,
0001
0001
1000
1001
,
0001
0100
0001
0100
,
0010
0100
0010
1000
,
0001
0001
1000
1000
,
0010
0010
0100
0100
,
0001
1000
0001
0010
,
0100
0010
0100
1001
,
1000
0010
1000
0001
,
1000
0100
1000
0010
,
0100
0001
0100
0010
,
0100
0001
1000
0001
,
0010
0100
0010
0001
,
1000
0010
0100
0010
,
1000
0001
1000
0001
,
0100
0010
0100
0000
,
0001
1000
0001
0010
,
0001
1000
0001
0100
,
0010
1000
0001
1000
,
0010
1000
0001
0100
,
0001
1000
0001
0010
,
0001
1000
0001
0100
,
0010
1000
0001
1000
,
0010
1000
0001
0100
,
0000
0000
0000
0000
;
#NOTES:
     dance-single:
     :
     Medium:
     13:
     :
0000
0000
0000
0000
,
0000
0000
0000
0000
,
0000
0000
0000
0000
,
0000
0000
0000
0000
,
0000
0000
0000
0000
,
0000
0000
0000
0000
,
1000
0000
0010
0000
0100
0010
0100
0010
,
1000
0000
0001
0000
0010
0100
0010
0100
,
1000
0000
0001
0000
0010
0001
0010
0001
,
1000
0000
0010
0000
0100
0010
0100
0010
,
1000
0010
0100
0001
,
1000
0000
0100
1000
0100
0000
0000
0000
,
1000
0000
0001
0000
0010
0001
0000
0000
,
0100
0000
0010
0100
0010
0000
0000
0000
,
1000
0100
0010
0001
,
0010
0100
0010
0000
0001
0000
0100
0000
,
0001
0100
0010
1000
,
0001
0100
0001
0100
0001
0000
1000
0000
,
0010
0010
1000
0001
,
0010
0000
0100
0000
1000
0010
1000
0000
,
0001
0100
0001
0000
1000
0100
1000
0000
,
0001
0100
0010
1000
,
0000
0010
0100
0110
,
1000
0000
0001
0000
0010
0100
0010
0000
,
0001
1000
0010
0000
0100
0000
0010
0000
,
1000
0010
1000
0000
0001
0100
0001
0000
,
0100
0010
0100
0000
0001
0000
0001
0000
,
1000
0000
1000
0000
0100
0010
0100
0000
,
1000
0001
1000
0000
0010
0000
0010
0000
,
0100
0100
0110
1001
,
0010
0100
0010
0000
1000
0000
1000
0000
,
0001
0000
0001
0000
0010
0100
0010
0000
,
0001
1000
0001
0000
0100
0000
0100
0000
,
0010
0010
2000
3200
,
0310
0001
0010
0000
0100
1000
0100
0000
,
1000
0010
1000
0000
0010
0000
0100
0000
,
0001
0010
0001
0000
1000
0100
1000
0000
,
0010
1000
0010
0000
0100
0000
0001
0000
,
1000
0100
1000
0000
0001
0010
0001
0000
,
0100
0010
0100
0000
0001
0000
1000
0000
,
0001
0100
0001
0000
1000
0010
1000
0000
,
0100
0010
0100
0000
1000
0001
1000
0000
,
0010
1000
0001
0000
0010
0000
0001
0000
,
0100
0010
0110
0000
,
1000
0001
0100
0000
0010
0000
0100
0000
,
0001
1000
1001
0000
,
0001
0100
0110
0100
,
1001
0010
0110
0100
,
1000
0100
0110
0100
,
1001
0010
0110
0100
,
1001
0000
0001
1000
,
1001
0000
0010
0000
,
0110
0000
0010
0100
,
0110
0000
0001
0000
,
1000
1000
1000
1000
,
0001
0001
0001
0001
,
0010
0001
0010
0001
0010
0001
0010
0001
,
1000
0100
1000
0100
1000
0100
1000
0100
,
1000
0010
1000
0000
0001
0000
0001
0000
,
0010
0000
0010
0000
0001
0010
0001
0000
,
1000
0100
1000
0000
0001
0000
0001
0000
,
1000
0010
1000
0010
0100
0010
0200
0000
,
0301
0010
0001
1000
,
0010
0100
0010
1000
,
0001
0100
0001
1000
,
0001
0000
0010
0000
0100
0010
0100
0000
,
1000
0010
1000
0010
1000
0000
0001
0000
,
0100
0001
0100
0000
0010
0100
0010
0000
,
1000
0100
0010
0001
,
0100
0010
0100
0010
0100
0000
0010
0000
,
1000
0001
1000
0000
0010
0000
0010
0000
,
0100
0000
0100
0000
0010
1000
0010
0000
,
0100
0001
0100
0000
0001
0000
0001
0000
,
1000
0000
1000
0000
0100
0010
0100
0000
,
1000
0010
1000
0000
0001
0000
0001
0000
,
0100
0000
0100
0000
0001
0010
0001
0000
,
0010
0100
0010
0000
0001
0000
0001
0000
,
1000
0000
1000
0000
0010
0100
0010
0000
,
1000
0100
0010
0000
0001
0000
0001
0000
,
1000
0000
1000
0000
0001
0010
0001
0000
,
1000
0010
0100
0000
0001
0010
0100
0000
,
0010
0100
1000
0000
0100
1000
0001
0000
,
1000
1000
0100
0100
,
1000
0001
1001
1001
,
0001
0010
0100
0000
1000
0010
1000
0010
,
0100
0010
1000
1100
,
0001
0010
0001
0000
1000
0010
1000
0000
,
0010
0100
0010
0000
0100
0010
0100
0000
,
0001
0100
0001
0000
1000
0100
1000
0000
,
0100
0010
0100
0000
0010
0100
0010
0000
,
0001
0100
0010
0000
1000
0010
0100
0000
,
0001
0010
0100
0000
1000
0100
0010
0000
,
0110
0110
1001
1001
,
1000
0100
1000
0100
1000
0000
0110
0000
,
0001
0000
0100
0000
0010
0100
0010
0100
,
0001
0000
1000
0000
0100
0010
0100
0010
,
0001
0000
1000
0000
0010
1000
0010
1000
,
0001
0000
0010
0000
0100
0010
0100
0010
,
0001
0000
0100
0000
0010
0100
0010
0100
,
0001
0000
1000
0000
0100
0010
0100
0010
,
0001
0000
1000
0000
0010
1000
0010
1000
,
0001
0000
0010
0000
0100
0010
0100
0010
,
0000
0000
0000
0000
;
#NOTES:
     dance-single:
     :
     Hard:
     15:
     :
0000
0000
0000
0000
,
0000
0000
0000
0000
,
0000
0000
0000
0000
,
0000
0000
0000
0000
,
0000
0000
0000
0000
,
0000
0000
0000
0000
,
0001
0100
0001
0100
0010
0010
1000
0001
,
1000
0100
1000
0100
0010
0010
0001
1000
,
0001
0100
0001
0100
0010
0010
1000
0001
,
1000
0100
1000
0100
0010
0010
0001
1000
,
0001
0100
0001
0100
0010
0000
1000
0010
,
1000
0000
0100
0010
0100
0000
0000
0000
,
0001
0100
0010
0100
0001
0010
0000
0000
,
1001
0000
1000
0100
0010
0100
1000
0000
,
0001
0010
0001
0010
0100
0010
0001
0000
,
1000
0100
0010
0000
0100
0010
0100
0000
,
1000
0010
1000
0010
0100
0010
1000
0001
,
0010
0100
0010
0100
0010
0100
0010
0100
,
1000
0001
0100
0001
0010
0100
1000
0010
,
1000
1000
0001
0001
0100
0010
0000
0000
,
1000
0100
0010
0100
1000
0010
0100
0010
,
1000
0001
0010
0100
1000
0000
0001
0000
,
0000
0101
1010
1100
,
0001
0100
0010
0000
1000
0100
0010
0000
,
0100
1000
0000
0001
0100
0010
0100
0000
,
0001
0010
0001
0010
0001
0010
0001
0000
,
1000
0100
1000
0000
1100
0000
1100
0000
,
0101
0000
0101
0000
0010
0100
0010
0000
,
0100
0010
0100
0000
0110
0000
0110
0000
,
1010
0000
1010
0000
0001
0010
0001
0000
,
1000
0010
1000
0000
1010
0000
1010
0000
,
0011
0000
0011
0000
1000
0001
1000
0001
,
1000
0010
0100
0000
0110
0000
0110
0000
,
0101
0000
1010
0000
2000
0000
3001
1000
,
0010
1000
0200
0300
0010
0001
0200
0300
,
0010
1000
0200
0300
1000
0100
0010
0000
,
0100
1000
0020
0030
0100
0001
0020
0030
,
0100
1000
0020
0030
1000
0001
0100
0000
,
0001
0100
2000
3000
0001
0010
2000
3000
,
0001
0010
2000
3000
0010
0001
0010
0001
,
1000
0100
0002
0003
1000
0010
0002
0003
,
1000
0100
0002
0003
0100
1000
0100
1000
,
0010
0100
0010
0000
1010
0000
0110
0000
,
1001
0010
0100
1001
,
0010
0001
0010
0000
0011
0000
0110
0000
,
1001
0100
0010
1001
,
1000
1000
0100
0000
1001
0000
0010
0000
,
1001
0100
1001
0010
,
0001
0001
1000
0000
1001
0000
0100
0000
,
1001
0010
1001
0100
,
1001
0000
0010
0100
,
1001
0000
0100
0010
,
1001
0000
0100
0010
,
1001
0000
0110
0110
,
1100
1100
0110
0110
,
0011
0101
1010
1001
,
1000
0100
1000
0100
0010
0001
0010
0001
,
0100
0010
0100
0010
0100
0010
0100
0010
,
1000
0010
1000
0000
0001
0100
1000
0000
,
1000
0100
0001
0000
0100
0000
0010
0000
,
1000
0010
0001
0000
0001
0010
1000
0000
,
0001
0100
0001
0100
0010
1000
0002
0000
,
1003
0010
1000
0100
0010
0001
0010
0001
,
1000
0100
1000
0010
0100
0001
0010
0001
,
0100
0010
1000
0010
1000
0100
1000
0100
,
0010
0001
0100
0001
1000
0010
0100
0000
,
0001
0100
0001
0010
0100
1000
0100
1000
,
0001
0010
0001
0100
0010
1000
0100
1000
,
0010
0100
0001
0100
0001
0010
0001
0010
,
0100
1000
0010
1000
0001
0000
1000
0001
,
0100
0010
0100
0000
0010
0000
1000
0000
,
0001
0000
0010
0000
0100
0010
0100
0000
,
1000
0010
1000
0000
0001
0000
0010
0000
,
0100
0010
0100
0010
0001
0001
0001
0001
,
0100
0010
0100
0000
0001
0000
1000
0000
,
0010
0000
0100
0000
0001
0010
0001
0010
,
0001
1000
0001
0000
0100
0000
0010
0000
,
1000
0000
0100
0000
0010
0001
0010
0001
,
0010
0001
0100
0000
0010
0000
0010
0000
,
1010
0000
1010
0000
0100
0010
0100
0000
,
0010
1000
0100
0000
1000
0010
1000
0010
,
0100
0001
0100
0001
0010
0100
1000
0000
,
1001
1001
0101
0110
,
1010
1100
0011
1001
,
1000
0010
1000
0010
1000
0001
0010
0001
,
0100
0000
0010
0100
0010
0000
0110
0000
,
0001
0100
0010
0100
0001
0010
0100
0010
,
0001
0010
0100
1000
0010
0100
0010
0000
,
1000
0100
0010
0100
1000
0010
0100
0010
,
1000
0100
0010
0001
0100
0010
0100
0000
,
0001
0010
0100
1000
0010
0100
0001
1000
,
0100
0010
0001
0100
0010
1000
0001
0000
,
1000
1000
0001
0001
0100
0100
0010
0010
,
1000
0100
1000
0100
0010
0001
0100
0010
,
1000
0100
1000
0100
0010
0010
0001
1000
,
0001
0100
0001
0100
0010
0010
1000
0001
,
1000
0100
1000
0100
0010
0010
0001
1000
,
0001
0100
0001
0100
0010
0010
1000
0001
,
1000
0010
1000
0010
0100
0100
0001
1000
,
0001
0010
0001
0010
0100
0100
1000
0001
,
1000
0010
1000
0010
0100
0100
0001
1000
,
0001
0010
0001
0010
0100
0100
1000
0001
,
0000
0000
0000
0000
;
#NOTES:
     dance-double:
     :
     Easy:
     10:
     :
00000000
00000000
00000000
00000000
,
00000000
00000000
00000000
00000000
,
00000000
00000000
00000000
00000000
,
00000000
00000000
00000000
00000000
,
00000000
00000000
00000000
00000000
,
00000000
00000000
00000000
00000000
,
10000000
00010000
01000000
00000000
,
00001000
00010000
00000100
00000000
,
00001000
00000001
00000100
00000000
,
00000010
00001000
00000010
00001000
,
00000001
00001000
00000100
00010000
,
00001000
00001000
00011000
00000000
,
00100000
00010000
00110000
00000000
,
10000000
00100000
10100000
00000000
,
10000000
10000000
01000000
01000000
,
00010000
00001000
00010000
00001000
,
00000010
00000010
00000001
00000001
,
00001000
00000100
00001000
00000100
,
00010000
00010000
00001000
01000000
,
00010000
10000000
00010000
00000000
,
00100000
00100000
00001000
00010000
,
00000100
00001000
00000100
00001000
,
00000000
00000001
00000010
00000001
,
00001000
00000010
00001000
00000000
,
00000100
00010000
00001000
01000000
,
00010000
01000000
00100000
10000000
,
00010000
00010000
01000000
01000000
,
00001000
00001000
00010000
00000100
,
00001000
00001000
00000010
00000010
,
00000100
00000100
00000001
00001000
,
00000001
00000001
00001000
00001000
,
00000010
00000010
00010000
00001000
,
01000000
01000000
00010000
00010000
,
10000000
10000000
00020000
20030000
,
30010000
01000000
01000000
00001000
,
00001000
00010000
00001000
00011000
,
00010000
00000010
00000010
00001000
,
00001000
00000001
00001000
00001001
,
00001000
00000010
00000010
00010000
,
00010000
00001000
00010000
00011000
,
00001000
01000000
01000000
00010000
,
00010000
10000000
00010000
10010000
,
01000000
00000000
00100000
00000000
,
01000000
00100000
01000000
00000000
,
00001000
00000000
00010000
00000000
,
00001000
00010000
00001000
00000000
,
00011000
00000000
00010100
00000000
,
00001100
00000000
00001001
00000000
,
00001100
00000000
00010100
00000000
,
00011000
00000000
01001000
00000000
,
01010000
00000000
00000000
00000000
,
10010000
00000000
00000000
00000000
,
01100000
00000000
00000000
00000000
,
00011000
00000000
00000000
00000000
,
00010000
00010000
00010000
00010000
,
00001000
00001000
00001000
00001000
,
00000010
00000100
00000010
00000100
,
00001000
00000001
00001000
00000001
,
00001000
00000000
00001000
00000000
,
00000100
00010000
00000100
00000000
,
00010000
00000000
00010000
00000000
,
00001000
01000000
00001000
01000000
,
00010000
00100000
00010000
00100000
,
01000000
10000000
01000000
10000000
,
00010000
00100000
00001000
00010000
,
00000010
00001000
00000001
00001000
,
00000001
00000100
00000001
00000100
,
00000010
00001000
00000010
00001000
,
00000100
00010000
00001000
01000000
,
00010000
10000000
00100000
00100000
,
10000000
01000000
10000000
00010000
,
00100000
00100000
00001000
00001000
,
00010000
00001000
00010000
00000010
,
00001000
00001000
00000100
00000010
,
00000001
00000100
00000001
00001000
,
00000100
00000100
00010000
00001000
,
01000000
00010000
01000000
00100000
,
10000000
10000000
00010000
10000000
,
00100000
01000000
00001000
00001000
,
00010000
00010000
00000010
00000110
,
00000001
00001000
00000001
00001000
,
00000100
00010000
00000100
00010000
,
00001000
00001000
01000000
01000000
,
00010000
00010000
10000000
10000000
,
01000000
00100000
01000000
00100000
,
00010000
00100000
00001000
00011000
,
00010000
00000100
00010000
00001000
,
01000000
00001000
00010000
00001000
,
00010000
00000010
00010000
00001000
,
00100000
00001000
00010000
00001000
,
01000000
00010000
10000000
01000000
,
00100000
00010000
00001000
00000100
,
00000010
00000001
00001000
00000001
,
00001000
00000100
00001000
00000000
,
00000001
00001000
00000010
00000000
,
00010000
00001000
00100000
00000000
,
00010000
10000000
00100000
00000000
,
01000000
00010000
00100000
00000000
,
00001000
00010000
00000010
00000000
,
00001000
00000100
00000010
00000000
,
00000001
00001000
00000100
00000000
,
00010000
00001000
00010000
00001000
,
00000000
00000000
00000000
00000000
;
#NOTES:
     dance-double:
     :
     Medium:
     13:
     :
00000000
00000000
00000000
00000000
,
00000000
00000000
00000000
00000000
,
00000000
00000000
00000000
00000000
,
00000000
00000000
00000000
00000000
,
00000000
00000000
00000000
00000000
,
00000000
00000000
00000000
00000000
,
00010000
00000000
00001000
00000000
01000000
00010000
01000000
00000000
,
00010000
00000000
10000000
00000000
01000000
00100000
01000000
00000000
,
10000000
00000000
00010000
00000000
00100000
00001000
00100000
00000000
,
00001000
00000000
00010000
00000000
00000100
00010000
00000100
00000000
,
00001000
00000001
00000010
00000100
,
00001000
00000000
00000010
00001000
00000010
00000000
00000000
00000000
,
00001000
00000000
00000100
00000000
00010000
00001000
00000000
00000000
,
01000000
00000000
00100000
01000000
00100000
00000000
00000000
00000000
,
10000000
01000000
00100000
00010000
,
00100000
00001000
00010000
00000000
00000010
00000000
00001000
00000000
,
00000001
00000010
00000100
00001000
,
00000100
00010000
00001000
00010000
00001000
00000000
00010000
00000000
,
00001000
00001000
01000000
00010000
,
10000000
00000000
01000000
00000000
00100000
00010000
00100000
00000000
,
00001000
00010000
00001000
00000000
00010000
00000010
00010000
00000000
,
00000100
00001000
00000001
00001000
,
00000000
00000100
00010000
00011000
,
00001000
00000000
00100000
00000000
01000000
00100000
01000000
00000000
,
10000000
00010000
00100000
00000000
00001000
00000000
00010000
00000000
,
00000100
00000010
00000100
00000000
00001000
00000001
00001000
00000000
,
00000001
00000100
00000001
00000000
00001000
00000000
00001000
00000000
,
00000100
00000000
00000100
00000000
00010000
00001000
00010000
00000000
,
00001000
01000000
00001000
00000000
00100000
00000000
00100000
00000000
,
00010000
00010000
10010000
01100000
,
10000000
00100000
10000000
00000000
00010000
00000000
00010000
00000000
,
00100000
00000000
00100000
00000000
00001000
00010000
00001000
00000000
,
00010000
00000010
00010000
00000000
00000100
00000000
00000100
00000000
,
00001000
00001000
00000002
00000203
,
00000310
00001000
00000010
00000000
00010000
00001000
00010000
00000000
,
00001000
00100000
00001000
00000000
00100000
00000000
00010000
00000000
,
10000000
01000000
10000000
00000000
00010000
00100000
00010000
00000000
,
01000000
00001000
01000000
00000000
00001000
00000000
00010000
00000000
,
00000010
00010000
00000010
00000000
00001000
00000010
00001000
00000000
,
00000001
00001000
00000001
00000000
00000010
00000000
00000100
00000000
,
00010000
00001000
00010000
00000000
00001000
01000000
00001000
00000000
,
01000000
00010000
01000000
00000000
00100000
01000000
00100000
00000000
,
01000000
00001000
00010000
00000000
00000010
00000000
00001000
00000000
,
00000001
00000100
00000110
00000000
,
00000001
00001000
00000100
00000000
00010000
00000000
00001000
00000000
,
00100000
00010000
10010000
00000000
,
10000000
00010000
01010000
01000000
,
00001000
00010000
00001000
00010000
,
00000100
00001000
00001001
00000001
,
00000100
00000010
00000100
00000010
,
00001010
00000000
00010000
00001000
,
00011000
00000000
01000000
00000000
,
01100000
00000000
10000000
00010000
,
10010000
00000000
00010000
00000000
,
00100000
00100000
00100000
00100000
,
00001000
00001000
00001000
00001000
,
00010000
00000100
00010000
00000100
00001000
00000100
00001000
00000100
,
00000010
00000001
00000010
00000001
00001000
00000001
00001000
00000001
,
00001000
00000100
00001000
00000000
00000100
00000000
00000100
00000000
,
00010000
00000000
00010000
00000000
00001000
00010000
00001000
00000000
,
01000000
00010000
01000000
00000000
00010000
00000000
00010000
00000000
,
10000000
01000000
10000000
01000000
00100000
00010000
00200000
00000000
,
00301000
00010000
00001000
00000100
,
00000001
00000010
00000001
00000100
,
00000001
00000010
00001000
00010000
,
00001000
00000000
00010000
00000000
01000000
00100000
01000000
00000000
,
00100000
00010000
00100000
00010000
00100000
00000000
00001000
00000000
,
01000000
00010000
01000000
00000000
00100000
10000000
00100000
00000000
,
10000000
01000000
00010000
00001000
,
00000100
00000010
00000100
00000010
00000100
00000000
00000001
00000000
,
00001000
00000001
00001000
00000000
00000010
00000000
00000010
00000000
,
00000100
00000000
00000100
00000000
00001000
00010000
00001000
00000000
,
01000000
00100000
01000000
00000000
00010000
00000000
00010000
00000000
,
10000000
00000000
10000000
00000000
00100000
01000000
00100000
00000000
,
10000000
00010000
10000000
00000000
01000000
00000000
01000000
00000000
,
00100000
00000000
00100000
00000000
00010000
00100000
00010000
00000000
,
01000000
00100000
01000000
00000000
00001000
00000000
00001000
00000000
,
00010000
00000000
00010000
00000000
00000010
00000100
00000010
00000000
,
00001000
00000100
00000010
00000000
00000001
00000000
00000001
00000000
,
00001000
00000000
00001000
00000000
00000100
00010000
00001000
00000000
,
00100000
00010000
10000000
00000000
01000000
00100000
00010000
00000000
,
00100000
00001000
00010000
00000000
00000010
00001000
00000001
00000000
,
00000100
00000100
00001000
00001000
,
00010000
00100000
10000000
10010000
,
00010000
01000000
00010000
00000000
00100000
00001000
00100000
00001000
,
00010000
00000100
00001000
00001001
,
00000001
00000100
00000001
00000000
00001000
00000100
00001000
00000000
,
00000100
00010000
00000100
00000000
00010000
00001000
00010000
00000000
,
00001000
01000000
00001000
00000000
01000000
00010000
01000000
00000000
,
00010000
00100000
00010000
00000000
10000000
00100000
10000000
00000000
,
00100000
10000000
01000000
00000000
00100000
00010000
01000000
00000000
,
00001000
00010000
00000100
00000000
00001000
00000010
00000100
00000000
,
00000110
00000110
00001001
00001001
,
00000100
00000010
00000100
00000010
00000100
00000000
00000110
00000000
,
00010000
00000000
00001000
00000000
00100000
00010000
00100000
00000000
,
00010000
00000000
10000000
00000000
00100000
01000000
00100000
00000000
,
10000000
00000000
00010000
00000000
01000000
00001000
01000000
00000000
,
00001000
00000000
00010000
00000000
00000010
00010000
00000010
00000000
,
00001000
00000000
00000001
00000000
00000010
00000100
00000010
00000000
,
00000100
00000000
00010000
00000000
00001000
00010000
00001000
00000000
,
01000000
00000000
00100000
00000000
10000000
01000000
10000000
00000000
,
00010000
00000000
00100000
00000000
00001000
00010000
00001000
00000000
,
00000000
00000000
00000000
00000000
;
#NOTES:
     dance-double:
     :
     Hard:
     14:
     :
00000000
00000000
00000000
00000000
,
00000000
00000000
00000000
00000000
,
00000000
00000000
00000000
00000000
,
00000000
00000000
00000000
00000000
,
00000000
00000000
00000000
00000000
,
00000000
00000000
00000000
00000000
,
10000000
00010000
10000000
00010000
01000000
01000000
00001000
00000000
,
00010000
00000100
00010000
00000100
00001000
00001000
00000001
00000000
,
00001000
00000001
00001000
00000001
00000100
00000100
00000010
00000000
,
00010000
00001000
00010000
00001000
00100000
00100000
00010000
00000000
,
10000000
00100000
10000000
00100000
01000000
00000000
00010000
00000000
,
00100000
00000000
00001000
00010000
00001000
00000000
00000000
00000000
,
00010000
00000100
00010000
00001000
01000000
00001000
00000000
00000000
,
00010000
00000000
00000010
00001000
00000100
00000010
00000001
00000000
,
00001000
00000010
00001000
00000010
00010000
00001000
00010000
00000000
,
00001000
00100000
00001000
00000000
00100000
00010000
00100000
00000000
,
01000000
10000000
01000000
10000000
00010000
00100000
00001000
00010000
,
00000010
00001000
00000010
00001000
00000001
00000100
00000001
00000100
,
00000001
00000010
00000100
00001000
00000100
00010000
00001000
00000000
,
01000000
01000000
00010000
00010000
10000000
00010000
00000000
00000000
,
10000000
01000000
00010000
00001000
00000010
00000001
00001000
00000001
,
00000010
00000100
00001000
00000100
00010000
00000000
00001000
00000000
,
00000000
00110000
01100000
11000000
,
00010000
01000000
00001000
00000000
00010000
00000100
00001000
00000000
,
00000001
00000100
00000000
00001000
00010000
00100000
10000000
00000000
,
00010000
00100000
00010000
00100000
00001000
00010000
00001000
00000000
,
00010000
00000100
00010000
00000000
00001100
00000000
00001100
00000000
,
00000101
00000000
00000101
00000000
00000010
00000100
00000010
00000000
,
00001000
00000100
00001000
00000000
00010100
00000000
00010100
00000000
,
00011000
00000000
00011000
00000000
00001000
01000000
00001000
00000000
,
01000000
00010000
01000000
00000000
01010000
00000000
01010000
00000000
,
11000000
00000000
11000000
00000000
00010000
10000000
00010000
10000000
,
00010000
00100000
00001000
00000000
00011000
00000000
00011000
00000000
,
00010010
00000000
00001010
00000000
00002000
00000000
00003001
00000010
,
00000100
00001000
00000200
00000300
00010000
00001000
00020000
00030000
,
00001000
00100000
00002000
00003000
01000000
00010000
10000000
00000000
,
00100000
01000000
00200000
00300000
01000000
00010000
02000000
03000000
,
00001000
00010000
00002000
00003000
00010000
00000100
00001000
00000000
,
00000001
00000100
00002000
00003000
00010000
00100000
20000000
30000000
,
00010000
01000000
20000000
30000000
01000000
00100000
01000000
00100000
,
10000000
01000000
00020000
00030000
00001000
00000010
00000002
00000003
,
00001000
00000100
00000002
00000003
00000100
00000010
00000100
00000010
,
00000001
00001000
00000001
00000000
00000100
00000000
00000010
00000000
,
00001000
00000100
00010000
00011000
,
00001000
00100000
00001000
00000000
01000000
00000000
00010000
00000000
,
10000000
01000000
00100000
01100000
,
10000000
10000000
01000000
00000000
10010000
00000000
00010000
00000000
,
10000000
01000000
00010000
00001000
,
00010000
00010000
00001000
00000000
00011000
00000000
00010000
00000000
,
00001000
00000100
00000001
00001000
,
00001001
00000000
00000010
00000100
,
00000110
00000000
00010000
00001000
,
00011000
00000000
01000000
00100000
,
10010000
00000000
01010000
01010000
,
01001000
01001000
00011000
00011000
,
00010100
00010100
00001100
00001001
,
00000001
00000100
00000001
00000100
00000010
00001000
00000010
00001000
,
00000100
00010000
00000100
00010000
00001000
00010000
00001000
00010000
,
00001000
00100000
00001000
00000000
00100000
00010000
01000000
00000000
,
00100000
10000000
01000000
00000000
10000000
00000000
00010000
00000000
,
10000000
01000000
00010000
00000000
00001000
00000100
00000001
00000000
,
00001000
00000100
00001000
00000100
00010000
00001000
02000000
00000000
,
03010000
10000000
00100000
00000000
10000000
01000000
00100000
00000000
,
00010000
01000000
00001000
00010000
00000100
00001000
00000001
00000000
,
00000010
00000100
00001000
00000000
00000001
00000100
00000010
00000000
,
00001000
00000100
00010000
00001000
01000000
00010000
10000000
00000000
,
00010000
00100000
00010000
00000000
00100000
00001000
00100000
00000000
,
00001000
00010000
00000010
00001000
00000010
00000100
00000001
00000000
,
00001000
00000100
00001000
00000000
00000100
00010000
00000100
00000000
,
00010000
00001000
00100000
00010000
01000000
00000000
00010000
00000000
,
10000000
00100000
10000000
00000000
01000000
00000000
00010000
00000000
,
00001000
00000000
00000010
00000000
00000100
00000010
00000100
00000000
,
00000010
00000001
00000010
00000000
00000001
00000000
00001000
00000000
,
00000100
00010000
00000100
00010000
00001000
00001000
00001000
00001000
,
00100000
00010000
00100000
00000000
00010000
00000000
10000000
00000000
,
00100000
00000000
01000000
00000000
00001000
00010000
00001000
00010000
,
00000010
00001000
00000010
00000000
00001000
00000000
00000001
00000000
,
00000100
00000000
00001000
00000000
00010000
00001000
00010000
00000000
,
00001000
00100000
00010000
00000000
10000000
00000000
10000000
00000000
,
10100000
00000000
10100000
00000000
00100000
01000000
00100000
00000000
,
01000000
00010000
00100000
00000000
00001000
00010000
00001000
00000000
,
00010000
00000100
00010000
00000100
00001000
00000001
00000010
00000000
,
00000110
00000110
00001100
00010100
,
00011000
01001000
01010000
10010000
,
10000000
00100000
10000000
00100000
10000000
00010000
00100000
00001000
,
00010000
00000000
00000100
00000010
00000100
00000000
00000110
00000000
,
00000001
00000100
00000010
00000100
00000010
00001000
00000100
00000000
,
00010000
00001000
01000000
00001000
01000000
00010000
00100000
00000000
,
00010000
00100000
01000000
10000000
00100000
01000000
00100000
00000000
,
10000000
01000000
00100000
01000000
00100000
00010000
01000000
00000000
,
00001000
00010000
00000010
00001000
00000001
00000010
00000100
00001000
,
00000010
00010000
00001000
00100000
00010000
10000000
01000000
00000000
,
10000000
10000000
00010000
00010000
00100000
00100000
00001000
00001000
,
00010000
00001000
00010000
00001000
00000100
00000010
00000100
00000000
,
00000001
00001000
00000001
00001000
00000010
00000010
00010000
00000000
,
00001000
00100000
00001000
00100000
00010000
00010000
10000000
00000000
,
00010000
10000000
00010000
10000000
00100000
00100000
01000000
00000000
,
00001000
00010000
00001000
00010000
00000100
00000100
00001000
00000000
,
00000001
00001000
00000001
00001000
00000100
00000100
00010000
00000000
,
00001000
01000000
00001000
01000000
00010000
00010000
10000000
00000000
,
00010000
10000000
00010000
10000000
01000000
01000000
00100000
00000000
,
00001000
00010000
00001000
00010000
00000010
00000010
00001000
00000000
,
00000000
00000000
00000000
00000000
;
