
//----- song ID: muan -----//
#TITLE:Musician;
#ARTIST:Porter Robinson;
#BANNER:Musician.png;
#BACKGROUND:Musician-bg.png;
#CDTITLE:./CDTitles/DDR A3.png;
#MUSIC:Musician.ogg;
#SAMPLESTART:69.251;
#SAMPLELENGTH:15;
#BPMS:0=120;
#NOTES:
     dance-single:
     :
     Beginner:
     1:
     :
0000
0000
0000
0000
,
0000
0000
0000
0000
,
0000
0000
0000
0000
,
1000
0000
0000
0000
,
1000
0000
0000
0000
,
0001
0000
0000
0000
,
0001
0000
0000
0000
,
0100
0000
0000
0000
,
0100
0000
0000
0000
,
0010
0000
0000
0000
,
0010
0000
0000
0000
,
0001
0000
0000
0000
,
0001
0000
0000
0000
,
1000
0000
0000
0000
,
1000
0000
0000
0000
,
0010
0000
0000
0000
,
0010
0000
0000
0000
,
0100
0000
0000
0000
,
0100
0000
0000
0000
,
0010
0000
0000
0000
,
0010
0000
0000
0000
,
1000
0000
0000
0000
,
1000
0000
0000
0000
,
0001
0000
0000
0000
,
0001
0000
0000
0000
,
0100
0000
0000
0000
,
0100
0000
0000
0000
,
0110
0000
0000
0000
,
0000
0000
0000
0000
,
1000
0000
0000
0000
,
0000
0000
0000
0000
,
0001
0000
0000
0000
,
0000
0000
0000
0000
,
0100
0000
0000
0000
,
0010
0000
0000
0000
,
0100
0000
0100
0000
,
0100
0000
0000
0000
,
0001
0000
0001
0000
,
0001
0000
0000
0000
,
1000
0000
0000
0000
,
1000
0000
0000
0000
,
0010
0000
0000
0000
,
0010
0000
0000
0000
,
0010
0000
0010
0000
,
0010
0000
0000
0000
,
1000
0000
1000
0000
,
1000
0000
0000
0000
,
0001
0000
0000
0000
,
0001
0000
0000
0000
,
0100
0000
0000
0000
,
0100
0000
0000
0000
,
1000
0000
0000
0000
,
1000
0000
0000
0000
,
0100
0000
0000
0000
,
0100
0000
0000
0000
,
0000
0000
0000
0000
;
#NOTES:
     dance-single:
     :
     Easy:
     3:
     :
0000
0000
0000
0000
,
0000
0000
0000
0000
,
0000
0000
0000
0000
,
1000
0000
1000
0000
,
0100
0000
0100
0000
,
0010
0000
0010
0000
,
0001
0000
0001
0000
,
0100
0000
0100
0000
,
0010
0000
0010
0000
,
1000
0000
1000
0000
,
0010
0000
0000
0000
,
0001
0000
0001
0000
,
0010
0000
0010
0000
,
0100
0000
0100
0000
,
1000
0000
1000
0000
,
0010
0000
0010
0000
,
0100
0000
0100
0000
,
0001
0000
0001
0000
,
0100
0000
0100
0000
,
1000
0000
0100
0000
,
1000
0000
0100
0000
,
0100
0000
0010
0000
,
0100
0000
0010
0000
,
0001
0000
0100
0000
,
0001
0000
0100
0000
,
0100
0000
0010
0000
,
0100
0000
0000
0000
,
0002
0000
0003
0000
,
0020
0000
0030
0000
,
0200
0000
0300
0000
,
1000
0000
0010
0000
,
2000
0000
3000
0000
,
0020
0000
0030
0000
,
0200
0000
0300
0000
,
0001
0000
1000
0000
,
0001
0010
0001
0000
,
0010
0000
0100
0000
,
1000
0010
1000
0000
,
0010
0000
0100
0000
,
0001
0010
0100
0000
,
0010
0000
0100
0000
,
1000
0010
0100
0000
,
0010
0100
0001
0000
,
1000
0010
1000
0000
,
0010
0000
0100
0000
,
0001
0010
0001
0000
,
0010
0000
0100
0000
,
1000
0010
0100
0000
,
0010
0100
0001
0000
,
0001
0000
1000
0000
,
0010
0000
0100
0000
,
0001
0000
0010
0000
,
0100
0000
1000
0000
,
0002
0003
2000
3000
,
0002
0000
0000
0000
,
0003
0000
0000
0000
,
0000
0000
0000
0000
;
#NOTES:
     dance-single:
     :
     Medium:
     8:
     :
0000
0000
0000
0000
,
0000
0000
0000
0000
,
0001
0000
0010
0000
0100
1000
0100
0000
,
1000
0000
0010
0000
0100
0001
0100
0000
,
0001
0000
0100
0000
0010
0000
1000
0010
,
1000
0000
0100
0000
0010
0100
0010
0000
,
0001
0000
0010
0000
0100
0010
0001
0010
,
0001
0000
0010
0000
0100
1000
0100
0000
,
1000
0000
0100
0000
0010
0000
0001
0010
,
0001
0000
0100
0000
0010
0100
0010
0000
,
1001
1000
0001
0100
,
0001
0010
0100
0000
0010
0000
0100
0200
,
0000
0300
1000
0010
,
1000
0010
0100
0000
0010
0000
0100
0001
,
0000
1000
0010
0000
1000
0000
0100
0010
,
0000
0001
0000
0000
1000
0100
0001
0100
,
0000
1000
0000
0000
0001
0000
1000
0000
,
1000
0001
0100
0020
0000
2030
0000
3200
,
0000
0000
0300
0000
1000
0001
0100
0000
,
0001
0010
0001
0000
0100
0000
0010
0000
,
1000
0100
1000
0000
0100
0000
0010
0000
,
0001
0100
0001
0000
0100
0000
0010
0100
,
0000
0001
0010
0000
0001
0000
0100
0010
,
0000
1000
0000
0000
0001
0100
1000
0100
,
0000
0001
0000
0000
1000
0000
0001
0000
,
0001
1000
0100
0020
0000
0032
0000
0203
,
0000
0000
0300
0000
0000
0100
0010
0000
,
2000
0000
0000
3020
0000
0230
0000
0302
,
0000
0000
0003
0000
1000
0010
0000
0100
,
0000
0001
0000
0000
0100
0001
0100
0001
,
0000
0010
0000
0000
0100
0000
0010
0000
,
0002
0000
0000
0023
0000
0230
0000
2300
,
0000
0000
0000
3000
0001
0010
0100
0000
,
1000
0100
0010
0001
,
0100
0010
0100
0010
0100
0000
1001
0000
,
0001
0100
0010
0000
0100
0000
0010
0000
,
1000
0001
0100
0000
0001
0100
0010
0000
,
1000
0100
0010
0000
0100
0000
0010
0000
,
0001
1000
0100
0000
1000
0100
0010
0000
,
0001
0010
0001
0000
0100
0000
0010
1000
,
0010
0000
0100
0000
0001
0100
1000
0100
,
0001
0010
0100
1000
,
2002
0000
3003
0001
,
1000
0100
0010
0000
0100
0000
0010
0000
,
0001
1000
0100
0000
1000
0100
0010
0000
,
0001
0100
0010
0000
0100
0000
0010
0000
,
1000
0001
0100
0000
0001
0100
0010
0000
,
1000
0010
1000
0000
0100
0000
0010
0001
,
0010
0000
0100
0000
1000
0100
0001
0100
,
0000
1000
0000
0100
0000
0010
0000
0002
,
0000
0000
0023
0000
,
0032
0000
0000
0203
0000
0000
0000
0301
,
0000
1000
0010
0000
0100
0000
0001
0000
,
2000
0000
0000
3200
0000
0000
0000
0320
,
0000
0000
0030
0000
,
0000
0000
0000
0000
;
#NOTES:
     dance-single:
     :
     Hard:
     12:
     :
0000
0000
0000
0000
,
0000
0000
0000
0000
,
0010
0100
0010
0100
1001
1001
0000
0000
,
1000
0000
0000
1000
0000
0000
0100
0000
0010
0000
0000
0001
0000
0000
0100
0000
,
0001
0000
0000
0010
0000
0000
0001
0000
0100
0000
0000
0001
0010
0100
1000
0000
,
0001
0000
0000
0001
0000
0000
0100
0000
0010
0000
0000
1000
0000
0000
0010
0000
,
0100
0000
0000
0001
0000
0000
0100
0000
0010
0000
0000
1000
0000
0000
0001
0000
,
1000
0000
0000
1000
0000
0000
0001
0000
0010
0000
0000
0100
0000
0000
1000
0000
,
0001
0000
0000
1000
0000
0000
0100
0000
0010
0000
0000
0001
0010
0100
1000
0000
,
0001
0000
0000
0001
0000
0000
0100
0000
0010
0000
0000
1000
0000
0000
0100
0000
,
0110
0000
0000
0000
1000
0000
0010
0000
0100
0010
0000
0100
0000
0001
0000
1001
,
0000
0200
0000
0300
0001
0100
0010
0200
,
0000
0000
0000
0000
0000
0000
0301
0000
1000
0010
0000
0100
0000
0001
0000
1001
,
0000
0000
0001
0100
0010
0200
0000
0301
,
0000
0000
1000
0000
0100
0000
0010
0000
0001
0000
0000
0011
0000
0000
0110
0000
,
0000
1100
0000
0001
0010
0001
0000
0011
,
0000
0110
0000
1000
0100
0001
0100
1000
,
0000
0001
0100
0002
0000
2003
0000
3010
,
0100
0000
0000
0001
0000
0000
0001
0000
1000
0010
0000
0100
0000
0001
0000
1001
,
0000
0002
0000
0000
1003
0001
0010
0100
,
0000
0000
1001
0000
0000
0000
1000
0000
0001
0100
0000
0010
0000
0100
0000
2002
,
0000
0000
3003
0002
0000
0000
0103
0001
,
0000
0000
0001
0000
0100
0000
0010
0000
1000
0000
0000
1010
0000
0000
0110
0000
,
0000
0101
0000
0001
0100
0010
0100
0110
,
0000
0000
1001
0000
0000
0000
0001
0000
1000
0000
0001
0010
0000
0100
2000
0000
,
0000
3010
0100
0010
1000
0200
0000
1300
,
0010
0000
0000
1000
0000
0000
0100
0000
0001
0000
0100
0000
1000
0000
0000
0000
,
0220
0000
0330
2000
0000
3020
0000
0230
,
0000
0000
0000
0310
1000
0010
0000
0110
,
0000
0001
0000
1000
0100
0001
0100
1000
,
0000
0010
0000
0001
0010
0000
1001
0000
,
0220
0000
0330
2000
0000
3002
0000
2003
,
0000
0000
0000
3100
0001
0100
1000
0002
,
0000
0000
0003
1010
0000
0110
0000
0001
,
1000
0000
0010
0000
1000
0000
0010
0000
0100
0000
0001
0010
0100
0000
0000
0000
,
1000
0100
0010
0000
0002
0000
0100
0000
0000
0000
1003
0000
0100
0000
0020
0000
,
0000
0030
0001
0010
0100
0000
0010
0000
0011
0000
0000
0000
1100
0000
0000
0000
,
0001
0100
0010
0000
2000
0000
0010
0000
0000
0000
3001
0000
0100
0000
0020
0000
,
0000
0030
1000
0010
1000
0000
0010
0000
1010
0000
0000
0000
0101
0000
0000
0000
,
0002
0103
0020
1030
0200
0000
1300
0010
,
0001
0000
0010
0000
1000
0000
0001
0000
1000
0010
0100
0000
0001
0000
1001
0000
,
0000
1000
0100
0010
0001
1000
0010
0110
,
0000
0000
0001
0000
1000
0000
0001
0000
0100
0000
0001
1000
0010
0000
1000
0000
,
0001
0010
0100
0000
2000
0000
0010
0000
0000
0000
3001
0000
0010
0000
0200
0000
,
0000
0300
1000
0100
0010
0000
0100
0000
1100
0000
0000
0000
0011
0000
0000
0000
,
1000
0010
0100
0000
0002
0000
0100
0000
0000
0000
1003
0000
0010
0000
0200
0000
,
0000
0300
0001
0100
0001
0000
0100
0000
0101
0000
0000
0000
1010
0000
0000
0000
,
0001
0100
0010
0000
0100
0000
0001
0000
0020
0000
0000
0000
0031
0000
0100
0000
,
1000
0000
0100
0000
0001
0000
1000
0000
0001
0100
0010
0000
1000
0000
1001
0000
,
0000
0110
0000
1100
0000
0011
0000
0220
,
0000
0000
0000
0330
2002
0000
3003
0000
,
0002
0000
0000
0203
0000
0000
0000
0301
,
0000
1000
0010
0100
0010
0000
1000
0000
,
0002
0000
0000
0203
0000
0000
0000
0320
,
0000
0000
0030
0000
,
0000
0000
0000
0000
;
#NOTES:
     dance-double:
     :
     Easy:
     3:
     :
00000000
00000000
00000000
00000000
,
00000000
00000000
00000000
00000000
,
00000000
00000000
00000000
00000000
,
00010000
00000000
01000000
00000000
,
00010000
00000000
00100000
00000000
,
00001000
00000000
00010000
00000000
,
00000010
00000000
00001000
00000000
,
00000001
00000000
00001000
00000000
,
00000100
00000000
00010000
00000000
,
00001000
00000000
00100000
00000000
,
00010000
00000000
00000000
00000000
,
00010000
00000000
01000000
00000000
,
00100000
00000000
10000000
00000000
,
01000000
00000000
00100000
00000000
,
00010000
00000000
00100000
00000000
,
00001000
00000000
00010000
00000000
,
00000010
00000000
00001000
00000000
,
00000001
00000000
00000100
00000000
,
00000010
00000000
00000100
00000000
,
00000010
00000000
00001000
00000000
,
00000100
00000000
00010000
00000000
,
00001000
00000000
00100000
00000000
,
00010000
00000000
01000000
00000000
,
00010000
00000000
10000000
00000000
,
00100000
00000000
01000000
00000000
,
00010000
00000000
00100000
00000000
,
00001000
00000000
00000000
00000000
,
00020000
00000000
00030000
00000000
,
00000020
00000000
00000030
00000000
,
00002000
00000000
00003000
00000000
,
00000001
00000000
00001000
00000000
,
00000200
00000000
00000300
00000000
,
00020000
00000000
00030000
00000000
,
00002000
00000000
00003000
00000000
,
01000000
00000000
00010000
00000000
,
10000000
00100000
10000000
00000000
,
01000000
00000000
00100000
00000000
,
00010000
00100000
00010000
00000000
,
00100000
00000000
00001000
00000000
,
00010000
00001000
00010000
00000000
,
00000100
00000000
00001000
00000000
,
00000100
00001000
00000100
00000000
,
00000010
00000000
00000001
00000000
,
00000100
00000001
00000100
00000000
,
00000010
00000000
00001000
00000000
,
00000100
00001000
00000100
00000000
,
00010000
00000000
00001000
00000000
,
00100000
00010000
00100000
00000000
,
00010000
00000000
01000000
00000000
,
00100000
00000000
10000000
00000000
,
01000000
00000000
00100000
00000000
,
00010000
00000000
00100000
00000000
,
00001000
00000000
00010000
00000000
,
00000200
00000300
00002000
00003000
,
00000020
00000000
00000000
00000000
,
00000030
00000000
00000000
00000000
,
00000000
00000000
00000000
00000000
;
#NOTES:
     dance-double:
     :
     Medium:
     8:
     :
00000000
00000000
00000000
00000000
,
00000000
00000000
00000000
00000000
,
00100000
00000000
01000000
00000000
00100000
01000000
00100000
00000000
,
10000000
00000000
01000000
00000000
00100000
00010000
00100000
00000000
,
00001000
00000000
00010000
00000000
00000010
00001000
00000001
00000100
,
00000010
00000000
00001000
00000000
00000100
00010000
00001000
00000000
,
00100000
00000000
00001000
00000000
00010000
00100000
10000000
00100000
,
10000000
00000000
00100000
00000000
01000000
00010000
01000000
00000000
,
00001000
00000000
00010000
00000000
00000100
00001000
00000001
00000010
,
00000100
00000000
00001000
00000000
00000010
00010000
00001000
00000000
,
00011000
00001000
00100000
00010000
,
00010000
01000000
00100000
00000000
01000000
00000000
10000000
02000000
,
00000000
03000000
00100000
10000000
,
01000000
00010000
00001000
00000000
00000010
00000000
00000001
00000100
,
00000000
00000010
00001000
00000000
00000100
00000000
00010000
00001000
,
00000000
01000000
00000000
00000000
00010000
01000000
10000000
01000000
,
00000000
00100000
00000000
00000000
10000000
00000000
01000000
00000000
,
00010000
00001000
00000010
00000002
00000000
00002003
00000000
00003200
,
00000000
00000000
00000300
00000000
00000001
00001000
00000100
00000000
,
00001000
00000100
00000010
00000000
00000100
00000000
00000001
00000200
,
00000000
00000300
00000010
00000001
,
00000100
00001000
00010000
00000000
00100000
00000000
10000000
01000000
,
00000000
00100000
00010000
00000000
01000000
00000000
00001000
00010000
,
00000000
00000100
00000000
00000000
00001000
00000100
00000001
00000100
,
00000000
00000010
00000000
00000000
00000001
00000000
00000100
00000000
,
00001000
00010000
00100000
20000000
00000000
30020000
00000000
02030000
,
00000000
00000000
03000000
00000000
00000000
00100000
01000000
00000000
,
20000000
00000000
00000000
30200000
00000000
02300000
00000000
03020000
,
00000000
00000000
00030000
00000000
01000000
00001000
00000000
00010000
,
00000000
00000100
00000000
00000000
00001000
00000100
00000010
00000001
,
00000000
00000010
00000000
00000000
00000100
00000000
00000010
00000000
,
00000002
00000000
00000000
00000203
00000000
00000320
00000000
00002030
,
00000000
00000000
00003000
00000000
00000010
00010000
00001000
00000000
,
00100000
00010000
01000000
10000000
,
01000000
01000000
00100000
00100000
01000000
00000000
10010000
00000000
,
00010000
01000000
00100000
00000000
01000000
00000000
00010000
00000000
,
10000000
01000000
00010000
00000000
00001000
00000010
00000001
00000000
,
00001000
00000010
00000100
00000000
00000010
00000000
00001000
00000000
,
00000001
00000010
00001000
00000000
00010000
01000000
10000000
00000000
,
00010000
01000000
00010000
00000000
00100000
00000000
00001000
00010000
,
00000100
00000000
00001000
00000000
00000010
00000100
00000001
00000100
,
00001000
00010000
00100000
10000000
,
00200000
00000000
00300000
01000000
,
00010000
00100000
01000000
00000000
00100000
00000000
00010000
00000000
,
10000000
00100000
00010000
00000000
00001000
00000100
00000001
00000000
,
00001000
00000100
00000010
00000000
00000100
00000000
00001000
00000000
,
00000001
00000100
00001000
00000000
00010000
00100000
10000000
00000000
,
00010000
00100000
00010000
00000000
01000000
00000000
00001000
00010000
,
00000010
00000000
00001000
00000000
00000100
00000010
00000001
00000010
,
00000000
00001000
00000000
00010000
00000000
01000000
00000000
20000000
,
00000000
00000000
30200000
00000000
,
02300000
00000000
00000000
03020000
00000000
00000000
00000000
00130000
,
00000000
00001000
00010000
00000000
00000100
00000000
00001000
00000000
,
00000002
00000000
00000000
00000203
00000000
00000000
00000000
00000320
,
00000000
00000000
00000030
00000000
,
00000000
00000000
00000000
00000000
;
#NOTES:
     dance-double:
     :
     Hard:
     12:
     :
00000000
00000000
00000000
00000000
,
00000000
00000000
00000000
00000000
,
00100000
00100000
01000000
01000000
01100000
01100000
00000000
00000000
,
10000000
00000000
00000000
00100000
00000000
00000000
01000000
00000000
00010000
00000000
00000000
00100000
00000000
00000000
00001000
00000000
,
00010000
00000000
00000000
00000010
00000000
00000000
00001000
00000000
00000100
00000000
00000000
00001000
00000010
00000100
00000001
00000000
,
00000001
00000000
00000000
00000010
00000000
00000000
00000100
00000000
00001000
00000000
00000000
00000010
00000000
00000000
00010000
00000000
,
00001000
00000000
00000000
00100000
00000000
00000000
00010000
00000000
01000000
00000000
00000000
00100000
00000000
00000000
10000000
00000000
,
01000000
00000000
00000000
10000000
00000000
00000000
00100000
00000000
01000000
00000000
00000000
00010000
00000000
00000000
00100000
00000000
,
00001000
00000000
00000000
00010000
00000000
00000000
00000100
00000000
00001000
00000000
00000000
00000001
00000010
00000100
00001000
00000000
,
00000001
00000000
00000000
00000010
00000000
00000000
00000100
00000000
00001000
00000000
00000000
00000100
00000000
00000000
00010000
00000000
,
00011000
00000000
00000000
00000000
00001000
00000000
00010000
00000000
00000100
00010000
00000000
00001000
00000000
00100000
00000000
00010000
,
00000000
20000000
00000000
30000000
10000000
01000000
00100000
00020000
,
00000000
00000000
00000000
00000000
00130000
00000000
00001000
00000000
00010000
00001000
00000000
00010000
00000000
00000100
00000000
00002000
,
00000000
00003000
00000001
00000100
00000010
00002000
00000000
00003002
,
00000000
00000103
00000010
00001000
00000100
00010000
00001000
02000000
,
00000000
03010000
00000000
10000000
00100000
00010000
00100000
20000000
,
00000000
30010000
00000000
00010000
00100000
00001000
00010000
00000100
,
00000000
00001000
00000100
00000020
00000000
00000032
00000000
00000103
,
00000010
00000000
00000000
00000100
00000000
00000000
00000001
00000000
00000100
00000010
00000000
00001000
00000000
00000001
00000000
00000010
,
00000000
00000002
00000000
00000003
00000001
00000100
00000010
00002000
,
00000000
00000000
00003100
00000000
00000000
00000000
00010000
00000000
00001000
00100000
00000000
00010000
00000000
01000000
00000000
00020000
,
00000000
00000000
00000000
02030000
00000000
00000000
03100000
20000000
,
00000000
31000000
00100000
00010000
00100000
00001000
00010000
00000200
,
00000000
00001300
00000000
00000001
00000010
00001000
00000010
00000002
,
00000000
00000000
00001003
00000000
00000000
00000000
00000001
00000000
00001000
00000000
00000100
00010000
00000000
00001000
00100000
00000000
,
00000000
00010000
01000000
00020000
00000000
20030000
00000000
31000000
,
00100000
00000000
00000000
00010000
00000000
00000000
00100000
00000000
00001000
00000000
00010000
00000000
00000100
00000000
00000000
00000000
,
00002200
00000000
00003300
00002000
00000000
00003020
00000000
00000230
,
00000000
00000000
00000000
00000310
00000100
00001000
00000000
00010000
,
00000000
00100000
00000000
01000000
00100000
00010000
00100000
01000000
,
00000000
00100000
00000000
10000000
00100000
00000000
01000000
00000000
,
02200000
00000000
03300000
00020000
00000000
02030000
00000000
03200000
,
00000000
00000000
00000000
01300000
00100000
00010000
00001000
00020000
,
00000000
00000000
00030000
00010000
00000000
00001000
00000000
00000010
,
00000100
00000000
00000100
00000000
00000010
00000000
00000010
00000000
00000100
00000000
00001000
00000100
00000010
00000000
00000000
00000000
,
00000001
00000010
00000100
00000000
00002000
00000000
00000010
00000000
00000000
00000000
00003100
00000000
00000010
00000000
00000200
00000000
,
00000000
00000300
00001000
00000100
00001000
00000000
00000100
00000000
00010000
00000000
00001000
00000000
00100000
00000000
00010000
00000000
,
10000000
00100000
01000000
00000000
00020000
00000000
00100000
00000000
00000000
00000000
01030000
00000000
00100000
00000000
02000000
00000000
,
00000000
03000000
00010000
01000000
00010000
00000000
00100000
00000000
00001000
00000000
00010000
00000000
00000100
00000000
00000000
00000000
,
00001000
00000100
00000001
00000100
00002000
00000000
00003100
00010000
,
00001000
00000000
01000000
00000000
00010000
00000000
10000000
00000000
01000000
00100000
01000000
00000000
00010000
00000000
00001000
00000000
,
00000000
00010000
00000010
00001000
00000000
00000001
00000100
00001000
,
00000000
00000000
00010000
00000000
00100000
00000000
10000000
00000000
00010000
00000000
01000000
00100000
10000000
00000000
00000000
00000000
,
10000000
01000000
00100000
00000000
00020000
00000000
01000000
00000000
00000000
00000000
00130000
00000000
01000000
00000000
00200000
00000000
,
00000000
00300000
00010000
00100000
00010000
00000000
00100000
00000000
00001000
00000000
00010000
00000000
00000100
00000000
00001000
00000000
,
00000001
00000100
00000010
00000000
00002000
00000000
00000100
00000000
00000000
00000000
00003010
00000000
00000100
00000000
00000020
00000000
,
00000000
00000030
00001000
00000010
00001000
00000000
00000100
00000000
00010000
00000000
00001000
00000000
00100000
00000000
00000000
00000000
,
00010000
00100000
10000000
00100000
00020000
00000000
00130000
00001000
,
00010000
00000000
00000100
00000000
00001000
00000000
00000001
00000000
00000010
00000100
00001000
00000000
00000100
00000000
00001100
00000000
,
00000000
00011000
00000000
00110000
00000000
01100000
00000000
22000000
,
00000000
00000000
00000000
33000000
20020000
00000000
30030000
00000000
,
20000000
00000000
00000000
32000000
00000000
00000000
00000000
03100000
,
00000000
00001000
00010000
00000100
00001000
00000000
00000010
00000000
,
00002000
00000000
00000000
00003200
00000000
00000000
00000000
00020300
,
00000000
00000000
00030000
00000000
,
00000000
00000000
00000000
00000000
;
