
//----- song ID: muba -----//
#TITLE:斑咲花;
#ARTIST:mami,駄々子 by BEMANI Sound Team "Akhuta Works";
#TITLETRANSLIT:Murasakibana;
#ARTISTTRANSLIT:mami, Dadaco by BEMANI Sound Team "Akhuta Works";
#BANNER:Murasakibana.png;
#BACKGROUND:Murasakibana-bg.png;
#CDTITLE:./CDTitles/BEMANI 2021 manatsu no utagassen 5 ban shoubu.png;
#MUSIC:Murasakibana.ogg;
#SAMPLESTART:71.046;
#SAMPLELENGTH:15;
#BPMS:0=201,179=134,195=201;
#STAGE:3;
#NOTES:
     dance-single:
     :
     Beginner:
     3:
     :
0000
0000
0000
0000
,
0000
0000
0000
0000
,
0000
0000
0000
0000
,
0000
0000
0000
0000
,
0000
0000
0000
0000
,
0000
0000
0000
0000
,
0000
1000
0000
0000
,
0000
0001
0000
0000
,
0000
1000
0000
0000
,
0000
1000
0000
0000
,
0000
0010
0000
0000
,
0000
0010
0000
0000
,
0000
0100
0000
0000
,
0000
0100
0000
0000
,
0000
0001
0000
0000
,
0000
0001
0000
0000
,
0000
0100
0000
0100
,
0000
0100
0000
0000
,
0000
0002
0000
0000
,
0000
0003
0000
0000
,
0000
2000
0000
0000
,
0000
3000
0000
0000
,
0000
0020
0000
0000
,
0000
0030
0000
0000
,
0000
0200
0000
0000
,
0000
0300
0000
0000
,
0000
0001
0000
0000
,
0000
1000
0000
0000
,
0000
0001
0000
0000
,
0000
1000
0000
0000
,
0000
0002
0000
0000
,
0000
0003
0000
0000
,
0000
2000
0000
0000
,
0000
3000
0000
0000
,
0000
0200
0000
0000
,
0000
0300
0000
0000
,
0000
0020
0000
0000
,
0000
0030
0000
0000
,
0000
0001
0000
0000
,
0000
1000
0000
0000
,
0000
0001
0000
0000
,
0000
1000
0000
0000
,
0000
0100
0000
0100
,
0000
0100
0000
0000
,
0000
0000
0000
1001
,
0000
0000
0000
0110
,
0000
0000
0000
0001
,
0000
1000
0000
0001
,
0000
0000
0000
2002
,
0000
0000
3003
0000
,
0000
0000
0220
0000
,
0000
0330
0000
0000
,
0000
2002
0000
0000
,
3003
0000
0000
0000
,
0001
0000
0000
0000
,
1000
0000
0000
0000
,
0001
0000
1000
0000
,
0001
0000
0000
0000
,
2000
0000
0000
0000
,
3000
0000
0000
0000
,
0200
0000
0000
0000
,
0300
0000
0000
0000
,
0100
0000
0000
0000
,
0010
0000
0000
0000
,
0001
0000
1000
0000
,
0001
0000
0000
0000
,
2000
0000
0000
0000
,
3000
0000
0000
0000
,
0020
0000
0000
0000
,
0030
0000
0000
0000
,
0010
0000
0000
0000
,
0100
0000
0000
0000
,
0001
0000
1000
0000
,
0001
0000
0000
0000
,
0100
0000
0000
0000
,
0100
0000
0000
0000
,
0010
0000
0000
0000
,
0010
0000
0000
0000
,
1000
0000
0000
0000
,
0001
0000
0000
0000
,
0100
0000
0000
0000
,
0010
0000
0000
0000
,
2000
0000
0000
0000
,
3000
0000
0000
0000
,
0001
0000
1000
0000
,
0001
0000
0000
0000
,
1000
0000
0001
0000
,
1000
0000
0000
0000
,
0001
0000
0000
0000
,
0001
0000
0000
0000
,
1000
0000
0000
0000
,
1000
0000
0000
0000
,
0100
0000
0100
0000
,
0100
0000
0100
0000
,
0000
0000
0000
0000
;
#NOTES:
     dance-single:
     :
     Easy:
     7:
     :
0000
0000
0000
0000
,
0000
0000
0000
0000
,
0000
0000
0000
0000
,
0000
0000
0000
0000
,
0000
0000
0000
0000
,
0000
0000
0000
0000
,
0000
1000
0000
0001
,
0000
0010
0000
0100
,
0000
1000
0000
1000
,
0000
1000
0000
1000
,
0000
0001
0000
0001
,
0000
0001
0000
0001
,
0000
0010
0000
0100
,
0000
1000
0000
0001
,
0000
1000
0001
1000
,
0000
0001
1000
0001
,
0000
0010
0100
0010
,
0100
0010
0100
0010
,
0000
0002
0000
0000
,
0000
1003
0000
0010
,
0000
0100
0000
0001
,
0000
2000
0000
0000
,
0000
3002
0000
0000
,
0000
1003
0000
0100
,
0000
0010
0000
0001
,
0000
2000
0000
0000
,
0000
3001
0100
0001
,
0000
1000
0100
1000
,
0000
0010
0100
0010
,
0000
1000
0001
1000
,
0000
0200
0000
0000
,
0000
0310
0000
0001
,
0000
1000
0000
0100
,
0000
0020
0000
0000
,
0000
0230
0000
0000
,
0000
0310
0000
0100
,
0000
1000
0000
0001
,
0000
0200
0000
0000
,
0000
0310
1000
0010
,
0000
0100
0001
0100
,
0000
0001
1000
0001
,
0000
0010
0100
0010
,
0000
0001
0000
0000
0000
1000
0000
0000
,
0000
0001
0000
0000
0000
0000
0100
0000
,
0000
0000
0000
0002
,
0000
1003
0100
2000
,
0000
3001
0100
0020
,
0000
0130
0001
2000
,
0000
0000
0000
3100
,
0000
0100
0000
0000
0100
0000
0000
0000
,
1000
0000
0001
0000
1000
0000
0000
1000
,
0000
1000
0000
0010
,
0100
0000
0001
0000
0000
0001
0000
0000
,
0001
0000
0000
2000
,
3020
0000
0100
0000
,
0100
0000
0130
0000
,
0000
0001
0000
0000
1000
0000
0000
0001
,
0000
0000
0000
0000
,
1000
0000
0100
0000
,
0010
0000
0010
0000
,
0001
0000
0100
0000
,
0010
0000
0010
0000
,
0110
0000
1000
0000
,
1001
0000
0001
0000
,
1000
0010
0100
0000
,
1001
0000
0000
0000
,
0001
0000
0010
0000
,
0100
0000
0100
0000
,
1000
0000
0010
0000
,
0100
0000
0100
0000
,
0110
0000
0001
0000
,
1001
0000
1000
0000
,
0001
0100
0010
0000
,
2000
0000
0000
3000
,
0002
0000
0023
0000
,
0230
0000
1300
0000
,
2000
0000
3020
0000
,
0230
0000
0301
0000
,
0001
1000
0010
0000
,
1000
0010
0100
0000
,
0020
0000
0230
0000
,
0302
0000
2003
0000
,
3002
0000
0000
0000
,
0000
0000
0003
0000
,
1000
0000
1000
0000
,
1000
0000
1000
0000
,
0001
0000
0001
0000
,
0001
0000
0001
0000
,
0010
0000
0100
0000
,
1000
0000
0001
0000
,
1000
0001
1000
0001
,
0100
0000
0100
0000
,
0010
1000
0010
1000
,
0001
0100
0001
0000
,
0000
0000
0000
0000
;
#NOTES:
     dance-single:
     :
     Medium:
     12:
     :
0000
0000
0000
0000
,
0000
0000
0000
0000
,
0000
0000
0000
0000
,
0000
0000
0000
0000
,
0000
0000
0000
0000
,
0000
0000
0000
0000
,
0000
0002
0023
0230
,
2300
0000
3001
0100
0001
0100
0001
1000
,
0000
0100
0000
0000
1001
0000
0010
0000
,
1001
0000
0100
0000
0010
0100
0000
1001
,
0000
0001
0000
0000
0110
0000
1000
0000
,
0110
0000
0001
0010
0100
1000
0001
1000
,
0000
0001
0000
0000
0101
0000
1000
0000
,
1100
0000
0010
0000
1010
0000
0001
0010
,
0001
0020
0000
0000
0230
0000
2300
0000
,
3002
0000
1003
0100
1000
0100
1000
0001
,
1000
0000
0010
0100
0001
1000
0100
0010
,
0001
1000
0010
0100
0010
0100
0001
1000
,
0000
0200
0000
0000
,
0320
0000
0032
0000
0000
2003
0000
0000
,
3010
0000
0200
0000
0000
0302
0000
0000
,
2003
0000
0000
0000
,
0000
0000
3001
0000
0000
0010
0000
0000
,
0200
0000
2300
0000
0000
3002
0000
0000
,
0103
0000
0020
0000
0000
2030
0000
0000
,
3002
0000
0000
0000
0000
0000
1003
0100
,
1000
0100
0000
0100
2000
0000
3020
0000
,
0230
0000
0302
0000
1003
0100
0000
0100
,
1000
0001
0000
0010
0200
0000
2300
0000
,
3002
0000
0203
0000
2300
0000
3100
0001
,
0000
0000
0001
0000
0000
0010
0000
0000
,
0200
0000
2300
0000
0000
3002
0000
0000
,
0103
0000
0020
0000
0000
2030
0000
0000
,
3002
0000
0000
0000
,
0000
0000
1003
0000
0000
0100
0000
0000
,
0020
0000
0032
0000
0000
2003
0000
0000
,
3010
0000
0200
0000
0000
0302
0000
0000
,
2003
0000
0000
0000
0000
0000
3001
0010
,
0001
0010
0000
0010
0002
0000
0203
0000
,
0320
0000
2030
0000
3001
0010
0000
0010
,
0001
1000
0000
0100
0020
0000
0032
0000
,
2003
0000
3020
0000
0032
0000
0013
1000
,
0000
0001
0100
0001
0000
1000
0100
1000
,
0000
0010
0100
0010
1000
0001
1000
0001
,
0000
0000
0000
1001
,
1010
0110
0101
1001
,
1100
0110
0011
1001
,
0101
1001
1100
0220
,
0000
0000
0330
0011
,
0000
0110
0000
0000
1100
0000
0000
1000
,
0010
1000
0010
1000
1010
0000
0000
0110
,
0000
0000
0101
0000
0000
0001
0010
0001
,
0010
0001
0011
0000
0000
1001
0000
0000
,
1100
0000
1000
0100
0010
0100
2000
0000
,
3002
0000
0023
0000
,
0230
0000
2300
0000
,
3000
0001
0100
0000
1000
0100
0000
1001
,
0000
0000
0002
0000
,
0013
0000
0100
0010
0000
0001
0000
2000
,
0000
3010
0000
0010
0000
0100
0001
0100
,
0002
0000
0013
0200
0000
2300
0000
3002
,
0000
0103
0000
0200
0000
0310
1000
0001
,
0010
0000
0010
0200
0000
0310
0001
1000
,
0010
0000
0010
0200
0000
0301
0010
0100
,
2000
3020
0032
0023
,
0130
0000
0100
0002
0000
0000
0013
0000
,
0100
0000
0010
0100
0000
1000
0000
0002
,
0000
0103
0000
0100
0000
0010
1000
0010
,
2000
0000
3100
0020
0000
0032
0000
2003
,
0000
3010
0000
0020
0000
0130
0001
1000
,
0100
0000
0100
0020
0000
0130
1000
0001
,
0100
0000
0100
0020
0000
1030
0100
0010
,
0002
0203
2300
3100
,
0101
1001
1100
0110
,
0010
0000
0000
0000
0002
0000
0000
0000
0013
0000
0000
0100
0000
0000
1000
0000
,
0020
0100
0100
0130
,
0010
0000
0000
0000
2000
0000
0000
0000
3100
0000
0000
0010
0000
0000
0001
0000
,
0200
0010
0010
0310
,
0100
0002
0023
2030
,
3002
0203
2300
3002
,
0203
0000
2300
0000
,
3200
0000
0302
0000
,
2000
0000
0000
0000
,
0000
0000
0000
0000
3003
0000
0000
0010
,
0000
1001
0100
1001
,
0010
0000
0100
0010
0000
1001
0000
0001
,
0000
0110
1000
0110
,
0001
0100
0010
1000
0001
1000
0000
0001
,
0000
0011
1000
1010
,
0010
0000
1000
0100
0000
1001
0000
0001
,
0000
0001
0100
0000
0110
0000
1001
0000
,
0001
1000
0010
1000
0001
0010
0100
0000
,
1000
0100
0010
0100
0001
0100
0010
1000
,
0010
0100
1000
0001
0100
0100
0000
0000
,
0000
0000
0000
0000
;
#NOTES:
     dance-single:
     :
     Hard:
     16:
     :
0000
0000
0000
0000
,
0000
0000
0000
0000
,
0000
0000
0000
0000
,
0000
0000
0000
0000
,
0000
0000
0000
0000
,
0000
0000
0000
0000
,
0000
0000
2000
0000
3001
0100
0010
1000
,
0100
0000
0010
0000
0001
0000
1000
0100
1000
0000
0001
0100
0001
0000
1001
0000
,
0000
0020
0000
1030
0100
0001
0100
1000
,
0100
0001
0100
1000
0100
0001
0100
0110
,
0000
0020
0000
0031
0100
1000
0100
0001
,
0100
1000
0100
0010
0001
0010
0100
0110
,
0000
0000
2001
0000
0000
0000
0000
0000
0001
0000
3001
0100
0020
0000
0000
0000
,
1000
0000
0230
0000
0001
0000
0310
1000
,
0100
0020
0000
0031
0100
0010
1000
0001
,
0010
0000
0001
0000
1000
0000
0001
0010
0001
0000
1000
0010
1000
0000
0001
0000
,
1001
0000
0001
0001
0010
0010
0100
0100
,
1000
1000
0001
0101
0100
0110
0010
1010
,
0000
0000
1020
0000
0000
0130
1000
0100
,
0001
0000
0102
0000
0000
1003
0100
0001
,
0100
0000
0210
0000
0000
1300
0010
0001
,
0020
0000
0130
0001
1000
0100
0010
0001
,
1000
0000
2100
0000
0000
3001
0010
1000
,
0010
0000
0120
0000
0000
0031
0100
1000
,
0100
0000
0210
0000
0000
0301
0010
1000
,
0020
0000
0031
0100
0010
1000
0010
0100
,
0001
0000
0101
0000
0000
0000
0100
0001
0100
0000
0001
0000
0010
0000
0100
1000
,
0100
0000
1000
0000
0001
0000
0000
0000
1001
0000
1000
0000
0001
0100
0001
0100
,
0001
0000
1000
0000
0000
0000
0100
1000
0100
0000
1000
0000
0010
0000
0100
0001
,
0100
0001
1000
0000
1100
0000
0110
0110
,
0000
0000
0021
0000
0000
0130
0001
0100
,
1000
0000
2100
0000
0000
3001
0100
1000
,
0100
0000
0120
0000
0000
1030
0100
0001
,
0200
0000
1300
0010
0100
0001
0100
0010
,
1000
0000
2100
0000
0000
3001
0010
1000
,
0010
0000
0120
0000
0000
0031
0100
1000
,
0100
0000
0120
0000
0000
1030
0100
0001
,
0200
0000
0310
0001
0100
0010
1000
0001
,
0100
0000
0101
0000
0000
0000
0100
0001
0100
0000
0001
0000
0010
0000
0100
1000
,
0100
1000
0001
0000
0011
0010
0100
1000
,
0010
0000
1010
0000
0000
0000
0010
1000
0010
0000
1000
0000
0100
0000
0010
0001
,
0010
0001
1000
0000
1010
0000
0110
0110
,
0000
1000
0010
1010
0000
0001
0010
0011
,
0000
0010
0001
0010
1000
0001
0100
1000
,
0000
0000
0000
0000
0000
0000
0000
0000
0000
0000
0000
0000
0001
0100
0001
0100
,
0010
1000
0010
1000
0001
0100
0001
0100
0010
1000
0010
1000
0001
0010
0001
0010
,
0100
1000
0100
1000
0001
0010
0001
0010
0100
1000
0100
1000
0001
0010
0100
1000
,
0001
0000
0000
0100
0000
0000
0010
0000
0000
1000
0000
0000
0001
0000
0000
0010
0000
0000
0100
0000
0000
1000
0000
0000
0001
0000
0000
0100
0000
0000
0010
0000
0000
1000
0000
0000
0002
0000
0000
0000
0000
0000
0000
0000
1000
0000
0000
0000
,
0000
0000
0010
0000
0000
0000
1000
0000
0000
0000
0100
0000
0000
0000
1003
0000
0000
0000
1001
0000
0000
1000
0000
0000
,
0010
0110
0100
0001
1001
0000
0000
0001
,
0010
0100
0010
0001
0101
0100
0010
1010
,
1000
0001
1001
0000
0000
1000
0100
0010
,
0100
1000
1010
0010
0100
0101
0001
1000
,
1001
0000
0000
0000
0001
0100
0001
0100
0001
0100
0001
0100
0002
0000
0000
0000
,
0020
0003
0200
0030
,
2000
0300
0002
3003
,
0000
0101
0101
0000
1100
1100
0000
1001
,
0000
0000
2000
0000
,
3010
0100
0001
0101
0100
1100
0100
0101
,
0001
0100
1000
0200
0000
0301
1000
0001
,
0100
0010
1000
1100
0100
0101
0100
1100
,
1000
0100
0001
0200
0000
1300
0010
0100
,
0110
0000
0000
0000
0100
0010
0200
0000
0000
0000
0301
0000
0010
0000
0100
0000
,
0110
0000
0000
0000
0100
0010
0200
0000
0000
0000
1300
0000
0010
0000
0001
0000
,
0020
1000
0100
0001
,
1030
0000
0000
0000
1000
0001
0200
0000
0000
0000
0000
0000
0301
0000
0000
0000
,
0100
0010
1000
1010
0010
0011
0010
1010
,
1000
0010
0001
0020
0000
1030
0001
1000
,
0010
0100
0001
0011
0010
1010
0010
0011
,
0001
0010
1000
0020
0000
0031
0100
0010
,
0110
0000
0000
0000
0010
0100
0020
0000
0000
0000
1030
0000
0100
0000
0010
0000
,
0110
0000
0000
0000
0010
0100
0020
0000
0000
0000
0031
0000
0100
0000
1000
0000
,
0200
0001
0010
1300
,
0010
1000
0000
0000
1000
0100
0000
0000
0100
0001
0000
0000
0001
0010
0000
0000
,
0210
0000
0000
0000
2300
0000
0000
0000
0100
0000
0000
0100
0000
0000
3100
0000
,
0100
0000
0001
0000
0100
0000
1000
0000
0020
0000
0000
0000
1030
0001
1000
0001
,
0200
0000
0000
0000
0302
0000
0000
0000
0100
0000
0000
0100
0000
0000
0103
0000
,
0100
0000
1000
0000
0100
0000
0001
0000
0010
0000
0100
0000
1000
0000
0001
1000
,
0001
0000
0100
0000
0010
0000
1000
0001
1000
0000
0100
0000
0010
0000
0001
1000
,
0001
0000
0010
0000
0100
0000
1000
0001
1000
0000
0010
0000
0100
0000
0001
1000
,
0002
0103
2010
3001
,
0102
1003
2010
3001
,
2002
0000
0000
0000
,
3000
0000
0000
0000
0000
0000
0000
0000
1003
0100
1000
0000
0000
0000
0020
0000
,
0000
1030
0100
0001
0100
1000
0100
0001
,
0100
1000
0100
0001
0100
0110
0000
0020
,
0000
0031
0100
1000
0100
0001
0100
1000
,
0100
0010
0001
0010
0100
0110
0000
0020
,
0000
1030
0100
0001
0100
1000
0010
0001
,
0010
1000
0100
0110
0000
1001
0000
0001
,
0010
0100
1100
0000
1010
0010
0110
0000
,
1000
0100
1000
0000
0001
0100
0001
0000
1000
0001
1000
0001
1000
0000
0000
0000
,
0001
0001
0100
0100
0010
0010
1000
1000
,
0001
0011
0010
0110
1001
1001
0000
0000
,
0000
0000
0000
0000
;
#NOTES:
     dance-double:
     :
     Easy:
     7:
     :
00000000
00000000
00000000
00000000
,
00000000
00000000
00000000
00000000
,
00000000
00000000
00000000
00000000
,
00000000
00000000
00000000
00000000
,
00000000
00000000
00000000
00000000
,
00000000
00000000
00000000
00000000
,
00000000
10000000
00000000
00100000
,
00000000
01000000
00000000
00010000
,
00000000
00100000
00000000
00100000
,
00000000
00001000
00000000
00001000
,
00000000
00011000
00000000
00010000
,
00000000
00000100
00000000
00000100
,
00000000
00001000
00000000
00000100
,
00000000
00001000
00000000
00000010
,
00000000
00000100
00000010
00000100
,
00000000
00000001
00001000
00000001
,
00000000
00000010
00000100
00001000
,
00000000
00000100
00010000
00001000
,
00000000
00020000
00000000
00000000
,
00000000
00031000
00000000
00100000
,
00000000
00010000
00000000
01000000
,
00000000
00200000
00000000
00000000
,
00000000
20300000
00000000
00000000
,
00000000
30010000
00000000
01000000
,
00000000
00010000
00000000
00100000
,
00000000
00002000
00000000
00000000
,
00000000
00013000
00001000
00010000
,
00000000
00000100
00001000
00000100
,
00000000
00001000
00000001
00001000
,
00000000
00000010
00001000
00000010
,
00000000
00000200
00000000
00000000
,
00000000
00000310
00000000
00001000
,
00000000
00000100
00000000
00010000
,
00000000
00002000
00000000
00000000
,
00000000
00203000
00000000
00000000
,
00000000
00310000
00000000
10000000
,
00000000
01000000
00000000
00100000
,
00000000
02000000
00000000
00000000
,
00000000
03100000
00010000
00100000
,
00000000
00001000
00010000
00001000
,
00000000
00010000
00000100
00001000
,
00000000
00000100
00001000
00000001
,
00000000
00000100
00000000
00000000
00000000
00000010
00000000
00000000
,
00000000
00000100
00000000
00000000
00000000
00000000
00000010
00000000
,
00000000
00000000
00000000
00002000
,
00000000
00003001
00000010
00000200
,
00000000
00010300
00001000
00020000
,
00000000
00031000
00100000
00020000
,
00000000
00000000
00000000
01030000
,
00000000
01000000
00000000
00000000
01000000
00000000
00000000
00000000
,
00010000
00000000
10000000
00000000
00100000
00000000
00000000
00100000
,
00000000
00100000
00000000
01000000
,
00010000
00000000
10000000
00000000
00000000
10000000
00000000
00000000
,
10000000
00000000
00000000
00020000
,
00230000
00000000
00302000
00000000
,
00023000
00000000
00030200
00000300
,
00000000
00001000
00000000
00000000
00000100
00000000
00000000
00001000
,
00000000
00000000
00000000
00000000
,
00000010
00000000
00001000
00000000
,
00000001
00000000
00000010
00000000
,
00000100
00000000
00010000
00000000
,
00001000
00000000
00100000
00000000
,
00110000
00000000
00010000
00000000
,
10010000
00000000
00010000
00000000
,
01000000
00100000
01000000
00000000
,
01010000
00000000
00000000
00000000
,
00010000
00000000
00100000
00000000
,
00001000
00000000
00010000
00000000
,
00000100
00000000
00001000
00000000
,
00000010
00000000
00001000
00000000
,
00001010
00000000
00000010
00000000
,
00000110
00000000
00000100
00000000
,
00000001
00001000
00000100
00000000
,
00020000
00000000
00000000
00030000
,
00002000
00000000
00203000
00000000
,
00320000
00000000
01030000
00000000
,
00200000
00000000
20300000
00000000
,
32000000
00000000
03100000
00000000
,
00010000
00100000
00001000
00000000
,
00010000
00000100
00001000
00000000
,
00000020
00000000
00002030
00000000
,
00003002
00000000
00002003
00000000
,
00003200
00000000
00000000
00000000
,
00000000
00000000
00000300
00000000
,
00010000
00000000
00010000
00000000
,
00001000
00000000
00001000
00000000
,
00100000
00000000
00100000
00000000
,
00010000
00000000
00010000
00000000
,
10000000
00000000
01000000
00000000
,
10000000
00000000
00010000
00000000
,
00100000
00010000
00100000
00001000
,
00010000
00000000
00001000
00000000
,
00010000
00000100
00001000
00000000
,
00000001
00001000
00000100
00000000
,
00000000
00000000
00000000
00000000
;
#NOTES:
     dance-double:
     :
     Medium:
     12:
     :
00000000
00000000
00000000
00000000
,
00000000
00000000
00000000
00000000
,
00000000
00000000
00000000
00000000
,
00000000
00000000
00000000
00000000
,
00000000
00000000
00000000
00000000
,
00000000
00000000
00000000
00000000
,
00000000
00000002
00000203
00000320
,
00002030
00000000
00003100
00010000
00000100
00010000
00000100
00010000
,
00000000
00001000
00000000
00000000
00011000
00000000
00100000
00000000
,
00110000
00000000
00010000
00000000
10000000
00010000
00000000
00110000
,
00000000
00001000
00000000
00000000
00011000
00000000
00000100
00000000
,
00001100
00000000
00001000
00000100
00000010
00000001
00001000
00000001
,
00000000
00000100
00000000
00000000
00000110
00000000
00000010
00000000
,
00010010
00000000
00010000
00000000
00011000
00000000
00001000
00100000
,
00010000
02000000
00000000
00000000
03200000
00000000
20300000
00000000
,
30020000
00000000
00130000
01000000
00100000
01000000
00100000
01000000
,
00100000
00000000
00001000
00010000
00001000
00000000
00010000
00000100
,
00001000
00000000
00000001
00000010
00000100
00001000
00000001
00000100
,
00000000
00000020
00000000
00000000
,
00002030
00000000
00003200
00000000
00000000
00020300
00000000
00000000
,
00031000
00000000
00200000
00000000
00000000
02300000
00000000
00000000
,
03200000
00000000
00000000
00000000
,
00300000
00000000
00010000
00000000
00000000
10000000
00000000
00000000
,
00200000
00000000
02300000
00000000
00000000
03002000
00000000
00000000
,
00013000
00000000
00000200
00000000
00000000
00002300
00000000
00000000
,
00003002
00000000
00000000
00000000
00000000
00000000
00000103
00000010
,
00000100
00000010
00000000
00000010
00020000
00000000
00032000
00000000
,
00003200
00000000
00000310
00000000
00001000
00000010
00000000
00000010
,
00000100
00001000
00000000
00010000
00002000
00000000
00023000
00000000
,
00230000
00000000
20300000
00000000
32000000
00000000
03100000
00010000
,
00000000
00200000
00000000
00000000
,
00320000
00000000
02030000
00000000
00000000
03002000
00000000
00000000
,
00013000
00000000
00000020
00000000
00000000
00000230
00000000
00000000
,
00000320
00000000
00000000
00000000
,
00000030
00000000
00001000
00000000
00000000
00000001
00000000
00000000
,
00000020
00000000
00000230
00000000
00000000
00020300
00000000
00000000
,
00031000
00000000
02000000
00000000
00000000
03020000
00000000
00000000
,
20030000
00000000
00000000
00000000
00000000
00000000
31000000
00100000
,
01000000
00100000
00000000
00100000
00002000
00000000
00023000
00000000
,
02030000
00000000
03100000
00000000
00010000
00100000
00000000
00100000
,
01000000
00010000
00000000
00001000
00020000
00000000
00032000
00000000
,
00003020
00000000
00000032
00000000
00000203
00000000
00000310
00001000
,
00000000
00000100
00010000
00000100
00000000
00100000
00001000
00100000
,
00000000
00010000
10000000
00010000
01000000
00100000
01000000
00100000
,
00000000
00000000
00000000
10010000
,
00110000
00101000
00011000
00010100
,
00001100
00001001
00000101
00000110
,
00001010
00001100
00010100
00022000
,
00000000
00000000
00033000
00101000
,
00000000
00110000
00000000
00000000
10010000
00000000
00000000
10000000
,
01000000
00100000
00010000
00100000
00110000
00000000
00000000
00011000
,
00000000
00000000
00001100
00000000
00000000
00001000
00000010
00000100
,
00000001
00000100
00000101
00000000
00000000
00000110
00000000
00000000
,
00001010
00000000
00001000
00000010
00001000
00000010
00020000
00000000
,
00032000
00000000
00203000
00000000
,
00320000
00000000
02030000
00000000
,
03000000
00010000
00100000
00000000
10000000
00100000
00000000
10010000
,
00000000
00000000
00020000
00000000
,
00130000
00000000
01000000
00100000
00000000
00001000
00000000
00020000
,
00000000
00031000
00000000
00002000
00000000
00013000
00000100
00001000
,
00000002
00000000
00000013
00000200
00000000
00020300
00000000
00032000
,
00000000
00003010
00000000
00000020
00000000
00000130
00001000
00000100
,
00001000
00000000
00001000
00000200
00000000
00010300
00001000
00100000
,
00010000
00000000
00010000
20000000
00000000
30010000
01000000
00001000
,
00020000
00032000
00003200
00000302
,
00001003
00000000
00000001
00002000
00000000
00000000
00000100
00000000
,
00003100
00000000
00000010
00000100
00000000
00010000
00000000
00002000
,
00000000
00013000
00000000
00020000
00000000
00031000
01000000
00010000
,
20000000
00000000
30100000
02000000
00000000
03002000
00000000
00023000
,
00000000
00130000
00000000
00200000
00000000
01300000
00010000
01000000
,
00010000
00000000
00010000
00200000
00000000
00301000
00010000
00000100
,
00001000
00000000
00001000
00000002
00000000
00001003
00000100
00010000
,
00002000
00023000
00230000
20300000
,
31000000
01100000
00100000
00110000
,
00020000
00000000
00000000
00000000
00130000
00000000
00000000
00000000
00001000
00000000
00000000
00010000
00000000
00000000
00000010
00000000
,
00002000
00003020
00000032
00000023
,
00002030
00000000
00000000
00000000
00003100
00000000
00000000
00000000
00010000
00000000
00000000
00001000
00000000
00000000
01000000
00000000
,
00020000
00230000
20300000
30200000
,
02300000
03010000
00002000
00003010
,
00000002
00000013
00002000
00013000
,
00000020
00000000
00000230
00000000
,
00002300
00000000
00023000
00000000
,
00002000
00000000
00000000
00000000
,
00000000
00000000
00000000
00000000
00033000
00000000
00000000
00001000
,
00000000
00011000
00100000
00110000
,
00010000
00000000
10000000
00010000
00000000
00110000
00000000
00001000
,
00000000
00011000
00000100
00001100
,
00001000
00000100
00000010
00000001
00001000
00000001
00000000
00000100
,
00000000
00000110
00000010
00010010
,
00010000
00000000
00001000
00100000
00000000
00110000
00000000
00010000
,
00000000
10000000
00010000
00000000
01100000
00000000
10010000
00000000
,
10000000
00010000
01000000
00001000
00010000
00001000
00100000
00000000
,
00010000
00100000
00001000
00010000
00000100
00001000
00000001
00000100
,
00001000
00000100
00000010
00001000
00000100
00000100
00000000
00000000
,
00000000
00000000
00000000
00000000
;
#NOTES:
     dance-double:
     :
     Hard:
     15:
     :
00000000
00000000
00000000
00000000
,
00000000
00000000
00000000
00000000
,
00000000
00000000
00000000
00000000
,
00000000
00000000
00000000
00000000
,
00000000
00000000
00000000
00000000
,
00000000
00000000
00000000
00000000
,
00000000
00000000
20000000
00000000
30010000
00100000
01000000
00100000
,
00010000
00000000
00100000
00000000
00001000
00010000
00001000
00000000
00010000
00001000
00010000
00000000
00000100
00000000
00000100
00000000
,
00000000
00002000
00000000
00003010
00000100
00001000
00010000
00001000
,
00000100
00001000
00010000
00100000
00010000
00001000
00010000
00100000
,
01000000
00020000
00000000
00130000
01000000
00010000
00001000
00010000
,
01000000
00010000
00001000
00000010
00000100
00001000
00000001
00001000
,
00000000
00000000
00000201
00000000
00000000
00000000
00000000
00000000
00000301
00000000
00000010
00000100
00002000
00000000
00000000
00000000
,
00000100
00000000
00003200
00000000
00010000
00000000
00010300
00001000
,
00100000
00020000
00000000
10030000
01000000
00010000
01000000
10000000
,
01000000
00000000
00010000
00000000
00001000
00000000
00010000
00001000
00010000
00000000
00001000
00010000
00001000
00000000
00010000
00000000
,
00011000
00000000
00000100
00000100
00001000
00001000
00000001
00000001
,
00000010
00000010
00001000
00010000
01000000
10000000
00010000
10010000
,
00000000
00000000
10020000
00000000
00000000
00130000
00001000
00010000
,
00000100
00000000
00002001
00000000
00000000
00003010
00010000
00001000
,
01000000
00000000
02010000
00000000
00000000
10000000
00000000
00000000
,
03020000
00000000
00130000
01000000
10000000
01000000
00100000
01000000
,
10000000
00000000
10020000
00000000
00000000
01030000
00001000
00010000
,
00000010
00000000
00002001
00000000
00000000
00003100
00010000
00001000
,
00100000
00000000
00210000
00000000
00000000
10000000
00000000
00000000
,
00320000
00000000
01030000
00100000
10000000
00100000
01000000
00100000
,
10000000
10010000
00000000
00010000
00100000
00100000
00001000
00010000
,
00000010
00000010
00001000
00000100
00000001
00000100
00001000
00000100
,
00000000
00010100
00000000
00010000
00000100
00000100
00100000
00001000
,
01000000
01000000
10000000
01000000
00010000
00100000
00000100
00001000
,
00000000
00000000
00002001
00000000
00000000
00003100
00010000
00001000
,
00100000
00000000
10020000
00000000
00000000
01030000
00001000
00010000
,
00000010
00000000
00001020
00000000
00000000
00000001
00000000
00000000
,
00002030
00000000
00003100
00000010
00000001
00000010
00000100
00000010
,
00000001
00000000
00002001
00000000
00000000
00003010
00010000
00001000
,
01000000
00000000
10020000
00000000
00000000
00130000
00001000
00010000
,
00000100
00000000
00001200
00000000
00000000
00000001
00000000
00000000
,
00002300
00000000
00003010
00000100
00000001
00000100
00000010
00000100
,
00000001
00001001
00000000
00001000
00000100
00000100
00010000
00001000
,
00100000
00100000
00010000
00100000
10000000
00100000
00010000
00100000
,
00000000
10010000
00000000
00010000
01000000
01000000
00001000
00010000
,
00000010
00000010
00001000
00000100
00000001
00000100
00010000
00001000
,
00000000
00100000
00001000
00011000
00000000
00000010
00010000
00011000
,
00000000
00001000
00100000
00010000
01000000
10000000
01000000
00010000
,
00000000
00000000
00000000
00000000
00000000
00000000
00000000
00000000
00000000
00000000
00000000
00000000
10000000
00100000
10000000
00000000
,
00010000
01000000
00010000
00000000
10000000
00100000
10000000
00000000
00100000
00000000
00010000
00000000
00001000
00010000
00000100
00000000
,
00001000
00000100
00000010
00000000
00000001
00000010
00000100
00000000
00010000
00000000
00001000
00000000
00100000
00010000
00100000
00000000
,
01000000
00000000
00000000
10000000
00000000
00000000
01000000
00000000
00000000
00000000
00000000
00000000
00100000
00000000
00000000
00010000
00000000
00000000
00100000
00000000
00000000
00000000
00000000
00000000
00001000
00000000
00000000
00000000
00000000
00000000
00010000
00000000
00000000
00000000
00000000
00000000
00000200
00000000
00000000
00000000
00000000
00000000
00000000
00000000
00001000
00000000
00000000
00000000
,
00000000
00000000
00000010
00000000
00000000
00000000
00000001
00000000
00000000
00000000
00000010
00000000
00000000
00000000
00001300
00000000
00000000
00000000
00001001
00000000
00000000
00000001
00000000
00000000
,
00000010
00000110
00000100
00001000
00001100
00000000
00000000
00010000
,
00001000
00100000
00010000
10000000
10010000
10000000
01000000
01100000
,
00100000
00010000
00110000
00000000
00000000
00001000
00010000
00000100
,
00001000
00000001
00001001
00001000
00000010
00001010
00001000
00000100
,
00010100
00000000
00000000
00000000
00010000
00001000
00010000
00001000
00010000
00001000
00010000
00001000
00020000
00000000
00000000
00000000
,
00002000
00030000
00200000
00003000
,
00020000
00300000
20000000
30030000
,
00010000
00100000
00110000
00000000
00010000
01010000
00000000
10010000
,
00000000
00000000
20000000
00000000
,
31000000
00100000
00010000
00200000
00000000
00302000
00000000
00013000
,
00000000
00010000
00001000
00000200
00000000
00000310
00001000
00000100
,
00000010
00000100
00000001
00000200
00000000
00020300
00000000
00031000
,
00000000
00001000
00100000
00020000
00000000
10030000
01000000
00100000
,
00110000
00000000
00010000
20000000
00000000
30100000
00010000
00001000
,
00011000
00000000
00010000
00000200
00000000
00001300
00000001
00000010
,
00000110
00000000
00000100
00010000
00001000
00100000
01000000
00010000
,
00001000
00000000
00000000
00000200
00000000
00000000
00000301
00000000
,
00000010
00000100
00001000
00000200
00000000
00020300
00000000
00031000
,
00000000
00001000
00010000
00200000
00000000
01300000
00010000
00100000
,
01000000
00100000
10000000
00200000
00000000
00302000
00000000
00013000
,
00000000
00010000
00000100
00002000
00000000
00003001
00000010
00000100
,
00001100
00000000
00001000
00000002
00000000
00000103
00001000
00010000
,
00011000
00000000
00001000
00200000
00000000
00310000
10000000
01000000
,
01100000
00000000
00100000
00001000
00010000
00000100
00000010
00001000
,
00011000
00010100
00011000
00110000
,
02100000
00000000
00000000
00000000
23000000
00000000
00000000
00000000
30010000
00000000
00000000
00100000
00000000
00000000
00001000
00000000
,
00010000
00001000
00000100
00000010
00002000
00000000
00003001
00000100
,
00000210
00000000
00000000
00000000
00000302
00000000
00000000
00000000
00001003
00000000
00000000
00000010
00000000
00000000
00010000
00000000
,
00001000
00010000
01000000
00100000
00010000
10000000
01000000
00000000
,
00100000
01000000
10000000
00100000
00010000
00001000
00010000
00001000
,
00000010
00000100
00001000
00000010
00000100
00001000
00000100
00000010
,
00002010
00003100
00001200
00010300
,
00021000
01030000
02100000
13000000
,
20020000
00000000
00000000
00000000
,
00030000
00000000
00000000
00000000
00000000
00000000
00000000
00000000
30010000
01000000
00010000
00000000
00000000
00000000
00020000
00000000
,
00000000
00130000
01000000
00010000
00001000
00010000
01000000
00010000
,
00001000
00000010
00001000
00010000
00001000
00000010
00000100
00002000
,
00000000
00003010
00000100
00001000
00010000
00001000
00000100
00001000
,
00010000
00100000
01000000
00010000
10000000
00010000
00000000
00020000
,
00000000
00130000
01000000
00010000
01000000
10000000
01000000
00010000
,
00001000
00001000
00010000
00000100
00000000
00001100
00000000
00001001
,
00000001
00000100
00000110
00000000
00001010
00000000
00010100
00000000
,
00010000
00000000
00001000
00010000
00001000
00000000
00010000
00001000
00010000
00000000
00001000
00000000
00011000
00000000
00000000
00000000
,
01000000
01000000
00010000
00010000
10000000
10000000
00100000
00100000
,
00010000
00001000
00000100
00000001
00001001
00001001
00000000
00000000
,
00000000
00000000
00000000
00000000
;
