
//----- song ID: mixn -----//
#TITLE:ミックスナッツ;
#TITLETRANSLIT:Mixed nuts;
#BANNER:Mixed nuts.png;
#BACKGROUND:Mixed nuts-bg.png;
#CDTITLE:./CDTitles/jubeat Ave.png;
#MUSIC:Mixed nuts.ogg;
#SAMPLESTART:58.401;
#SAMPLELENGTH:15;
#BPMS:0=150;
#STAGE:17;
#NOTES:
     dance-single:
     :
     Beginner:
     1:
     :
0000
0000
0000
0000
,
0000
0000
0000
0000
,
0000
0000
0000
0000
,
0000
0000
0000
0000
,
0000
0000
0000
0000
,
0000
0000
0000
0000
,
0000
0000
0000
0000
,
0000
0000
0000
0000
,
0000
0000
0000
0000
,
0010
0000
0000
0000
,
0000
0000
0000
0000
,
0010
0000
0000
0000
,
0000
0000
0000
0000
,
0010
0000
0000
0000
,
0000
0000
0000
0000
,
1000
0000
0000
0000
,
0000
0000
0000
0000
,
0001
0000
0000
0000
,
0000
0000
0000
0000
,
0100
0000
0000
0000
,
0100
0000
0000
0000
,
0010
0000
0000
0000
,
0010
0000
0000
0000
,
1000
0000
0000
0000
,
1000
0000
0000
0000
,
0001
0000
0000
0000
,
0001
0000
0000
0000
,
1001
0000
0000
0000
,
0000
0000
0000
0000
,
0110
0000
0000
0000
,
0000
0000
0000
0000
,
1001
0000
0000
0000
,
0000
0000
0000
0000
,
1000
0000
0000
0000
,
0001
0000
0000
0000
,
1000
0000
0000
0000
,
0000
0000
0000
0000
,
0010
0000
0000
0000
,
0010
0000
0000
0000
,
1000
0000
0000
0000
,
1000
0000
0000
0000
,
0001
0000
0000
0000
,
0001
0000
0000
0000
,
0100
0000
0000
0000
,
0100
0000
0000
0000
,
0001
0000
0000
0000
,
0001
0000
0000
0000
,
1000
0000
0000
0000
,
1000
0000
0000
0000
,
0010
0000
0000
0000
,
0010
0000
0000
0000
,
1000
0000
0000
0000
,
1000
0000
0000
0000
,
1001
0000
0000
0000
,
0000
0000
0000
0000
,
0110
0000
0000
0000
,
0000
0000
0000
0000
,
0001
0000
0000
0000
,
1000
0000
0000
0000
,
0010
0000
0000
0000
,
0010
0000
0000
0000
,
2002
0000
0000
3000
,
0000
0000
0000
0003
,
0000
0000
0000
0000
;
#NOTES:
     dance-single:
     :
     Easy:
     5:
     :
0000
0000
0000
0000
,
0000
0000
0000
0000
,
0000
0000
0000
0000
,
0000
0000
0000
0000
,
0000
0000
0000
0000
,
0000
0000
0000
0000
,
0000
0000
0000
0000
,
0000
0000
0000
0000
,
0000
0000
0000
0000
,
0020
0000
0000
0000
,
0000
0000
0000
0030
,
1001
0000
0000
0000
,
0000
0000
0000
0000
,
1000
0000
0000
0000
,
0001
0000
0001
0000
,
1000
0000
1000
0000
,
0010
0000
0010
0000
,
0100
0000
0100
0000
,
0001
0000
1000
0000
,
1001
0000
0000
0000
,
0001
0000
0001
0000
,
1000
0000
1000
0000
,
0001
0000
0001
0000
,
0100
0000
0001
0000
,
0010
0000
0100
0000
,
1000
0000
0001
0000
,
0100
0000
0010
0000
,
1001
0000
0000
0000
,
0110
0000
0000
0000
,
1001
0000
0000
0000
,
0110
0000
0000
0000
,
1001
0000
0000
0000
,
0110
0000
0000
0000
,
0001
0000
0010
0000
,
0100
0000
1000
0000
,
0020
0000
0000
0000
,
0030
0000
0000
0000
,
0000
0001
0000
1000
,
0100
0100
1000
0010
,
0100
0000
0001
0000
,
1000
0001
0100
0000
,
1001
0000
0000
0000
,
0110
0000
0000
0000
,
0001
0001
0100
0000
,
0010
0000
1000
0000
,
1001
0000
0001
0100
,
0010
0010
0100
0001
,
1000
0000
0100
0000
,
0010
0000
0001
0000
,
1001
0000
0000
0000
,
0110
0000
0000
0000
,
0001
0000
1000
0000
,
0010
0000
1000
0001
,
0100
0000
0100
0000
,
0010
0000
0010
0000
,
1000
0000
1000
0000
,
0001
0001
0100
0100
,
0010
0000
0010
0000
,
1000
0000
1000
0000
,
0001
0000
0001
0000
,
0100
0110
0001
1001
,
0200
0000
0000
0000
,
0020
0000
0330
1001
,
0000
0000
0000
0000
;
#NOTES:
     dance-single:
     :
     Medium:
     8:
     :
0000
0000
0000
0000
,
0000
0000
0000
0000
,
0000
0000
0000
0000
,
0000
0000
0000
0000
,
0000
0000
0000
0000
,
0000
0000
0000
0000
,
0000
0000
0000
0000
,
0000
0000
0000
0000
,
0000
0000
0000
0000
,
0120
0000
0000
0000
,
0000
0000
0000
0030
,
1001
0001
0010
0100
,
1000
0001
0100
0001
,
1000
0010
0100
0001
,
1000
0100
0010
0001
,
1000
1000
0010
0100
,
0001
0010
0001
1000
,
0010
0100
0001
0010
,
0100
0000
1000
0000
0001
0000
0100
0010
,
0100
0001
1000
0100
,
0010
0001
0010
0100
,
1000
0010
0000
0010
,
0100
0001
1000
0100
,
0010
0010
0001
0001
,
0100
0100
0010
1000
,
0001
0010
0100
1000
,
1001
0000
0000
0000
1000
0001
0100
0000
,
0110
0000
0000
0000
0010
0000
0000
1001
0000
0000
0000
0000
0000
0000
0000
0000
,
1000
0000
0000
0000
0100
0000
0000
1100
0000
0000
0000
0000
0000
0000
0000
0000
,
0001
0000
0000
0000
0100
0000
0000
0101
0000
0000
0000
0000
0000
0000
0000
0000
,
1000
0100
1000
0001
,
1001
0000
0000
0000
0100
0000
0000
0110
0000
0000
0000
0000
0000
0000
0000
0000
,
0001
0000
0000
0000
1000
0000
0000
1001
0000
0000
0000
0000
0000
0000
0000
0000
,
1000
0010
0100
0001
,
0010
0000
0100
0000
1000
0000
0001
0100
,
0020
0000
0000
0000
,
0030
0000
1001
0000
0001
1000
0001
0100
,
0000
0010
1000
0000
0001
0000
1000
0100
,
0000
0010
0001
0000
1000
0010
0100
0000
,
0002
1000
0010
2003
,
3002
0010
1003
0000
,
0001
0000
0000
0000
0010
0000
0000
0011
0000
0000
0000
0000
0000
0000
0000
0000
,
1000
0000
0000
0000
0010
0000
0000
1010
0000
0000
0000
0000
0000
0000
0000
0000
,
0001
0000
0100
0001
0000
0001
0010
0000
,
0100
0000
1000
0100
1000
0000
0001
0000
,
0100
0000
0010
1000
0001
0000
1000
0100
,
0000
0010
0100
0000
1000
0001
0100
0000
,
0020
0100
2030
3002
,
0203
0010
0301
0000
,
0001
0000
0000
0000
1000
0000
0000
1010
0000
0000
0000
0000
0000
0000
0000
0000
,
1000
0000
0000
0000
0001
0000
0000
0011
0000
0000
0000
0000
0000
0000
0000
0000
,
1000
0100
0010
0000
0001
0100
0001
0000
,
1000
0000
0010
0000
0010
0100
0001
0000
,
2000
3200
0320
0032
,
2003
3002
0023
0230
,
1300
1010
0001
0101
,
0000
0000
1000
0000
1000
0000
0000
0000
0000
0000
0001
0000
0000
0100
0000
0000
,
0020
2030
3200
2300
,
3020
0230
0302
0023
,
0230
2300
3002
0203
,
0300
0000
0010
0000
0010
0000
0000
0000
0000
0000
1000
0000
0000
0001
0000
0000
,
0200
0000
0000
0000
,
0020
0000
0330
1001
,
0000
0000
0000
0000
;
#NOTES:
     dance-single:
     :
     Hard:
     15:
     :
0000
0000
0000
0000
,
0000
0000
0000
0000
,
0000
0000
0000
0000
,
0000
0000
0000
0000
,
0000
0000
0000
0000
,
0000
0000
0000
0000
,
0000
0000
0000
0000
,
0000
0000
0000
0000
,
0000
0000
0000
0000
,
0001
0000
1000
0000
0001
0100
0000
0001
1000
0000
0100
1000
0000
0001
0100
0000
,
0001
0000
0000
1000
0100
0000
0000
0010
0001
0000
0000
0000
0000
0100
0000
0000
,
0110
0001
1000
0010
0100
0001
0010
0100
,
1000
1000
0100
0010
0002
2003
3020
0130
,
0001
0001
0010
0100
1000
0001
0100
0010
,
0100
0001
0010
0100
1000
0001
0100
0010
,
1000
0001
0100
0001
0010
0100
1000
0100
,
0010
0001
0100
0010
0100
0001
0010
0100
,
0010
0001
0010
0100
1000
0001
0100
0010
,
1000
0000
0001
0000
0010
0000
0100
0000
1000
0000
0001
1000
0010
0100
0010
1000
,
0001
0010
0100
0010
0001
1000
0010
0100
,
0010
1000
0001
0010
0100
1000
0001
0100
,
0020
0230
0302
0013
0100
1000
0001
0100
,
0010
0100
0001
0010
0001
1000
0010
0100
,
0010
1000
0100
0010
0001
0100
0001
0010
,
0100
1000
0001
0100
0001
0010
0100
0010
,
0001
1000
0010
0100
0001
1000
0100
1000
,
0010
0000
0100
0001
0000
1000
0100
0000
1000
0001
0100
0010
0100
0001
1000
0100
,
0010
0000
0001
0000
1000
0010
0000
0110
0000
0000
0100
0000
0001
0010
0100
0000
,
1000
0000
0001
0000
0100
0010
0000
1010
0000
0000
0001
0000
0100
0000
0001
0000
,
1000
0000
0100
0000
0010
0001
0000
1001
0000
0000
0001
0000
1000
0000
0001
0000
,
0100
0000
0010
1000
0001
1000
0100
0010
0000
0001
0000
1001
0000
0000
0000
0000
,
0110
0000
0000
0000
0001
0100
0010
1000
0000
0000
0001
0000
0010
0000
0100
0000
,
1000
0000
0000
0000
1000
0100
0010
0001
0000
0000
1000
0000
0010
0000
0100
0000
,
0101
0001
0010
0001
1000
0100
1000
0010
,
0100
0001
0010
0001
0100
0010
1000
0100
,
1000
0000
0001
0100
0010
1000
0001
0000
0010
0001
0000
1000
0100
0000
1000
0010
,
0100
0001
1000
0100
0010
0000
0000
0000
0001
0000
0011
0000
1000
0000
1100
0000
,
0000
0000
0001
0000
0100
0000
0010
0000
0100
0000
0001
0000
1000
0000
0100
0010
,
0001
0000
1000
0000
0010
0000
0100
0000
0010
0000
1000
0000
0100
0000
1000
0001
,
0100
0000
0010
0000
1000
0000
0001
0000
0010
0000
0100
0000
1000
0000
0001
0100
,
0010
0000
0100
0000
0001
0000
0010
0000
0100
0000
1000
0001
0100
0010
0100
0001
,
1000
0000
0100
0000
1000
0010
0000
0110
0000
0000
0001
0100
0010
0100
0001
1000
,
0100
0000
0010
0000
0001
0100
0000
0110
0000
0000
0000
0000
0000
0000
1000
0001
,
1000
0000
0100
0000
1000
0000
0010
0000
0100
0000
0001
0000
0010
0000
0100
1000
,
0001
0000
0100
0000
0001
0000
0010
0000
0100
1000
0001
0100
0001
0010
0100
1000
,
0001
0100
0001
0010
0100
1000
0010
1000
,
0100
0010
0001
0100
0001
0010
0100
1000
,
0002
0100
2003
0010
3002
0100
2003
0010
,
3002
0000
0010
0000
2003
0000
0100
0000
3001
0000
1000
0010
0100
0010
1000
0001
,
0010
0000
0100
0000
1000
0001
0000
0101
0000
0000
0100
0000
0010
0000
1000
0000
,
0100
0000
0010
0000
0001
1000
0000
1010
0000
0000
0010
0000
0100
0000
0001
0000
,
1000
0100
0010
0100
1000
0100
0010
0001
,
1000
0000
0001
0100
0001
0010
0100
1000
0001
0100
0001
0010
0100
1000
0001
0100
,
0020
2030
3002
0023
,
0230
0000
0000
0000
2300
0000
0000
0000
3002
0000
0000
0000
0103
0000
0001
0010
,
0100
0000
1000
0001
0100
0000
0010
1000
0001
0000
1000
0100
0010
0001
1000
0010
,
0100
0000
0001
0000
1001
0000
0000
0000
1000
0000
1100
0000
0000
0011
0000
0000
,
2001
3020
0230
0302
,
0023
0230
2300
3002
,
0203
0000
0000
0000
0320
0000
0000
0000
1030
0000
0001
0010
0100
1000
0001
0100
,
0010
0000
1000
0000
1001
0000
0000
1000
0100
0000
0010
0000
0001
0100
0000
0000
,
0220
0000
0000
0000
,
0300
0000
0000
0000
0000
0030
1001
0000
,
0000
0000
0000
0000
;
#NOTES:
     dance-double:
     :
     Easy:
     5:
     :
00000000
00000000
00000000
00000000
,
00000000
00000000
00000000
00000000
,
00000000
00000000
00000000
00000000
,
00000000
00000000
00000000
00000000
,
00000000
00000000
00000000
00000000
,
00000000
00000000
00000000
00000000
,
00000000
00000000
00000000
00000000
,
00000000
00000000
00000000
00000000
,
00000000
00000000
00000000
00000000
,
00002000
00000000
00000000
00000000
,
00000000
00000000
00000000
00000000
00000000
00000000
00000000
00000000
00000000
00000000
00000000
00000000
00000000
00003000
00000000
00000000
,
00011000
00000000
00000000
00000000
,
00000000
00000000
00000000
00000000
,
00001000
00000000
00000000
00000000
,
00010000
00000000
00010000
00000000
,
00001000
00000000
00000010
00000000
,
00000001
00000000
00000001
00000000
,
00000100
00000000
00001000
00000000
,
00010000
00000000
00001000
00000000
,
00010000
00000000
00100000
00000000
,
10000000
00000000
10000000
00000000
,
01000000
00000000
00010000
00000000
,
00001000
00000000
00010000
00000000
,
00001000
00000000
00000010
00000000
,
00000001
00000000
00000001
00000000
,
00000100
00000000
00001000
00000000
,
00010000
00000000
00001000
00000000
,
00011000
00000000
00000000
00000000
,
01100000
00000000
00000000
00000000
,
10010000
00000000
00000000
00000000
,
00011000
00000000
00000000
00000000
,
00001001
00000000
00000000
00000000
,
00000110
00000000
00000000
00000000
,
00000001
00000000
00000010
00000000
,
00000100
00000000
00001000
00000000
,
00000020
00000000
00000000
00000000
,
00000030
00000110
00000000
00000000
,
00000000
00000000
00000001
00000000
,
00001000
00000010
00010000
00000000
,
00001000
00000000
01000000
00000000
,
00010000
00100000
01000000
00000000
,
10010000
00000000
00000000
00000000
,
00011000
00000000
00000000
00000000
,
00010000
00000000
00000100
00000000
,
00000010
00000000
00000001
00000000
,
00001001
00000000
00000001
00000100
,
00001000
00000000
00010000
00000000
,
00001000
00000000
00010000
00100000
,
10000000
00000000
00010000
00000000
,
10010000
00000000
00000000
00000000
,
01100000
00000000
00000000
00000000
,
10000000
00000000
01000000
00000000
,
00100000
00000000
00001000
00000000
,
00010000
00010000
00010000
00000000
,
00001000
00001000
00001000
00000000
,
00010000
00010000
00010000
00000000
,
00001000
00011000
00000000
00000000
,
00010000
00010000
00010000
00000000
,
00001000
00001000
00001000
00000000
,
00010000
00000000
00001000
00000000
,
00010000
00011000
00001000
00011000
,
00000200
00000000
00000000
00000000
,
00000020
00000000
00000330
00001001
,
00000000
00000000
00000000
00000000
;
#NOTES:
     dance-double:
     :
     Medium:
     8:
     :
00000000
00000000
00000000
00000000
,
00000000
00000000
00000000
00000000
,
00000000
00000000
00000000
00000000
,
00000000
00000000
00000000
00000000
,
00000000
00000000
00000000
00000000
,
00000000
00000000
00000000
00000000
,
00000000
00000000
00000000
00000000
,
00000000
00000000
00000000
00000000
,
00000000
00000000
00000000
00000000
,
00012000
00000000
00000000
00000000
,
00000000
00000000
00000000
00003000
,
00010010
00010000
00001000
00000010
,
00000001
00000001
00000100
00001000
,
00010000
00001000
00010000
01000000
,
10000000
00100000
01000000
00010000
,
10000000
00100000
00010000
00001000
,
00010000
00001000
00000010
00000001
,
00000100
00000010
00000100
00000001
,
00000010
00000100
00001000
00000010
,
00000110
00010000
00001000
00000100
,
00001000
00010000
01000000
00010000
,
00001000
00011000
00000000
00001000
,
01000000
00100000
00010000
00100000
,
10000000
01000000
00100000
01000000
,
10000000
00100000
00010000
00001000
,
00010000
01000000
00100000
00001000
,
00000010
00000001
00000100
00000010
,
00001000
00000000
00000000
00000000
00000100
00000000
00000000
00000110
00000000
00000000
00000000
00000000
00000000
00000000
00000000
00000000
,
00010000
00000000
00000000
00000000
00001000
00000000
00000000
00011000
00000000
00000000
00000000
00000000
00000000
00000000
00000000
00000000
,
01000000
00000000
00000000
00000000
00100000
00000000
00000000
10100000
00000000
00000000
00000000
00000000
00000000
00000000
00000000
00000000
,
00001000
00010000
01000000
10000000
,
00010000
00000000
00000000
00000000
01000000
00000000
00000000
01100000
00000000
00000000
00000000
00000000
00000000
00000000
00000000
00000000
,
00001000
00000000
00000000
00000000
00010000
00000000
00000000
00011000
00000000
00000000
00000000
00000000
00000000
00000000
00000000
00000000
,
00001000
00000010
00000001
00000001
,
00000100
00000000
00001000
00000000
00010000
00000000
01000000
10000000
,
00200000
00000000
00000000
00000000
,
00300000
00000000
10010000
00000000
10000000
01000000
10000000
01000000
,
00000000
00100000
00010000
00000000
01000000
00000000
00001000
00010000
,
00000000
00000100
00001000
00000000
00000010
00010000
00001000
00000000
,
00020000
00100000
00032000
00000010
,
00023000
00100000
00031000
00000000
,
00001000
00000000
00000000
00000000
00010000
00000000
00000000
00010010
00000000
00000000
00000000
00000000
00000000
00000000
00000000
00000000
,
00010000
00000000
00000000
00000000
00001000
00000000
00000000
00101000
00000000
00000000
00000000
00000000
00000000
00000000
00000000
00000000
,
00001000
00010000
00001000
00000100
,
00000010
00000000
00001000
00000001
00001000
00000000
00000001
00000010
,
00000000
00000100
00001000
00000010
00010000
00000000
00001000
00000100
,
00000000
00000010
00001000
00000000
00000001
00000010
00000100
00001000
,
00000020
00000100
00001000
00010000
,
00001000
00000100
00010030
00000000
,
00001000
00000000
00000000
00000000
00010000
00000000
00000000
00101000
00000000
00000000
00000000
00000000
00000000
00000000
00000000
00000000
,
00010000
00000000
00000000
00000000
00001000
00000000
00000000
00010010
00000000
00000000
00000000
00000000
00000000
00000000
00000000
00000000
,
00010000
00001000
00010000
00000000
00100000
01000000
00100000
00000000
,
10000000
00000000
00010000
00000000
00100000
01000000
10000000
00000000
,
00200000
02300000
03002000
00023000
,
00030200
00000320
00000230
00002300
,
00003002
00000203
00000320
00001030
,
00000000
00000000
00000001
00000000
00000001
00000000
00000000
00000000
00000000
00000000
00001000
00000000
00000000
00000010
00000000
00000000
,
00000200
00000302
00000023
00000230
,
00020300
00032000
02003000
03200000
,
20300000
30020000
00230000
01300000
,
00000000
00000000
10000000
00000000
10000000
00000000
00000000
00000000
00000000
00000000
00010000
00000000
00000000
01000000
00000000
00000000
,
00200000
00000000
00000000
00000000
,
02000000
00000000
03300000
00011000
,
00000000
00000000
00000000
00000000
;
#NOTES:
     dance-double:
     :
     Hard:
     14:
     :
00000000
00000000
00000000
00000000
,
00000000
00000000
00000000
00000000
,
00000000
00000000
00000000
00000000
,
00000000
00000000
00000000
00000000
,
00000000
00000000
00000000
00000000
,
00000000
00000000
00000000
00000000
,
00000000
00000000
00000000
00000000
,
00000000
00000000
00000000
00000000
,
00000000
00000000
00000000
00000000
,
00001000
00000000
00010000
00000000
00001000
00010000
00000000
00001000
00010000
00000000
00001000
00010000
00000000
00001000
00010000
00000000
,
00001000
00000000
00000000
01000000
00100000
00000000
00000000
10000000
00010000
00000000
00000000
00000000
00000000
01000000
00000000
00000000
,
10010000
10000000
01000000
00100000
00010000
10000000
00100000
00010000
,
00001000
00100000
00010000
00000010
00001000
00010000
00000010
00001000
,
00000100
00000010
00000001
00000100
00001000
00010000
00000100
00000010
,
00001000
00010000
00001000
00010000
00100000
01000000
10000000
00010000
,
00100000
10000000
01000000
00100000
00010000
00001000
00000100
00000001
,
00000100
00001000
00000010
00010000
00001000
00000100
00000010
00010000
,
00001000
00000010
00000100
00010000
00001000
00000100
00000001
00000100
,
00001000
00000000
00010000
00000000
00100000
00000000
01000000
00000000
00010000
00000000
10000000
00010000
10000000
01000000
00100000
00010000
,
10000000
00100000
00010000
00001000
00000100
00000010
00010000
00001000
,
00000010
00000100
00010000
00001000
00000010
00000001
00000100
00000010
,
00001000
00020000
00000200
00000000
00030000
00000300
00001000
00010000
,
00001000
00000010
00000100
00010000
01000000
10000000
00100000
10000000
,
01000000
00100000
00010000
01000000
00100000
00010000
00001000
00000100
,
00000010
00001000
00000100
00000001
00000100
00001000
00000010
00010000
,
00001000
01000000
00100000
00010000
00001000
00010000
00000100
00000010
,
00000001
00000000
00000100
00000010
00000000
00000000
00001000
00000000
00000100
00001000
00000100
00000000
00010000
00001000
00010000
00000000
,
00011000
00000000
00000000
00000000
00001000
00000000
01000000
00100000
00000000
00000000
10000000
00000000
00100000
00000000
00010000
00000000
,
00011000
00000000
00000000
00000000
00010000
00000000
00000100
00000010
00000000
00000000
00000001
00000000
00000010
00000000
00001000
00000000
,
00011000
00000000
00000000
00000000
00001000
00000000
01000000
00100000
00000000
00000000
10000000
00000000
00100000
00000000
00010000
00000000
,
00001000
00000000
00010000
00000000
00000100
00000010
00000000
00000001
00000000
00000100
00000000
00001010
00000000
00000000
00000000
00000000
,
00010000
00000000
00010000
00000000
00001000
00000000
00000010
00000001
00000000
00000000
00000010
00000000
00000100
00000000
00010000
00000000
,
00001000
00000000
00001000
00000000
00010000
00000000
00100000
10000000
00000000
00000000
00100000
00000000
01000000
00000000
00001000
00000000
,
00010000
00000100
00000010
00000001
00001000
00000001
00000100
00000010
,
00001000
00010000
01000000
00100000
10000000
01000000
00100000
00010000
,
10000000
00000000
00010000
10000000
00010000
00000000
01000000
00100000
00000000
01000000
00100000
00000000
10000000
00010000
10000000
00000000
,
00010000
00100000
01000000
10000000
00010000
00000000
00000000
00000000
10000000
00000000
01000000
00000000
00010000
00000000
00001000
00000000
,
00000010
00000001
00000100
00001000
00010000
00000100
00001000
00010000
,
00000010
00010000
00001000
00000100
00010000
00001000
00000100
00000001
,
00000010
00000100
00001000
01000000
00010000
00001000
00000010
00000001
,
00000100
00000010
00001000
00100000
00010000
00001000
00000100
00000001
,
00000010
00000000
00000100
00000000
00001000
00000010
00000000
00000110
00000000
00000000
00001000
00000001
00001000
00000000
00000100
00000000
,
00000010
00000000
00000001
00000000
00000100
00001000
00000000
00011000
00000000
00000000
00000000
00000000
00000000
00000000
10000000
00100000
,
01000000
00010000
10000000
01000000
00100000
00010000
10000000
00100000
,
10000000
00000000
01000000
00000000
00100000
00000000
00010000
00000000
10000000
00000000
00100000
01000000
00010000
10000000
00010000
00100000
,
01000000
10000000
00100000
00010000
00001000
00100000
00010000
00001000
,
01000000
00001000
00010000
00100000
00001000
00010000
00100000
10000000
,
01000000
00100000
00010000
00000010
00001000
00010000
01000000
10000000
,
00100000
01000000
00010000
00000100
00001000
00010000
00100000
10000000
,
01000000
00000000
00100000
00000000
00010000
00001000
00000000
00001100
00000000
00000000
00000100
00000000
00000010
00000000
00000001
00000000
,
00000100
00000000
00000010
00000000
00001000
00010000
00000000
01010000
00000000
00000000
01000000
00000000
00100000
00000000
00010000
00000000
,
00001000
00100000
00010000
00000010
00001000
00010000
00000010
00001000
,
00100000
00000000
00010000
00000000
00001000
00000000
00100000
00000000
00010000
00000000
10000000
00010000
01000000
00100000
10000000
00010000
,
00200000
02300000
23000000
30200000
,
00320000
00000000
00000000
00000000
00032000
00000000
00000000
00000000
00003200
00000000
00000000
00000000
00000301
00000000
00001000
00000100
,
00000010
00000000
00000001
00001000
00000010
00000000
00000100
00000001
00001000
00000000
00000001
00000010
00000001
00001000
00000010
00000100
,
00000001
00000000
00001000
00000000
00001001
00000000
00000000
00000000
00001000
00000000
00000010
00000000
00000000
00000100
00000000
00000000
,
00000002
00000023
00002030
00023000
,
02030000
23000000
30200000
00320000
,
00032000
00000000
00000000
00000000
00003200
00000000
00000000
00000000
00000310
00000000
00010000
00001000
00010000
00001000
00010000
00001000
,
00010000
00000000
00000100
00000000
00000110
00000000
00000000
00000000
00001000
00000000
00000001
00000000
00000000
00000100
00000000
00000000
,
00000020
00000000
00000000
00000000
,
00020000
00000000
00000030
01030000
,
00000000
00000000
00000000
00000000
;
