
//----- song ID: meum2 -----//
#TITLE:めうめうぺったんたん!! (ZAQUVA Remix);
#ARTIST:Remixed by BEMANI Sound Team "ZAQUVA";
#TITLETRANSLIT:Meumeupettantan!! (ZAQUVA Remix);
#BANNER:Meumeupettantan!! (ZAQUVA Remix).png;
#BACKGROUND:Meumeupettantan!! (ZAQUVA Remix)-bg.png;
#CDTITLE:./CDTitles/DDR A3.png;
#MUSIC:Meumeupettantan!! (ZAQUVA Remix).ogg;
#SAMPLESTART:78.729;
#SAMPLELENGTH:15;
#BPMS:0=200;
#BGSTAGE:15;
#NOTES:
     dance-single:
     :
     Beginner:
     4:
     :
0000
0000
0000
0000
,
0000
0000
0000
0000
,
0000
0000
0000
0000
,
0000
0000
0000
0000
,
0000
0000
0000
0000
,
0000
0000
0000
0000
,
0001
0000
0000
0000
,
1000
0000
0000
0000
,
0001
0000
0000
0000
,
1000
0000
0000
0000
,
0000
0000
0010
0010
,
0000
0000
0001
0001
,
0000
0000
0010
0010
,
0000
0000
1000
1000
,
0000
0000
0001
0001
,
0000
0000
0010
0010
,
0010
0000
0010
0000
,
1000
1000
0000
0000
,
1000
0000
0000
0000
,
1000
0000
0100
0000
,
1000
0000
0000
0000
,
1001
0000
0000
0000
,
0001
0000
0001
0000
,
0010
0000
0000
0000
,
0100
0000
0100
0000
,
0010
0000
0000
0000
,
0010
0000
0010
0000
,
1000
0000
0000
0000
,
1000
0000
1000
0000
,
0100
0000
0000
0000
,
1000
0000
0010
0000
,
1000
0000
0000
0000
,
2000
0000
0000
0000
,
3000
0000
0000
0000
,
1000
0000
1000
0000
,
0100
0000
0000
0000
,
0100
0000
0010
0000
,
0100
0100
0100
0000
,
1000
0000
0000
0000
,
0100
0000
0000
0000
,
0001
0000
0000
0000
,
0000
0000
0000
0000
,
0001
0000
0001
0000
,
0100
0000
0000
0000
,
0100
0000
0010
0000
,
0100
0100
0100
0000
,
0001
0000
0000
0000
,
0100
0000
0000
0000
,
1000
0000
0000
0000
,
0000
0000
0000
0000
,
1000
0000
0000
0000
,
0010
0000
0000
0000
,
0200
0000
0000
0000
,
0300
0000
0000
0000
,
0001
0000
0000
0000
,
0010
0000
0000
0000
,
0200
0000
0000
0000
,
0300
0000
0000
0000
,
1001
0000
0000
0000
,
1001
0000
0000
0000
,
1001
0000
0000
0000
,
0000
0000
0000
0000
,
0002
0000
0000
0000
,
0003
0000
0000
0000
,
2000
0000
0000
0000
,
3000
0000
0000
0000
,
1000
0000
0100
0000
,
0010
0000
0000
0000
,
0010
0000
0010
0000
,
0001
0000
0000
0000
,
0001
0000
0100
0000
,
0010
0000
0000
0000
,
0010
0000
0010
0000
,
1000
0000
0000
0000
,
1000
0000
0100
0000
,
0100
0000
0000
0000
,
1000
0000
0010
0000
,
0001
0000
0000
0000
,
0002
0000
0000
0000
,
0003
0000
0000
0000
,
0010
0000
0100
0000
,
0010
0000
0000
0000
,
1001
0000
0000
0000
,
1001
0000
0000
0000
,
1001
0000
0000
0000
,
0000
0000
0000
0000
,
0001
0000
0010
0000
,
0001
0000
0000
0000
,
0100
0000
0000
0000
,
1001
0000
0000
0000
,
1000
0000
0010
0000
,
1000
0000
0000
0000
,
0100
0000
0000
0000
,
2000
0000
3000
0000
,
0002
0000
0003
0000
,
0020
0000
0030
0000
,
0100
0100
0100
0200
,
0000
0000
0000
0000
,
0000
0000
0000
0000
,
0000
0000
0000
0000
0000
0000
0000
0300
,
0000
0000
1001
0000
,
0000
0000
0000
0000
;
#NOTES:
     dance-single:
     :
     Easy:
     7:
     :
0000
0000
0000
0000
,
0000
0000
0000
0000
,
0000
0000
0000
0000
,
0000
0000
0000
0000
,
0000
0000
0000
0000
,
0000
0000
0000
0000
,
1000
0000
0010
0010
,
0001
0000
0010
0010
,
1000
0000
0010
0010
,
0200
0000
0000
0300
,
1000
0000
0100
0100
,
0001
0000
0100
0100
,
0010
0000
0100
0100
,
0001
0000
0100
0100
,
1000
0000
0010
0010
,
0001
0000
0010
0010
,
0100
0000
0010
0000
,
0001
1000
0000
1001
,
0001
0000
0100
0000
,
0001
0100
0001
0100
,
0001
1000
0100
1000
,
0100
0000
0000
1001
,
1000
0010
1000
0000
,
0010
1000
0010
0000
,
0100
0001
0100
0000
,
0001
0100
0001
0000
,
0001
1000
1001
0000
,
0110
0000
1001
0000
,
0100
0010
0110
0000
,
1001
0000
0110
0000
,
1000
0010
1000
0000
,
0001
0100
0001
0000
,
2000
0000
0000
3000
,
1000
1000
1001
0000
,
0001
0000
0010
0000
,
0001
0100
0001
0000
,
0100
0000
0010
0000
,
0100
0100
0100
0000
,
0010
0000
1000
0000
,
0001
0000
0100
0000
,
0010
0000
0110
0000
,
1001
0000
0000
0000
,
1000
0000
0100
0000
,
1000
0010
1000
0000
,
0010
0000
0100
0000
,
0010
0010
0010
0000
,
0100
0000
0001
0000
,
1000
0000
0010
0000
,
0100
0000
0110
0000
,
1001
0000
0000
0000
,
1000
0100
0010
0000
,
0100
0010
0001
0000
,
0001
0100
0010
0000
,
0100
0010
1000
0000
,
0001
0000
0100
0000
,
1000
0000
0100
0000
,
0001
0000
0010
0000
,
1000
0000
0010
0000
,
0001
0000
1001
0000
,
0100
0000
0110
0000
,
1000
0000
0001
0000
,
1001
0000
0000
0000
,
2000
0000
0000
3000
,
2000
0000
0000
3000
,
0002
0000
0000
0000
,
0003
0000
0000
0000
,
0001
0010
0001
0000
,
1000
0100
1000
0000
,
0001
0100
0010
1000
,
0010
0100
0001
0000
,
1000
0100
0010
0000
,
0001
0010
0100
0000
,
1000
0010
0100
0010
,
1000
1001
0000
0000
,
0001
0010
0100
0000
,
1000
0010
0100
0000
,
0001
0100
0001
1000
,
0100
0010
0100
0000
,
1000
0000
0110
0000
,
0001
1000
0001
0000
,
1000
0010
0100
0000
,
0001
0010
0100
0000
,
1001
0000
0110
0000
,
1001
0000
0110
0000
,
0001
1000
0001
0000
,
1000
0001
1000
0000
,
1001
0000
0000
0000
,
0000
0000
0010
0010
,
1001
0000
0000
0000
,
0100
0000
0100
0000
,
1001
0000
0000
0000
,
0000
0000
1000
1000
,
0001
0010
0001
0000
,
0100
0100
0100
0000
,
0010
0010
0010
0000
,
1000
1000
1000
0000
,
0001
0000
0001
2002
,
0000
0000
0000
0000
,
0000
0000
0000
0000
,
0000
0000
0000
0000
0000
0000
0000
3003
,
0000
0000
0220
0000
,
0000
0000
0330
0000
,
0000
0000
0000
0000
;
#NOTES:
     dance-single:
     :
     Medium:
     10:
     :
0000
0000
0000
0000
,
0000
0000
0000
0000
,
0000
0000
0000
0000
,
0000
0000
0000
0000
,
0000
0000
0000
0000
,
0000
0000
0000
0000
,
0001
0000
1100
1100
,
0010
0000
0101
0101
,
0010
0000
1001
1001
,
0020
0000
0100
0130
,
0010
0001
1000
0000
0010
0000
0010
0000
,
1000
0001
0100
0000
0010
0000
0010
0000
,
1000
0001
0010
0000
0100
0000
0100
0000
,
1000
0001
0100
0000
0001
0000
0001
0000
,
0010
1000
0100
0000
1000
0000
0010
0000
,
0001
0100
0010
0000
0001
0000
0010
0000
,
1000
0001
0000
0000
0100
0010
0000
0000
,
1000
0001
1000
0001
0000
0000
0110
0000
,
1000
0100
0010
0001
,
0100
0010
0100
0000
0010
1000
0010
0000
,
1000
0100
1000
0000
0100
0010
0100
0000
,
1000
0001
1000
0001
0000
0000
1001
0000
,
1000
0010
1010
0000
,
0100
0000
0010
0000
0110
0000
0001
1000
,
0001
0010
0011
0000
,
0100
0010
0110
0000
,
1000
1000
0100
0000
0010
0000
0001
0000
,
0011
0001
0101
0000
,
0001
0001
0100
0000
0010
0000
1000
0000
,
1010
1000
1100
0000
,
1000
0001
1000
0000
1001
0000
0000
0000
,
1100
0110
0011
0000
,
0002
2003
3002
2003
,
3010
0100
0010
0000
0110
0000
1001
0000
,
1000
0000
0100
0010
0000
0001
0010
0000
,
0001
0000
1000
0010
0000
0100
0010
0000
,
1000
0000
0001
0010
0000
0100
1000
0000
,
1001
0000
0110
0000
0001
1000
0001
0000
,
1000
0100
0001
0100
,
1000
1001
0001
1001
,
0000
0000
0000
0001
0000
1000
0001
0000
0000
1000
0000
0001
,
0000
0000
2002
3003
,
0001
0000
0010
0100
0000
1000
0100
0000
,
1000
0000
0001
0100
0000
0010
0100
0000
,
0001
0000
1000
0100
0000
0010
0001
0000
,
1001
0000
0110
0000
1000
0001
1000
0000
,
0001
0010
1000
0010
,
0001
1001
1000
1001
,
0000
0000
0000
1000
0000
0001
1000
0000
0000
0001
0000
1000
,
0000
0000
2002
3003
,
0001
0100
0010
1000
,
0001
0100
0001
0000
1000
0100
1000
0000
,
0010
0110
0100
0110
,
0010
0100
0010
0000
0110
0000
1001
0000
,
1000
0100
0010
0001
,
1000
0010
1000
0000
0001
0010
0001
0000
,
1000
0100
0010
0000
0001
0100
0010
0000
,
1000
0001
1000
0000
0002
0000
0003
0000
,
1000
0000
0010
0100
0010
0000
0100
0001
,
0000
0010
0001
0000
0010
0000
1001
0000
,
0011
0000
0000
1100
0000
0000
0110
0000
,
0000
0001
0001
0000
2000
0000
0000
0000
,
3001
0000
0000
0000
0001
0000
0000
0100
0000
0000
0000
0000
0110
0000
0000
0000
,
1000
0000
0000
0000
1000
0000
0000
0100
0000
0000
0000
0000
0110
0000
0000
0000
,
0001
0000
0000
0000
1000
0000
0000
0001
0000
0000
0000
0000
1001
0000
0000
0000
,
0110
0000
0000
0000
,
0001
0000
1000
0010
0000
1000
1000
0000
,
0001
0000
0010
0100
0000
0000
0000
0000
,
1000
0000
0100
0000
0001
0100
1000
0000
,
0001
0010
0100
1000
0000
0001
0001
0000
,
1000
0000
0001
0100
0000
0001
0001
0000
,
1000
0000
0100
0010
0000
0000
0000
0000
,
0001
0000
0010
0000
1000
0010
0001
0000
,
1000
0100
0010
0001
0000
0000
0000
0000
,
1000
0000
0001
0100
0000
0010
0010
0000
,
0100
0000
0001
0010
0000
0000
0000
0000
,
0001
1000
0100
0000
0010
0001
1000
0000
,
0010
0000
0010
0100
0000
0000
0000
0000
,
0000
0002
0023
0230
,
1300
0000
0000
1000
0001
0000
0000
1001
,
0000
0000
0001
0000
1000
0000
0010
0100
,
0000
1001
1000
0001
,
0110
0000
1001
0000
0010
0100
0010
0000
,
1001
0000
0110
0000
1000
0001
1000
0000
,
0001
0100
0000
0000
0010
1000
0000
0000
,
0100
0010
0100
0010
0000
0000
1001
0000
,
1000
0000
0001
0010
0000
0100
0000
0010
,
0000
0001
0000
1000
0100
0000
0100
0000
,
1000
0000
0010
0100
0000
0001
0000
0100
,
0010
1000
0110
1001
,
0001
0000
0010
0100
0000
1000
0000
0010
,
0000
1000
0000
0100
0010
0000
0001
0000
,
0010
0011
0100
1100
,
1000
0001
1000
0001
1000
0000
0001
0000
,
0100
0010
0100
0010
0100
0000
0010
0000
,
1000
0001
1000
0001
1000
0000
0001
0000
,
0010
0100
0010
0100
0010
0000
0220
0000
,
0000
0000
0000
0000
,
0000
0000
0000
0000
,
0000
0000
0000
0000
0000
0000
0000
0330
,
0000
0000
2002
0000
,
0000
0000
3003
0000
,
0000
0000
0000
0000
;
#NOTES:
     dance-single:
     :
     Hard:
     13:
     :
0000
0000
0000
0000
,
0000
0000
0000
0000
,
0000
0000
0000
0000
,
0000
0000
0000
0000
,
0000
0000
0000
0000
,
0000
0000
0000
0000
0000
0000
0000
0010
,
1000
0010
0000
0000
0101
0000
0101
0000
,
0010
0001
0000
0000
1100
0000
1100
0000
,
0010
1000
0000
0000
0101
0000
0101
0000
,
0020
0000
0100
0130
,
0010
1000
0001
0000
0010
0000
0110
0000
,
1000
0001
0100
0000
0010
0000
0110
0000
,
1000
0001
0010
0000
0100
0000
1100
0000
,
0001
1000
0010
0000
0100
0000
0101
0000
,
0010
0001
0100
0000
0001
0000
0110
0000
,
0010
1000
0100
0000
1000
0000
0110
0000
,
0001
0100
0000
0001
1000
0100
0000
0010
,
0001
0100
0010
1000
0000
0001
1000
0000
,
0001
0000
0000
0100
0010
1000
0000
0100
,
0010
0001
0000
0100
0010
1000
0000
0100
,
0010
0001
1000
0000
0100
0010
0001
0000
,
1000
0010
0100
0001
0000
1000
0001
0000
,
0011
0011
0101
0101
,
1010
0000
1010
0000
1100
0000
1000
0100
,
1100
1100
0110
0110
,
0011
0000
0000
0000
0011
0000
0000
0000
0001
1000
0001
0000
1000
0000
0000
0000
,
0001
0001
0010
0010
0100
0000
0010
0010
,
0001
0000
0100
0010
0100
0000
1001
0000
,
1000
1000
0100
0100
1000
0000
0010
0010
,
0100
0000
0001
0001
0010
0010
0110
0000
,
0001
0000
0000
0001
0000
0000
1000
0000
0000
1000
0000
0000
1001
0000
0000
0000
0000
0000
1000
0000
0000
0000
1000
0000
,
0100
0000
0100
0010
0000
0010
0001
0000
0000
1000
0000
0000
,
0020
0030
0020
0030
0020
0030
0010
0100
,
0010
1000
0100
0010
0110
0000
1001
0000
,
1000
0000
0000
0010
0100
0000
0001
0000
0000
0000
0001
0000
0010
0000
0000
0000
,
0001
0000
0000
0010
0100
0000
1000
0000
0000
0000
1000
0000
0010
0000
0000
0000
,
1000
0000
0000
0001
0100
0000
0010
0000
0000
0000
0010
0000
1000
0000
0000
0000
,
0110
0000
1001
0000
0110
1000
0001
0000
,
1000
0000
0000
0001
0000
0000
0010
0000
0000
0001
0000
0100
,
0000
0000
0001
0100
0000
0000
0010
0000
1000
0010
0000
0000
,
0000
0000
0000
1000
0000
0100
0010
0000
0000
0001
0000
1000
,
0000
0000
2002
3003
,
0001
0000
0000
0100
0010
0000
1000
0000
0000
0000
1000
0000
0100
0000
0000
0000
,
1000
0000
0000
0100
0010
0000
0001
0000
0000
0000
0001
0000
0100
0000
0000
0000
,
0001
0000
0000
1000
0010
0000
0100
0000
0000
0000
0100
0000
0001
0000
0000
0000
,
0110
0000
1001
0000
0110
0001
1000
0000
,
0001
0000
0000
1000
0000
0000
0100
0000
0000
1000
0000
0010
,
0000
0000
1000
0010
0000
0000
0100
0000
0001
0100
0000
0000
,
0000
0000
0000
0001
0000
0010
0100
0000
0000
1000
0000
0001
,
0000
0000
2002
3003
,
0001
0010
0001
0000
0010
1000
0010
0000
,
0001
0010
0001
0000
0100
1000
0100
0000
,
0001
0010
0100
0000
1000
0010
0100
0000
,
0001
0010
0100
1000
1001
0000
0110
0000
,
1000
0010
1000
0000
0010
0001
0010
0000
,
1000
0100
1000
0000
0100
0001
0100
0000
,
1000
0100
0010
0001
1000
0100
0010
0001
,
0100
0010
0100
0010
0200
0000
0300
0000
,
0000
0001
0100
0001
0010
0100
1000
0001
,
0200
0000
0310
0100
0010
0000
1001
0000
,
0000
1000
0100
0001
0100
1000
0001
0100
,
0000
0000
0010
0000
0010
0000
0000
0000
1000
0001
0000
0000
1000
0000
0000
0000
,
0001
0000
0100
0000
0001
0000
0000
1000
0000
0100
0000
0000
1000
0000
0000
0000
,
0001
0000
0010
0000
0001
0000
0000
1000
0000
0010
0000
0000
1000
0000
0000
0000
,
0010
0000
0100
0000
0010
0000
0000
1000
0000
0001
0000
0000
1000
0000
0001
0000
,
1000
0000
0000
0000
,
1000
0100
0010
0100
0000
1000
1000
1000
,
0001
0100
0010
0100
0000
0000
0000
0000
,
0101
1100
1010
0011
,
1000
0100
0010
0001
0000
0001
0001
0001
,
1000
0010
1000
0001
0000
0100
0100
0100
,
0001
0010
0001
1000
0000
0000
0000
0000
,
1000
0100
0010
0001
1000
0100
0010
0001
,
1000
1000
0001
1001
0000
0000
0000
0000
,
0001
0010
1000
0010
0000
0001
0001
0001
,
0100
1000
0100
0001
0000
0000
0000
0000
,
0011
1010
1100
0101
,
1000
0010
0100
0001
0000
0000
0000
0000
,
0000
1100
0110
0011
,
1001
0000
0000
1000
0001
0000
0000
1000
,
0000
0000
1010
0000
1000
0100
0010
0001
,
0000
0000
0011
0000
0001
0100
0010
0000
,
0110
0000
1001
0000
0110
1000
0001
0000
,
0110
0000
1001
0000
0110
0001
1000
0000
,
0001
0010
0000
0100
1000
0010
0000
0100
,
0001
0010
0001
0100
0000
0010
0110
0000
,
2000
0000
3010
0100
0000
0001
0100
0001
,
0000
0010
0001
0100
0001
0000
1001
0000
,
0002
0000
0013
0100
0000
1000
0100
1000
,
0001
0100
0010
1000
1010
0000
1001
0000
,
2000
0000
3100
0001
0000
0100
1000
0001
,
0000
0100
1000
0100
0001
0000
1001
0000
,
1000
0001
1000
0001
1000
0000
0000
0000
0010
0100
0010
0100
0010
0000
0000
0000
,
1000
1000
0100
1000
0010
0000
0110
0000
,
0001
0001
0100
0001
0010
0000
0110
0000
,
0001
0001
0010
0100
1000
0000
1001
0000
,
1000
0001
0100
0010
1000
0000
0220
0000
,
0000
0000
0000
0000
,
0000
0000
0000
0000
,
0000
0000
0000
0000
0000
0000
0000
0330
,
0000
0000
2002
0000
,
0000
0000
3003
0000
,
0000
0000
0000
0000
;
#NOTES:
     dance-single:
     :
     Challenge:
     17:
     :
0000
0000
0000
0000
,
0000
0000
0000
0000
,
0000
0000
0000
0000
,
0000
0000
0000
0000
,
0000
0000
0000
0000
,
0000
0000
0000
0000
0000
0000
0000
0100
,
1000
0010
0000
0000
1000
0001
0100
0001
,
0010
0200
0000
0300
1000
0001
0100
0100
,
0001
0020
0000
0030
0001
1000
0100
0000
,
0010
0001
0010
0001
0010
0001
0010
0001
1000
0000
0001
0000
0100
0000
0000
0000
,
0001
1000
0001
1000
0100
0010
0100
0010
,
0001
0000
0100
0000
0010
0000
0100
0000
0010
1000
0100
0000
0010
0001
0100
0000
,
0001
1000
0001
1000
0010
0100
0010
0100
,
0001
0010
0100
0000
1000
0010
0100
0000
0001
0000
1000
0000
0100
0000
0000
0000
,
1000
0100
0001
0100
1000
0010
0010
0010
,
0001
0100
1000
0100
0001
0010
0010
0010
,
0100
0010
0000
0001
0100
0010
0000
1000
,
0001
1000
0001
0000
0100
0000
0010
0000
0000
0000
0100
0000
0220
0000
0330
0000
,
1000
1000
0100
0010
0001
0100
0010
0100
,
0001
0001
0010
0100
0010
0001
0010
0001
,
1000
0100
0010
0001
1000
0100
0010
0001
,
0100
0010
0100
0000
0001
0000
1000
0000
0000
0000
0010
0000
0220
0000
0330
0000
,
1001
0110
1001
0110
,
1001
0000
0000
0000
0011
0000
0000
0000
0110
0000
0000
0000
1100
0000
1000
0100
,
0010
0011
1100
0011
,
1100
0000
0000
0000
0011
0000
0000
0000
1000
0100
1000
0000
0001
0000
0010
0001
,
0100
0100
0010
0010
1010
0000
1001
0001
,
0011
0000
0000
0000
0110
0000
0100
1000
0001
0000
0000
0000
1001
0000
0000
0000
,
0001
0001
0100
0100
0101
0000
1010
0010
,
1010
0000
1100
0100
1100
1000
1010
0000
,
1001
0000
0000
0110
0000
0000
1001
0000
0000
0110
0000
0000
1001
0000
0000
0000
0000
0000
1001
0000
0000
0000
0001
0000
,
0010
0000
0100
1000
0000
0001
0100
0010
1000
0001
0100
0010
,
2000
3000
2000
3000
2000
3000
1000
0001
,
0100
0000
0010
0000
1000
0000
0001
0010
0200
0000
0300
0000
0220
0000
0330
0000
,
1000
0000
0001
0010
0001
0000
1000
0000
0010
0100
0001
0000
0010
0000
0001
0000
,
1000
0000
0100
0010
0001
0000
1000
0000
0010
0100
0010
0000
1000
0000
1000
0000
,
0001
0000
0010
0100
1000
0000
0010
0000
0100
0001
1000
0010
1000
0000
0001
0000
,
1001
0100
0110
0001
1001
0110
1001
0000
,
1000
0000
1000
0100
0000
0100
0010
0000
0001
0100
0000
0001
,
0010
0100
0010
0100
0000
0100
1000
0000
0010
1000
0000
0100
,
1000
0000
0000
1001
0000
0001
0100
0000
1000
0100
0000
0001
,
0000
0000
0001
0010
0000
0100
2000
0000
0000
3000
0000
0000
,
1000
0000
0001
0100
0001
0000
0010
0000
0100
1000
0000
0100
1000
0000
0001
0000
,
1000
0000
0100
0010
0001
0000
1000
0000
0010
0100
0000
0010
0100
0000
0001
0000
,
0100
0000
0010
1000
0100
0000
0010
0000
0001
1000
0000
0001
1000
0000
0001
0000
,
1001
0010
0110
1000
1001
0110
1001
0000
,
0001
0000
0001
0010
0000
0010
0100
0000
1000
0010
0000
1000
,
0100
0010
0100
0010
0000
0010
0001
0000
0100
0001
0000
0010
,
0001
0000
1000
0100
0000
0010
0001
0000
1000
0100
0000
0020
,
0000
0000
1030
0001
0000
0100
0020
0000
0000
0030
0000
0000
,
0001
0000
0100
0010
1000
0000
0001
0000
1000
0000
0100
0010
0001
0000
1000
0000
,
0010
0000
0100
0001
1000
0000
0100
0000
0010
0000
0100
1000
0001
0000
0100
0000
,
0010
1000
0010
0000
0100
0000
0001
0000
0010
0001
0010
0000
0001
0000
0100
0000
,
0010
1000
0100
0010
0110
0000
1001
0000
,
0001
0000
1000
0010
0100
0000
0001
0000
1000
0000
0001
0010
0100
0000
1000
0000
,
0001
0000
0100
0010
0100
0000
0001
0000
1000
0000
0100
0010
0100
0000
1000
0000
,
0001
0010
0000
0100
1000
0000
0001
0000
1000
0010
0000
0100
0001
0000
1000
0000
,
0001
0000
0100
0010
0100
0000
0010
0000
1000
0001
1000
0001
1000
0000
0000
0000
,
0002
0000
0010
0000
1000
0000
1000
0000
0103
0000
0001
0010
0001
0000
2010
0000
,
0000
0000
0010
0000
0001
0000
0001
0000
3100
0000
1000
0010
1000
0000
1010
0000
,
1001
0000
0001
0100
0000
0000
1001
0000
1000
0100
0000
0000
0110
0000
1000
0100
,
0010
0000
0000
0001
0000
0000
0001
0000
0000
0001
0000
0000
1000
0000
0010
0000
0000
0000
0110
0000
0000
0000
0100
0000
,
0001
0000
0010
0000
0011
0000
0000
1000
0000
0010
0000
0000
1010
0000
0000
0001
,
0100
0000
0001
0000
0101
0000
0000
1000
0000
0100
0000
0000
1100
0000
0000
1000
,
0100
0000
0010
0000
1001
0000
0000
0010
0000
0100
0000
0000
1001
0000
1000
0001
,
1000
0010
0010
0010
1000
0001
1000
0001
,
0020
0100
0100
0100
,
0100
0100
0130
1001
,
0011
0100
1010
0100
1001
0110
1100
0101
,
0010
1000
0100
2000
0000
0010
3001
1000
,
0001
0010
0100
0000
1000
0000
0001
0000
0100
0010
1000
0000
0100
0010
0001
0000
,
1000
0100
0010
0000
0001
0000
0100
0000
0001
0010
0100
0000
1000
0010
0100
0000
,
0001
0100
0100
1000
0100
0100
0001
0010
,
0110
0000
0100
1000
0100
0000
1100
0000
1001
0000
0101
0000
0010
0100
0010
0100
,
0010
0010
1010
1000
1010
0001
0010
0001
,
0101
0000
0100
0000
0101
0000
0001
0000
0101
0000
0100
0010
1000
0000
0000
0000
,
1100
0010
0101
0010
1001
0110
0011
1010
,
0100
0001
0010
0002
0000
0100
1003
0001
,
0010
0010
0110
0000
1100
0000
1001
0000
,
1000
0010
0100
0000
0001
0000
1000
0000
0100
0010
0001
0000
0100
0000
0110
0000
,
0000
0000
0000
0000
1001
0000
0000
0000
0001
0010
0100
1000
0001
0000
1001
0000
,
0000
0000
0000
0000
0110
0000
0000
0000
1000
0010
0100
0001
1000
0000
0000
0000
,
1001
0000
0000
0000
0001
0100
0001
0100
0001
0000
0000
0000
0110
0000
0000
0000
,
1001
0000
0000
0000
1000
0100
1000
0100
1000
0000
0000
0000
0110
0000
0001
0000
,
1000
0100
0000
0010
0001
0100
0000
0010
,
1000
0010
1000
0000
0001
0000
0100
0000
0000
0000
0110
0000
1001
0000
0000
0000
,
1000
0100
1000
0100
0000
0110
0000
0011
,
0000
0001
0100
1000
0100
0001
1000
0000
,
0001
0010
0001
0010
0000
0110
0000
1100
,
1000
0000
0010
0000
0100
0000
0001
0000
0110
0000
1000
0001
1000
0000
0001
1000
,
0001
0100
0010
0100
0000
0100
0001
1000
,
0000
1000
0100
0010
0001
0011
1010
0000
,
1000
0000
0100
0001
0200
0000
0000
0000
1300
0000
0010
0001
0020
0000
0000
0000
,
0130
0100
0010
0010
0200
0300
0110
0000
,
0001
0000
0001
1000
0001
0000
1000
0000
0002
0000
0003
0000
1001
0000
0000
0000
,
1000
0100
1000
0000
0001
0000
0100
0000
0020
0000
0030
0000
1010
0000
0000
0000
,
1000
0100
1000
0000
0001
0010
0001
0000
0010
0000
0000
0000
0022
0000
0000
0000
,
0000
0000
0000
0000
,
0000
0000
0000
0000
,
0000
0000
0000
0000
0000
0000
0000
0033
,
0000
0000
2002
0000
,
0000
0000
3003
0000
,
0000
0000
0000
0000
;
#NOTES:
     dance-double:
     :
     Easy:
     7:
     :
00000000
00000000
00000000
00000000
,
00000000
00000000
00000000
00000000
,
00000000
00000000
00000000
00000000
,
00000000
00000000
00000000
00000000
,
00000000
00000000
00000000
00000000
,
00000000
00000000
00000000
00000000
,
00010000
00000000
00100000
00100000
,
10000000
00000000
01000000
01000000
,
00010000
00000000
00001000
00001000
,
00020000
00000000
00000000
00030000
,
00001000
00000000
00000010
00000010
,
00001000
00000000
00010000
00010000
,
00100000
00000000
00010000
00010000
,
00001000
00000000
00000100
00000100
,
00000001
00000000
00001000
00001000
,
00000100
00000000
00000010
00000010
,
00000001
00000000
00001000
00000000
,
00010000
00001000
00000000
00011000
,
00100000
00000000
00010000
00000000
,
10000000
01000000
10000000
01000000
,
00010000
00001000
00010000
00001000
,
00000010
00000000
00000000
00001001
,
00000001
00000100
00000001
00000000
,
00001000
00000100
00001000
00000000
,
00000100
00010000
00000100
00000000
,
00010000
00001000
00010000
00000000
,
00001000
00010000
00011000
00000000
,
01100000
00000000
01100000
00000000
,
10000000
00010000
10010000
00000000
,
01100000
00000000
00011000
00000000
,
00010000
00010000
00010000
00000000
,
00001000
00001000
00001000
00000000
,
00020000
00000000
00000000
00030000
,
00001000
00010000
00011000
00000000
,
00001000
00010000
00000100
00000000
,
00001000
00000000
00001000
00000000
,
00000010
00000100
00000010
00000000
,
00000100
00000000
00000001
00001000
,
00000002
00000000
00000000
00000003
,
00000200
00000000
00000000
00000300
,
00000010
00000000
00010000
00000000
,
00011000
00000000
00000000
00000000
,
00010000
00001000
01000000
00000000
,
00010000
00000000
00010000
00000000
,
00100000
01000000
00100000
00000000
,
01000000
00000000
10000000
00010000
,
20000000
00000000
00000000
30000000
,
02000000
00000000
00000000
03000000
,
00100000
00000000
00001000
00000000
,
00011000
00000000
00000000
00000000
,
00010000
00000100
00001000
00000000
,
00000100
00001000
00000010
00000000
,
00000100
00000001
00000010
00000000
,
00000100
00001000
00000100
00000000
,
00010000
00000000
00001000
00000000
,
00100000
00010000
00100000
00000000
,
01000000
00000000
10000000
00000000
,
00100000
01000000
00100000
00000000
,
20000000
00000000
00000000
30000000
,
00020000
00000000
00000000
00030000
,
00100000
00000000
00001000
00000000
,
00011000
00000000
00000000
00000000
,
00020000
00000000
00000000
00030000
,
00020000
00000000
00000000
00030000
,
00002000
00000000
00000000
00000000
,
00003000
00000000
00000000
00000000
,
00001000
00010000
00001000
00000000
,
00001000
00010000
00001000
00000000
,
00001000
00010000
00000100
00001000
,
00000100
00001000
00000010
00000000
,
00001000
00000100
00000010
00000000
,
00000001
00000100
00000010
00000000
,
00001000
00000000
00000010
00000000
,
00010000
00011000
00000000
00000000
,
00001000
01000000
00010000
00000000
,
00100000
00010000
01000000
00000000
,
00100000
00000000
10000000
00000000
,
01000000
00100000
01000000
00000000
,
10000000
00010000
00100000
00000000
,
00001000
00010000
00001000
00000000
,
00011000
00000000
00000000
00000000
,
00011000
00000000
00000000
00000000
,
00010000
00000100
00001000
00000000
,
00000010
00001000
00000100
00000000
,
00010000
00001000
00100000
00010000
,
01000000
00000000
01100000
00000000
,
10010000
00000000
00000000
00000000
,
00000000
00000000
00100000
00100000
,
10010000
00000000
00000000
00000000
,
00001000
00000000
00010000
00000000
,
00011000
00000000
00000000
00000000
,
00000000
00000000
00000010
00000010
,
00001001
00000000
00000110
00000000
,
00000001
00000100
00001000
00000000
,
00001000
00010000
00100000
00000000
,
00100000
10000000
01000000
00000000
,
01000000
00010000
00001000
00022000
,
00000000
00000000
00000000
00000000
,
00000000
00000000
00000000
00000000
,
00000000
00000000
00000000
00000000
00000000
00000000
00000000
00033000
,
00000000
00000000
00000220
00000000
,
00000000
00000000
00000330
00000000
,
00000000
00000000
00000000
00000000
;
#NOTES:
     dance-double:
     :
     Medium:
     10:
     :
00000000
00000000
00000000
00000000
,
00000000
00000000
00000000
00000000
,
00000000
00000000
00000000
00000000
,
00000000
00000000
00000000
00000000
,
00000000
00000000
00000000
00000000
,
00000000
00000000
00000000
00000000
,
00000010
00000000
00000101
00000101
,
00000010
00000000
00001100
00001100
,
00010000
00000000
00011000
00011000
,
00200000
00000000
01000000
01300000
,
00100000
00010000
01000000
00000000
00100000
00000000
00100000
00000000
,
10000000
01000000
00100000
00000000
00010000
00000000
00010000
00000000
,
01000000
00001000
00010000
00000000
00000100
00000000
00000100
00000000
,
00000010
00000001
00001000
00000000
00000010
00000000
00000010
00000000
,
00000100
00000001
00000010
00000000
00000100
00000000
00000100
00000000
,
00000010
00001000
00010000
00000000
00001000
00000000
00001000
00000000
,
01000000
00010000
00000000
00000000
00100000
00010000
00000000
00000000
,
01000000
00100000
01000000
00100000
00000000
00000000
10010000
00000000
,
00100000
10000000
01000000
00010000
,
00001000
00010000
00001000
00000000
00000010
00000100
00000010
00000000
,
00000001
00000100
00000001
00000000
00001000
00000010
00001000
00000000
,
00000100
00010000
00001000
00010000
00000000
00000000
00011000
00000000
,
00001000
00100000
00110000
00000000
,
00010000
00000000
01000000
00000000
01100000
00000000
00100000
10000000
,
00100000
10000000
10010000
00000000
,
10000000
01000000
01100000
00000000
,
00100000
00100000
00001000
00000000
00010000
00000000
00001000
00000000
,
00011000
00000000
00010000
00000100
00001000
00000000
00000000
00000000
,
00001000
00001000
00000100
00000000
00000010
00000000
00000001
00000000
,
00000011
00000010
00001001
00000000
,
00000001
00000100
00000010
00000000
00000110
00000000
00000000
00000000
,
00001010
00010010
00011000
00000000
,
00002000
00023000
00032000
00023000
,
00031000
00010000
00001000
00000000
00022000
00000000
00033000
00000000
,
00001000
00000000
00010000
00100000
00000000
01000000
00100000
00000000
,
10000000
00000000
01000000
00100000
00000000
00010000
00100000
00000000
,
01000000
00000000
00010000
00001000
00000000
00001000
00010000
00000000
,
00011000
00000000
00011000
00000000
00010000
00001000
00010000
00000000
,
00001000
00000010
00000001
00000010
,
00001000
00010000
01000000
01100000
,
00000000
00000000
00000000
10000000
00000000
00100000
01000000
00000000
00000000
00010000
00000000
01000000
,
00000000
00000000
00001000
00010000
00000000
00000000
00022000
00000000
00000000
00033000
00000000
00000000
,
00010000
00000000
00001000
00000010
00000000
00000100
00000010
00000000
,
00000001
00000000
00000100
00000010
00000000
00001000
00000010
00000000
,
00000100
00000000
00001000
00010000
00000000
00010000
00001000
00000000
,
00011000
00000000
00011000
00000000
00001000
00010000
00001000
00000000
,
00010000
00100000
10000000
00100000
,
00010000
00001000
00000100
00000110
,
00000000
00000000
00000000
00000001
00000000
00000010
00000100
00000000
00000000
00010000
00000000
00001000
,
00000000
00000000
00022000
00033000
,
00001000
00010000
01000000
10000000
,
00010000
00100000
00010000
00000000
10000000
00100000
10000000
00000000
,
00010000
00000000
00100000
00010000
01000000
00000000
00100000
00000000
,
00010000
00001000
00010000
00000000
00011000
00000000
00011000
00000000
,
00010000
00000000
00001000
00000000
00000010
00000001
00000010
00000000
,
00000001
00000100
00001000
00011000
,
00010000
00000000
00100000
00000000
10000000
01000000
10000000
00000000
,
01000000
00000000
00010000
00001000
00020000
00000000
00030000
00000000
,
00001000
00000000
00000100
00000010
00000100
00000000
00000001
00000100
,
00000000
00000010
00001000
00000000
00000100
00010000
00001000
00000000
,
00010000
00000000
00001000
00100000
00000000
00010000
01000000
00000000
,
00200000
00000000
00000000
00300000
,
10000000
00000000
00000000
00000000
00100000
00000000
00000000
10000000
00000000
00000000
00000000
00000000
00010000
00000000
00000000
00000000
,
00100000
00000000
00000000
00000000
00001000
00000000
00000000
00010000
00000000
00000000
00000000
00000000
00001000
00000000
00000000
00000000
,
00010000
00000000
00000000
00000000
00000100
00000000
00000000
00001000
00000000
00000000
00000000
00000000
00000010
00000000
00000000
00000000
,
00000110
00000000
00000000
00000000
,
00000001
00000000
00000100
00000010
00000000
00001000
00001000
00000000
,
00000010
00000000
00010000
00001000
00000000
00000000
00000000
00000000
,
00001000
00000000
00010000
00000000
00100000
10000000
00100000
00000000
,
10000000
01000000
00100000
00010000
00000000
10000000
10000000
00000000
,
01000000
00000000
00100000
00001000
00000000
00001000
00010000
00000000
,
00000100
00000000
00000010
00000001
00000000
00000000
00000000
00000011
,
00000000
00000010
00000100
00000000
00010000
00001000
00010000
00000000
,
00001000
00100000
00010000
01000000
00000000
00000000
01100000
00000000
,
10000000
00000000
01000000
00100000
00000000
00010000
00010000
00000000
,
00100000
00000000
00001000
00010000
00000000
00000000
00000000
00000000
,
00010000
00000000
00001000
00000000
00000010
00000001
00000010
00000000
,
00000001
00000100
00000010
00001000
00000000
00000000
00000000
00000000
,
00000002
00000203
00000320
00020030
,
00031000
00000000
00000000
00001000
00010000
00000000
00000000
00011000
,
00000000
00000000
00001000
00000000
00010000
00000000
01000000
10000000
,
00000000
01000000
00010000
00001000
,
00000110
00000000
00000001
00001000
00000001
00000000
00001000
00000000
,
00000110
00000000
00000001
00001000
00000010
00000000
00010000
00000000
,
00001000
00010000
00000000
00000000
00100000
01000000
00000000
00000000
,
00010000
10000000
00010000
10000000
00000000
00000000
10010000
00000000
,
10000000
00000000
01000000
00010000
00000000
00001000
00000000
00010000
,
00000000
00100000
00000000
00010000
00001000
00000000
00011000
00000000
,
00010000
00000000
00000100
00001000
00000000
00000010
00000000
00010000
,
00001000
00000000
00100000
01000000
00100000
00000000
00001000
00000000
,
00010000
00000000
00000100
00001000
00000000
00000001
00000000
00000100
,
00000000
00000010
00000000
00001000
00000100
00000000
00000110
00000000
,
00000001
00000010
00000100
00000000
00000010
00000100
00001000
00000000
,
00000100
00010000
00000100
00010000
00000100
00000000
00010000
00000000
,
00001000
00010000
00001000
00010000
00001000
00000000
01000000
00000000
,
00010000
00100000
00010000
00100000
00010000
00000000
01000000
00000000
,
00100000
01000000
00100000
01000000
00100000
00000000
02200000
00000000
,
00000000
00000000
00000000
00000000
,
00000000
00000000
00000000
00000000
,
00000000
00000000
00000000
00000000
00000000
00000000
00000000
03300000
,
00000000
00000000
20020000
00000000
,
00000000
00000000
30030000
00000000
,
00000000
00000000
00000000
00000000
;
#NOTES:
     dance-double:
     :
     Hard:
     13:
     :
00000000
00000000
00000000
00000000
,
00000000
00000000
00000000
00000000
,
00000000
00000000
00000000
00000000
,
00000000
00000000
00000000
00000000
,
00000000
00000000
00000000
00000000
,
00000000
00000000
00000000
00000000
00000000
00000000
00000000
00100000
,
10000000
00100000
00000000
00000000
01010000
00000000
01010000
00000000
,
00001000
00010000
00000000
00000000
00001010
00000000
00001010
00000000
,
00000001
00000010
00000000
00000000
00001100
00000000
00001100
00000000
,
00020000
00000000
00001000
00031000
,
01000000
10000000
00010000
00000000
01000000
00000000
01100000
00000000
,
10000000
01000000
00100000
00000000
00010000
00000000
00011000
00000000
,
00000100
00000001
00001000
00000000
00000100
00000000
00000110
00000000
,
00000010
00000001
00000100
00000000
00000010
00000000
00010010
00000000
,
00001000
00010000
00100000
00000000
01000000
00000000
01100000
00000000
,
00100000
10000000
01000000
00000000
00010000
00000000
01100000
00000000
,
00010000
01000000
00000000
00001000
00010000
00000100
00000000
00001000
,
00000001
00000100
00000010
00001000
00000000
00000001
00000010
00000000
,
00001000
00000000
00000000
00010000
01000000
10000000
00000000
00010000
,
01000000
10000000
00000000
00010000
00100000
00010000
00001000
00000100
,
00000010
00001000
00000100
00000000
00000010
00000001
00000100
00000000
,
00000010
00001000
00000001
00000100
00000000
00000001
00000010
00000000
,
00000011
00000011
00000110
00000110
,
00001100
00000000
00001100
00000000
00010100
00000000
00010000
00000100
,
00010000
00011000
00101000
00101000
,
00110000
00000000
00110000
00000000
00010000
00100000
10000000
00100000
,
00010000
00010000
10000000
10000000
00100000
00000000
01000000
01000000
,
00010000
00000000
00100000
00001000
00100000
00000000
00011000
00000000
,
00010000
00010000
00000100
00000100
00001000
00000000
00000010
00000010
,
00000100
00000000
00000001
00000001
00001000
00001000
00001001
00000000
,
00000001
00000000
00000000
00000001
00000000
00000000
00000100
00000000
00000000
00000100
00000000
00000000
00000110
00000000
00000000
00000000
00000000
00000000
00000010
00000000
00000000
00000000
00000010
00000000
,
00001000
00000000
00001000
00000100
00000000
00000100
00010000
00000000
00010000
00001000
00000000
00000000
,
00020000
00030000
00020000
00030000
00020000
00030000
00010000
00001000
,
00010000
00100000
01000000
00100000
01100000
00000000
10010000
00000000
,
10000000
00000000
00000000
01000000
00100000
00000000
00010000
00000000
00000000
00000000
01000000
00000000
00010000
00000000
00000000
00000000
,
00100000
00000000
00000000
00001000
00010000
00000000
00001000
00000000
00000000
00000000
00000100
00000000
00000001
00000000
00000000
00000000
,
00000010
00000000
00000000
00000100
00001000
00000000
00000001
00000000
00000000
00000000
00000001
00000000
00000100
00000000
00000000
00000000
,
00000110
00000000
00001001
00000000
00000110
00001000
00000001
00000000
,
00000100
00000000
00000000
00000010
00000000
00000000
00001000
00000000
00000000
00000100
00000000
00010000
,
00000000
00000000
00001000
00010000
00000000
00000000
00100000
00000000
01000000
00100000
00000000
00000000
,
00000000
00000000
00000000
00100000
00000000
00010000
00001000
00000000
00000000
00000100
00000000
00000001
,
00000000
00000000
00002002
00003003
,
00000001
00000000
00000000
00000100
00000010
00000000
00001000
00000000
00000000
00000000
00000100
00000000
00001000
00000000
00000000
00000000
,
00000010
00000000
00000000
00010000
00001000
00000000
00010000
00000000
00000000
00000000
01000000
00000000
10000000
00000000
00000000
00000000
,
00100000
00000000
00000000
01000000
00010000
00000000
10000000
00000000
00000000
00000000
10000000
00000000
01000000
00000000
00000000
00000000
,
01100000
00000000
10010000
00000000
01100000
00010000
10000000
00000000
,
01000000
00000000
00000000
00100000
00000000
00000000
00010000
00000000
00000000
01000000
00000000
00001000
,
00000000
00000000
00010000
00001000
00000000
00000000
00000010
00000000
00000100
00000010
00000000
00000000
,
00000000
00000000
00000000
00000010
00000000
00001000
00010000
00000000
00000000
01000000
00000000
10000000
,
00000000
00000000
20020000
30030000
,
10000000
00000000
00100000
01000000
00010000
00000000
00100000
01000000
,
10000000
00000000
01000000
00100000
00010000
00000000
00100000
00000000
,
00001000
00010000
00001000
00000000
00010000
00001000
00010000
00000000
,
00001000
00010000
00000100
00001000
00000010
00000000
00000110
00000000
,
00000001
00000000
00000100
00000010
00001000
00000000
00000100
00000010
,
00000001
00000000
00000010
00000100
00001000
00000000
00000100
00000000
,
00010000
00001000
00010000
00000000
00001000
00010000
00001000
00000000
,
00010000
00001000
00100000
00010000
02000000
00000000
03000000
00000000
,
00000000
01000000
00100000
10000000
01000000
10000000
00100000
01000000
,
00020000
00000000
00130000
00010000
00100000
00001000
00010000
00000000
,
00000000
00010000
00001000
00000010
00000001
00000000
00000010
00000000
,
00000110
00000000
00001000
00000000
00000001
00000000
00000000
00000000
00000010
00000001
00000000
00000000
00000010
00000000
00000000
00000000
,
00000001
00000000
00000100
00000000
00000010
00000000
00000000
00001000
00000000
00000010
00000000
00000000
00001000
00000000
00000000
00000000
,
00000100
00000000
00010000
00000000
00001000
00000000
00000000
01000000
00000000
00010000
00000000
00000000
01000000
00000000
00000000
00000000
,
00100000
00000000
10000000
00000000
00100000
00000000
00000000
01000000
00000000
00010000
00000000
00000000
10000000
00000000
00010000
00000000
,
10000000
00000000
00000000
00000000
,
00010000
00100000
01000000
10000000
00000000
00010000
00010000
00010000
,
00100000
00001000
00010000
00001000
00000000
00000000
00000000
00000000
,
00011000
00001100
00000101
00001001
,
00000001
00000010
00000100
00001000
00000000
00000001
00000001
00000001
,
00000100
00000010
00001000
00000100
00000000
00000010
00000010
00000010
,
00000100
00001000
00000100
00010000
00000000
00000000
00000000
00000000
,
00001000
00100000
00010000
01000000
00001000
00100000
00010000
01000000
,
00100000
01000000
00010000
10010000
00000000
00000000
00000000
00000000
,
10000000
01000000
00010000
00001000
00000000
00010000
00010000
00010000
,
00001000
00000100
00000001
00001000
00000000
00000000
00000000
00000000
,
00000011
00001010
00011000
01010000
,
11000000
00000000
10000000
00010000
00000000
00000000
00000000
00000000
,
10000000
00100000
01000000
00000000
01001000
00000000
00011000
00000000
,
00010000
00000000
00001000
00010000
00000010
00000000
00000010
00001000
,
00000000
00000000
00001010
00000000
00000001
00000010
00000100
00001000
,
00000000
00000000
00001100
00000000
00000100
00000010
00000001
00000000
,
00000110
00000000
00001001
00000000
00000110
00001000
00000100
00000000
,
00011000
00000000
00110000
00000000
01100000
10000000
00010000
00000000
,
10000000
01000000
00000000
00010000
00001000
00010000
00000000
00001000
,
00000010
00000001
00000010
00000001
00000000
00001000
00000001
00000000
,
00000200
00000000
00000310
00001000
00000000
00000010
00000100
00001000
,
00000000
00010000
00001000
00010000
00001000
00000000
00011000
00000000
,
00020000
00000000
00130000
01000000
00000000
00100000
10000000
00000000
,
00010000
10000000
00010000
00000000
01100000
00000000
10010000
00000000
,
20000000
00000000
30100000
00010000
00000000
00001000
00010000
00001000
,
00000000
00010000
00000010
00001000
00000010
00000000
00000110
00000000
,
00000001
00001000
00000001
00001000
00000001
00000000
00000000
00000000
00000100
00000010
00000100
00000010
00000100
00000000
00000000
00000000
,
00000001
00001000
00000010
00010000
00001000
00000000
00011000
00000000
,
00001000
00100000
00010000
10000000
01000000
00000000
01100000
00000000
,
00100000
00001000
00010000
00000100
00001000
00000000
00001001
00000000
,
00000001
00000010
00000100
00010000
00001000
00000000
00022000
00000000
,
00000000
00000000
00000000
00000000
,
00000000
00000000
00000000
00000000
,
00000000
00000000
00000000
00000000
00000000
00000000
00000000
00033000
,
00000000
00000000
02200000
00000000
,
00000000
00000000
03300000
00000000
,
00000000
00000000
00000000
00000000
;
#NOTES:
     dance-double:
     :
     Challenge:
     17:
     :
00000000
00000000
00000000
00000000
,
00000000
00000000
00000000
00000000
,
00000000
00000000
00000000
00000000
,
00000000
00000000
00000000
00000000
,
00000000
00000000
00000000
00000000
,
00001000
00000001
00001000
00000000
00000100
00000010
00000100
00000000
00001000
00000000
00000001
00000000
00000100
00000000
00001000
00000000
,
00010000
00200000
00000000
00300000
10100000
10000000
01000000
00010000
,
00001000
00000020
00000000
00000030
00000011
00000001
00000100
00001000
,
00010000
00200000
00000000
00300000
10100000
10000000
01000000
00010000
,
00001000
00010000
00001000
00000000
00010000
00000010
00010000
00000010
00010000
00000000
00000000
00000000
00001000
00000000
00010000
00000000
,
01000000
00010000
01000000
00100000
01000000
10000000
01000000
00010000
,
00001000
00000000
00000100
00000000
00000001
00000000
00000010
00000000
00000100
00001000
00000010
00000000
00001000
00000100
00010000
00000000
,
00001000
00010000
01000000
10000000
00100000
01000000
00100000
01000000
,
00001000
00010000
00001000
00000000
00010000
00000000
00001000
00000000
00011000
00000000
00010100
00000000
00001100
00000000
00000000
00000000
,
00001000
00000100
00000001
00000100
00001000
00000010
00000100
00001000
,
00010000
01000000
10000000
01000000
00010000
01000000
10000000
01000000
,
00010000
00011000
00000000
00000010
00000100
00000010
00000000
00000001
,
00000010
00001000
00010000
00001000
00000000
00011000
00220000
00330000
,
10000000
10000000
01000000
00100000
00010000
00001000
00000100
00001000
,
00000001
00000010
00000001
00001000
00000001
00000100
00001000
00010000
,
00100000
10000000
00100000
01000000
00010000
01000000
00001000
00010000
,
00000100
00001000
00000010
00000100
00000000
00000110
00002002
00003003
,
00000011
00000110
00010100
00011000
,
00101000
00000000
00000000
00000000
00110000
00000000
00000000
00000000
01010000
00000000
00000000
00000000
01100000
00000000
00100000
10000000
,
00010000
10010000
01010000
01001000
,
00011000
00000000
00000000
00000000
00010010
00000000
00000000
00000000
00000010
00001000
00000010
00000000
00000100
00000000
00000001
00000010
,
00000100
00000100
00001000
00001000
00001010
00000000
00001001
00000001
,
00000011
00000000
00000000
00000000
00000110
00000000
00000100
00010000
00001000
00000000
00000000
00000000
00011000
00000000
00000000
00000000
,
00001000
00001000
01000000
01000000
01010000
00000000
00110000
00010000
,
00110000
00000000
11000000
10000000
11000000
01000000
00100000
00000000
,
00110000
00000000
00000000
00100000
00000000
00000000
00101000
00000000
00000000
00001000
00000000
00000000
00011000
00000000
00000000
00000000
00000000
00000000
00011000
00000000
00000000
00000000
00010000
00000000
,
00000100
00000000
00001000
00000010
00000000
00000100
00001000
00010000
00000100
00001000
00000010
00000100
,
00000002
00000003
00000002
00000003
00000002
00000003
00000001
00000100
,
00000010
00000000
00010000
00000000
00001000
00000000
00010000
00001000
00020000
00000000
00030000
00000000
00022000
00000000
00033000
00000000
,
00001000
00000000
00100000
00010000
00100000
00000000
00001000
00000000
00010000
00000000
00100000
00000000
10000000
00000000
00010000
00000000
,
01000000
00000000
00100000
10000000
00100000
00000000
01000000
00000000
00010000
10000000
00010000
10000000
00010000
00000000
00000000
00000000
,
10000000
00000000
01000000
00100000
01000000
00000000
00010000
00000000
00001000
00000000
00000010
00000000
00000001
00000000
00001000
00000000
,
00001001
00000000
00000110
00000000
00001001
00000110
00001001
00000000
,
00000001
00000000
00000001
00000100
00000000
00000100
00000010
00000000
00000010
00001000
00000000
00001000
,
00000100
00010000
00001000
00010000
00000000
00010000
00001000
00000000
00001000
00100000
00000000
00100000
,
00010000
00000000
00000000
10010000
00000000
00010000
01000000
00000000
10000000
01000000
00000000
00010000
,
00000000
00000000
00100000
00001000
00000000
00010000
00002000
00000000
00000000
00003000
00000000
00000000
,
00010000
00000000
00000010
00001000
00000010
00000000
00010000
00000000
00000100
00001000
00000000
00000010
00000100
00000000
00000001
00000000
,
00001000
00000000
00000100
00000010
00000100
00000000
00001000
00000000
00000001
00000100
00000000
00000001
00000100
00000000
00000000
00000000
,
00000001
00000000
00000100
00000010
00000100
00000000
00001000
00000000
00010000
00100000
00000000
01000000
00100000
00000000
10000000
00000000
,
10010000
00000000
01100000
00000000
10010000
01100000
10010000
00000000
,
10000000
00000000
10000000
01000000
00000000
01000000
00100000
00000000
00100000
00010000
00000000
00010000
,
01000000
00001000
00010000
00001000
00000000
00001000
00010000
00000000
00010000
00000010
00000000
00000010
,
00001000
00000000
00000000
00001001
00000000
00001000
00000100
00000000
00000001
00000100
00000000
00001000
,
00000000
00000000
00000010
00010000
00000000
00001000
00020000
00000000
00000000
00030000
00000000
00000000
,
00001000
00000000
01000000
00010000
01000000
00000000
00100000
00000000
10000000
00000000
00100000
01000000
00100000
00000000
01000000
00000000
,
00010000
00100000
01000000
00010000
00001000
00010000
01000000
00100000
,
00001000
00010000
00001000
00000000
00010000
00000000
00000010
00000000
00010000
00001000
00010000
00000000
00001000
00000000
00100000
00000000
,
00001000
00001000
00010000
00010000
00011000
00000000
00011000
00000000
,
00010000
00000000
00000100
00001000
00000100
00000000
00000010
00000000
00000001
00000000
00000010
00000100
00000010
00000000
00000100
00000000
,
00001000
00000010
00000100
00001000
00010000
00001000
00000100
00000010
,
00010000
00001000
00010000
00000000
00001000
00000000
00100000
00000000
00001000
00010000
00001000
00000000
00010000
00000000
00000010
00000000
,
00010000
00000000
00010000
00000000
00001000
00000000
00001000
00000000
00010000
00001000
00010000
00001000
00010000
00000000
00000000
00000000
,
00002000
00000000
00100000
00000000
00100000
00000000
00000000
00000000
01003000
00000000
00010000
00100000
00001000
00000000
00021000
00000000
,
00000000
00000000
00000010
00000000
00000010
00000000
00000000
00000000
00031000
00000000
00010000
00001000
00010000
00000000
00000000
00000000
,
00011000
00000000
00010000
00000010
00000000
00000000
00001010
00000000
00001000
00000001
00000000
00000000
00000110
00000000
00000001
00000010
,
00000100
00000000
00000000
00001000
00000000
00000000
00001000
00000000
00000000
00001000
00000000
00000000
00000001
00000000
00000100
00000000
00000000
00000000
00000110
00000000
00000000
00000000
00000010
00000000
,
00001000
00000000
00000100
00000000
00001100
00000000
00000000
00010000
00000000
00001000
00000000
00000000
00011000
00000000
00000000
00001000
,
01000000
00000000
00010000
00000000
00110000
00000000
00000000
00100000
00000000
01000000
00000000
00000000
11000000
00000000
00000000
10000000
,
00100000
00000000
01000000
00000000
01001000
00000000
00000000
00001000
00000000
00010000
00000000
00000000
00011000
00000000
00001000
00010000
,
00001000
00010000
00010000
00010000
00000010
00000100
00001000
00010000
,
00002000
00010000
00010000
00010000
,
00010000
00010000
00013000
00011000
,
00010000
00001000
00000100
00001000
00010000
00001000
00010000
01000000
,
00010000
00001000
00000010
00000001
00000100
00001000
00010000
00100000
,
10000000
00000000
00010000
00000000
00100000
00000000
00001000
00000000
01000000
00010000
00100000
00000000
00010000
00000000
00000000
00000000
,
10000000
00000000
00010000
00000000
00100000
00000000
00001000
00000000
01000000
00010000
00100000
00000000
00001000
00000000
00000000
00000000
,
00010000
00000000
00000100
00001000
00000100
00000000
00000010
00000000
00000001
00000000
00000100
00000000
00001000
00000000
00010000
00000000
,
00000010
00000100
00001000
00010000
00000000
00010000
00001000
00000100
,
00000001
00000000
00001000
00000000
00000010
00000000
00010000
00000000
00000100
00001000
00000010
00000000
00001000
00000000
00000000
00000000
,
00000001
00000000
00001000
00000000
00000010
00000000
00010000
00000000
00000100
00001000
00000010
00000000
00010000
00000000
00000000
00000000
,
00001000
00010000
01000000
00010000
00001000
00010000
00001000
00000100
,
00001000
00010000
00100000
10000000
01000000
00010000
00001000
00000010
,
00000001
00000001
00000011
00000000
00000110
00000000
00010100
00000000
,
00010000
00001000
00010000
00001000
00010000
00000000
00001000
00000000
00011000
00000000
00000000
00000000
00010000
00000000
01000000
00000000
,
00000000
00000000
00000000
00000000
01100000
00000000
00000000
00000000
00100000
00010000
10000000
01000000
00100000
00000000
00110000
00000000
,
00000000
00000000
00000000
00000000
00101000
00000000
00000000
00000000
00001000
00010000
00001000
00010000
00001000
00000000
00000000
00000000
,
00011000
00000000
00001010
00000000
00000110
00000110
00000110
00000000
,
00001001
00000000
00001100
00000000
00010100
00010100
00010100
00000000
,
00010000
00001000
00000000
00100000
00001000
00010000
00000000
01000000
,
00100000
00010000
10000000
01000000
00000000
11000000
00110000
00000000
,
00010000
10000000
01000000
00100000
00000000
00100000
00001000
00010000
,
00000000
00010000
00000100
00001000
00000100
00000000
00000110
00000000
,
00000001
00000010
00000100
00001000
00000000
00001000
00000010
00000100
,
00001000
00000000
00010000
00000000
00100000
00000000
00010000
00000000
00001000
00010000
00001000
00000000
00010000
00001000
00010000
00000000
,
00001000
01000000
00010000
00100000
00000000
00100000
01000000
10000000
,
00000000
10000000
01000000
00010000
00001000
00000010
00001000
00000000
,
00010000
00000010
00010000
00000010
00020000
00000000
00030000
00000000
00001000
00100000
00001000
00100000
00002000
00000000
00003000
00000000
,
00010000
00000000
00001000
00000000
00000100
00000010
00000100
00000000
00000020
00000000
00000030
00000000
00000110
00000000
00000000
00000000
,
00000001
00000000
00000100
00000000
00001000
00010000
00001000
00000000
00020000
00000000
00030000
00000000
00011000
00000000
00000000
00000000
,
00001000
00100000
00001000
00000000
01000000
00010000
01000000
00000000
00200000
00000000
00300000
00000000
10100000
00000000
00000000
00000000
,
10000000
01000000
10000000
00000000
00010000
00100000
00010000
00000000
00100000
00000000
00000000
00000000
02200000
00000000
00000000
00000000
,
00000000
00000000
00000000
00000000
,
00000000
00000000
00000000
00000000
,
00000000
00000000
00000000
00000000
00000000
00000000
00000000
03300000
,
00000000
00000000
00022000
00000000
,
00000000
00000000
00033000
00000000
,
00000000
00000000
00000000
00000000
;
