
//----- song ID: mwit -----//
#TITLE:Mess With My Emotions;
#ARTIST:Latenighter;
#BANNER:Mess With My Emotions.png;
#BACKGROUND:Mess With My Emotions-bg.png;
#CDTITLE:./CDTitles/DDR HOTTEST PARTY.png;
#MUSIC:Mess With My Emotions.ogg;
#SAMPLESTART:38.308;
#SAMPLELENGTH:15;
#BPMS:0=130;
#STAGE:17;
#NOTES:
     dance-single:
     :
     Beginner:
     1:
     :
0000
0000
0000
0000
,
0000
0000
0000
0000
,
0000
0000
0000
0000
,
0000
0000
0000
0000
,
0000
0000
0000
0000
,
1000
0000
0000
0000
,
0000
0000
0000
0000
,
1000
0000
0000
0000
,
0000
0000
0000
0000
,
0100
0000
0000
0000
,
0000
0000
0000
0000
,
0100
0000
0000
0000
,
0000
0000
0000
0000
,
0010
0000
0000
0000
,
0000
0000
0000
0000
,
0010
0000
0000
0000
,
0000
0000
0000
0000
,
0001
0000
0000
0000
,
0000
0000
0000
0000
,
0001
0000
0000
0000
,
0000
0000
0000
0000
,
0001
0000
0000
0000
,
0000
0000
0000
0000
,
0010
0000
0000
0000
,
0000
0000
0000
0000
,
0001
0000
0000
0000
,
0000
0000
0000
0000
,
0100
0000
0000
0000
,
0000
0000
0000
0000
,
1000
0000
0000
0000
,
0000
0000
0000
0000
,
0000
0000
0000
0000
,
0000
0000
0000
0000
,
0001
0000
0000
0000
,
0000
0000
0000
0000
,
0000
0000
0000
0000
,
0000
0000
0000
0000
,
0010
0000
0000
0000
,
0000
0000
0000
0000
,
0010
0000
0000
0000
,
0000
0000
0000
0000
,
0001
0000
0000
0000
,
0000
0000
0000
0000
,
0001
0000
0000
0000
,
0000
0000
0000
0000
,
1000
0000
0000
0000
,
0000
0000
0000
0000
,
1000
0000
0000
0000
,
0000
0000
0000
0000
,
0100
0000
0000
0000
,
0000
0000
0000
0000
,
0100
0000
0000
0000
,
0000
0000
0000
0000
,
0100
0000
0000
0000
,
0000
0000
0000
0000
;
#NOTES:
     dance-single:
     :
     Easy:
     3:
     :
0000
0000
0000
0000
,
0000
0000
0000
0000
,
0000
0000
0000
0000
,
0000
0000
0000
0000
,
0000
0000
0000
0000
,
0001
0000
0100
0000
,
0001
0000
0000
0000
,
0010
0000
0000
0000
,
0100
0000
0000
0000
,
1000
0000
0010
0000
,
1000
0000
0000
0000
,
0100
0000
0000
0000
,
0010
0000
0000
0000
,
0001
0001
0100
0000
,
0010
0000
0000
0000
,
1001
0000
0000
0000
,
0000
0000
0000
0000
,
1000
1000
0100
0000
,
0010
0000
0000
0000
,
1001
0000
0000
0000
,
0000
0000
0000
0000
,
1000
0000
0100
0000
,
1000
1000
0100
0000
,
0010
0000
0000
0000
,
0000
0000
0000
0000
,
0001
0000
0100
0000
,
0001
0001
0100
0000
,
0010
0000
0000
0000
,
0000
0000
0000
0000
,
2000
0000
0000
0000
,
3000
0000
0000
0000
,
1001
0000
0000
0000
,
0000
0000
0000
0000
,
0002
0000
0000
0000
,
0003
0000
0000
0000
,
0100
0000
0100
0000
,
0100
0000
0000
0000
,
0001
0000
0010
0000
,
0001
0100
0010
0000
,
0100
0000
0000
0000
,
0000
0000
0000
0000
,
1000
0000
0100
0000
,
1000
0010
0100
0000
,
0010
0000
0000
0000
,
0000
0000
0000
0000
,
0001
0100
0010
0000
,
0100
0010
1000
0000
,
1000
0000
0000
0000
,
0000
0000
0000
0000
,
1000
0100
0010
0000
,
0100
0010
0001
0000
,
0002
0000
0000
0003
,
1000
0000
0000
0000
,
1001
0000
0000
0000
,
0000
0000
0000
0000
;
#NOTES:
     dance-single:
     :
     Medium:
     9:
     :
0000
0000
0000
0000
,
0000
0000
0000
0000
,
0000
0000
0000
0000
,
0000
0000
0000
0000
,
0000
0000
0000
0000
,
0001
0000
1000
0000
0100
0010
0100
0000
,
1000
0100
0010
0002
0000
0000
0003
0000
,
1000
0100
0010
0002
0000
0000
0003
0000
,
0001
0010
0100
2000
0000
0000
3000
0000
,
1000
0000
0001
0000
0100
0010
0100
0000
,
0001
0100
0010
2000
0000
0000
3000
0000
,
0001
0100
0010
2000
0000
0000
3000
0000
,
1000
0010
0100
0002
0000
0000
0003
0000
,
1000
0100
1100
0110
,
0001
0100
1001
0000
,
0001
0100
1000
0000
1000
0100
0001
0000
,
1000
0010
0001
0010
2000
0000
3000
0000
,
0001
0100
0101
0110
,
1000
0100
1001
0000
,
1000
0100
0001
0000
0001
0100
1000
0000
,
0010
0010
0010
0000
,
1000
0100
0010
0001
0100
0010
1000
0000
,
0001
0010
0100
1000
0010
0100
0001
0000
,
1000
0100
1000
0010
0000
0100
0010
0100
,
0000
0001
0010
0100
0000
1000
0001
0000
,
0001
0010
0100
1000
0010
0100
0001
0000
,
1000
0100
0010
0001
0100
0010
1000
0000
,
0001
0010
0001
0100
0000
0010
0100
0010
,
0000
1000
0100
0010
0000
0001
1000
0000
,
0001
0000
0000
0001
0000
0000
0001
0000
0000
0000
1000
0000
0010
0000
0000
0000
,
1000
0000
0000
1000
0000
0000
1000
0000
0000
0000
0100
0000
0010
0000
0000
0000
,
0100
0000
0000
0100
0000
0000
0100
0000
0000
0000
1000
0000
0001
0000
0000
0000
,
0010
0000
0000
0010
0000
0000
0010
0000
0000
0000
0001
0000
1000
0000
0000
0000
,
0001
0000
0000
0001
0100
0000
0000
0000
0001
0000
0010
0000
0100
0000
0000
0000
,
1000
0000
0000
1000
0010
0000
0000
0000
1000
0000
0001
0000
0100
0000
0000
0000
,
0010
0000
0000
0010
0100
0000
0000
0000
0010
0000
1000
0000
0100
0000
0000
0000
,
0010
0000
0000
0010
0100
0000
0000
0000
0110
0000
0000
0000
0000
0000
0000
0000
,
1000
0000
0010
0000
0000
1000
0000
0000
0010
0000
0100
0000
0001
0000
0000
0000
,
0010
0000
0001
0000
0000
0010
0000
0000
0001
0000
1000
0000
0100
0000
0000
0000
,
1000
0000
0010
0000
0000
0100
0000
0000
0001
0000
1000
0000
0001
0000
0000
0000
,
1000
0000
0100
0000
0000
0010
0000
0000
0001
0000
1000
0000
0001
0000
0000
0000
,
1000
0000
0100
0000
0000
0001
0000
0000
0100
0000
0010
0000
0001
0000
1000
0000
,
0001
0000
0100
0000
0000
1000
0000
0000
0100
0000
0010
0000
1000
0000
0000
0000
,
0001
0000
0010
0000
0000
1000
0000
0000
0010
0000
0100
0000
1000
0000
0001
0000
,
1000
0000
0010
0000
0000
0001
0000
0000
0010
0000
0100
0000
0001
0000
0000
0000
,
1000
0100
0010
0001
0100
0010
0100
0001
,
0010
0100
1000
0001
0010
1000
0010
0000
,
0001
0100
0010
1000
0100
0010
0100
1000
,
0001
0100
0001
0010
0100
1000
0001
0000
,
1000
0010
0100
0001
1000
0100
0001
0100
,
1000
0001
0010
0100
1000
0010
0100
0000
,
0001
0100
1000
0100
0010
0100
0001
1000
,
0100
0000
0000
0000
,
1001
0000
0000
0000
,
0000
0000
0000
0000
;
#NOTES:
     dance-single:
     :
     Hard:
     12:
     :
0000
0000
0000
0000
,
0000
0000
0000
0000
,
0000
0000
0000
0000
,
0000
0000
0000
0000
,
0000
0000
0000
0000
,
0002
0000
0103
0000
0001
0100
1000
0100
,
0010
1000
0100
0020
1000
0000
0031
0000
,
1000
0100
0001
0100
2000
0000
3010
0000
,
1000
0010
0100
0001
0010
0100
0110
0000
,
2000
0000
3100
0000
1000
0100
0001
0100
,
0010
0001
0100
0020
0001
0000
1030
0000
,
0001
0100
1000
0100
0002
0000
0013
0000
,
0001
0010
0100
1000
0020
0100
0130
0000
,
0101
0100
1100
0000
0011
0010
1010
0000
,
1001
0000
0110
0000
1001
0000
0000
1000
,
0100
0010
0100
0010
0002
0000
0103
0020
,
0000
1000
0001
1030
,
1010
0010
0011
0000
1100
0100
0101
0000
,
1001
0000
0110
0000
1001
0000
0000
0001
,
0010
0100
0010
0100
1000
0001
1000
0001
,
0100
0100
0200
0300
,
0001
0000
1000
0100
0010
0000
0001
0000
0100
0000
1000
0000
0100
0000
0001
0000
,
1000
0000
0010
0100
0001
0000
1000
0000
0100
0000
0001
0000
0100
0000
1000
0000
,
0010
0000
1000
0100
1000
0000
0010
0000
0100
0000
0001
0010
0001
0000
0100
0000
,
0000
0100
0010
0100
0000
0010
0010
0000
,
1000
0000
0010
1000
0100
0000
0010
0000
0001
0000
1000
0000
0100
0000
0001
0000
,
0100
0000
0010
0001
0100
0000
0010
0000
1000
0000
0001
0000
0010
0000
1000
0000
,
0010
0000
0001
0100
0001
0000
0010
0000
0100
0000
1000
0010
1000
0000
0100
0000
,
0000
0100
0010
0100
0000
0010
0010
0000
,
0001
0000
0000
0001
0000
0000
0101
0000
0000
0000
1000
0000
0010
0000
1000
0010
,
0100
0000
0000
0100
0000
0000
0101
0000
0000
0000
0001
0000
1000
0000
0001
0100
,
0010
0000
0000
0010
0000
0000
1010
0000
0000
0000
1000
0000
0010
0000
1000
0001
,
0100
0000
0000
0100
0000
0000
0110
0000
0000
0000
1000
0000
0010
0000
1000
0000
,
0100
0000
0000
0100
0000
0000
0100
0000
1000
0000
0010
0000
0100
0000
0001
0000
,
0010
0000
0000
0010
0000
0000
0010
0000
0001
0000
0100
0000
1000
0000
0100
0000
,
0001
0000
0000
0001
0000
0000
0001
0000
0010
0000
0100
0000
1000
0000
0001
0000
,
1000
0000
0000
1000
0000
0000
1000
0000
1001
0000
0000
0000
1001
0000
0001
0000
,
1000
0000
0010
0100
0000
0001
0010
0000
0100
0000
1000
0000
0010
0000
1000
0000
,
0100
0000
0010
0001
0000
1000
0010
0000
0100
0000
0001
0000
0010
0000
0001
0000
,
0100
0000
0001
1000
0000
0010
0100
0000
0001
0000
1000
0000
0010
0000
0100
0000
,
0001
0000
0010
0100
0000
1000
0010
0000
0100
0000
0001
0000
1000
0000
0010
0000
,
1000
0000
0100
0001
0000
0100
1000
0000
0001
0000
0100
0000
0010
0000
0100
0000
,
0001
0000
0010
1000
0000
0010
0001
0000
0100
0000
0010
0000
1000
0000
0100
0000
,
0010
0000
0001
0100
0000
1000
0100
0000
0001
0000
1000
0000
0010
0000
1000
0000
,
0100
0000
1000
0010
0000
0001
0010
0000
1000
0000
0100
0000
0010
0000
0001
0000
,
1000
0000
0010
0100
0000
0010
0100
0001
1000
0000
0100
0000
1100
0000
0001
0000
,
0010
0000
0100
0010
0000
0100
0010
0001
1000
0000
0001
0000
1001
0000
1000
0000
,
0010
0000
1000
0100
0000
1000
0100
0010
0001
0000
0100
0000
0101
0000
1000
0000
,
0010
0000
0100
0001
0000
0100
0001
0010
0001
0000
1000
0000
1100
0000
0001
0000
,
0010
0000
0001
0100
0000
0010
1000
0010
0100
0000
0001
0000
0011
0000
0010
0000
,
0100
0000
1000
0010
0000
0100
0010
1000
0001
0000
0100
0000
0110
0000
0010
0000
,
1000
0000
0001
0010
0000
0100
1000
0001
1000
0000
0001
0000
1001
0000
0100
0000
,
0110
0000
0000
0000
,
1001
0000
0000
0000
,
0000
0000
0000
0000
;
#NOTES:
     dance-double:
     :
     Easy:
     2:
     :
00000000
00000000
00000000
00000000
,
00000000
00000000
00000000
00000000
,
00000000
00000000
00000000
00000000
,
00000000
00000000
00000000
00000000
,
00000000
00000000
00000000
00000000
,
00001000
00000000
00010000
00000000
,
00001000
00000000
00000000
00000000
,
00100000
00000000
00000000
00000000
,
00010000
00000000
00000000
00000000
,
10000000
00000000
00100000
00000000
,
10000000
00000000
00000000
00000000
,
01000000
00000000
00000000
00000000
,
00100000
00000000
00000000
00000000
,
00001000
00010000
00001000
00000000
,
00010000
00000000
00000000
00000000
,
00011000
00000000
00000000
00000000
,
00000000
00000000
00000000
00000000
,
00010000
00001000
00010000
00000000
,
00001000
00000000
00000000
00000000
,
00011000
00000000
00000000
00000000
,
00000000
00000000
00000000
00000000
,
00001000
00000000
00010000
00000000
,
00000100
00001000
00000100
00000000
,
00000010
00000000
00000000
00000000
,
00000000
00000000
00000000
00000000
,
00000001
00000000
00001000
00000000
,
00000010
00001000
00000010
00000000
,
00010000
00000000
00000000
00000000
,
00000000
00000000
00000000
00000000
,
00002000
00000000
00000000
00000000
,
00003000
00000000
00000000
00000000
,
00020000
00000000
00000000
00000000
,
00030000
00000000
00000000
00000000
,
00001000
00000000
00001000
00000000
,
00001000
00000000
00000000
00000000
,
00010000
00000000
00010000
00000000
,
00010000
00000000
00000000
00000000
,
00001000
00000000
01000000
00000000
,
00010000
01000000
00010000
00000000
,
10000000
00000000
00000000
00000000
,
00000000
00000000
00000000
00000000
,
10000000
00000000
01000000
00000000
,
00100000
00010000
00100000
00000000
,
00001000
00000000
00000000
00000000
,
00000000
00000000
00000000
00000000
,
00001000
00000000
00010000
00000000
,
00000100
00001000
00000100
00000000
,
00000010
00000000
00000000
00000000
,
00000000
00000000
00000000
00000000
,
00000001
00000100
00000001
00000000
,
00001000
00000100
00001000
00000000
,
00000100
00000000
00010000
00000000
,
00001000
00000000
00000000
00000000
,
00011000
00000000
00000000
00000000
,
00000000
00000000
00000000
00000000
;
#NOTES:
     dance-double:
     :
     Medium:
     9:
     :
00000000
00000000
00000000
00000000
,
00000000
00000000
00000000
00000000
,
00000000
00000000
00000000
00000000
,
00000000
00000000
00000000
00000000
,
00000000
00000000
00000000
00000000
,
00022000
00000000
00033000
00000000
00001000
00010000
00001000
00000000
,
00010000
00000100
00001000
00000020
00000000
00000000
00000030
00000000
,
00001000
00000001
00000010
00000200
00000000
00000000
00000300
00000000
,
00000100
00010000
00001000
00020000
00000000
00000000
00030000
00000000
,
00022000
00000000
00033000
00000000
00010000
00001000
00010000
00000000
,
00001000
01000000
00010000
00200000
00000000
00000000
00300000
00000000
,
00010000
10000000
00100000
02000000
00000000
00000000
03000000
00000000
,
01000000
00001000
00010000
00002000
00000000
00000000
00003000
00000000
,
00010000
00000100
00000010
00000001
,
00000010
00000100
00010000
00000000
,
00001000
00010000
00001000
00010000
00001000
00000000
00010000
00002000
,
00000000
00010000
00000000
00013000
,
00001000
01000000
00100000
10000000
,
00100000
01000000
00001000
00000000
,
00010000
00001000
00010000
00000000
00001000
00010000
00001000
00000000
,
00010000
00010000
00010000
00000000
,
00001000
00010000
00001000
00010000
00000010
00001000
00000010
00000000
,
00001000
00000100
00001000
00000100
00000010
00000001
00000010
00000000
,
00000001
00000100
00000001
00001000
00000000
00000100
00000010
00000100
,
00000000
00001000
00000100
00010000
00000000
00010000
00001000
00000000
,
00010000
00001000
00010000
00001000
00100000
00010000
00100000
00000000
,
00010000
01000000
00010000
01000000
00100000
10000000
00100000
00000000
,
10000000
01000000
10000000
00010000
00000000
01000000
00100000
01000000
,
00000000
00010000
01000000
00001000
00000000
00001000
00010000
00000000
,
00001000
00000000
00000000
00001000
00000000
00000000
00001000
00000000
00000000
00000000
01000000
00000000
00010000
00000000
00000000
00000000
,
00100000
00000000
00000000
00100000
00000000
00000000
00100000
00000000
00000000
00000000
01000000
00000000
10000000
00000000
00000000
00000000
,
00100000
00000000
00000000
00100000
00000000
00000000
00100000
00000000
00000000
00000000
01000000
00000000
00010000
00000000
00000000
00000000
,
00100000
00000000
00000000
00100000
00000000
00000000
00100000
00000000
00000000
00000000
00001000
00000000
00010000
00000000
00000000
00000000
,
00001000
00010000
00001000
00010000
00001000
00000010
00001000
00000000
,
00000010
00000001
00000010
00000001
00001000
00000100
00001000
00000000
,
00000100
00010000
00000100
00010000
00001000
00010000
00001000
00000000
,
01000000
00010000
01000000
00010000
01000000
00000000
01100000
00000000
,
10000000
00000000
01000000
00000000
00000000
00100000
00000000
00000000
00010000
00000000
00100000
00000000
01000000
00000000
00000000
00000000
,
10000000
00000000
00100000
00000000
00000000
01000000
00000000
00000000
00010000
00000000
01000000
00000000
00001000
00000000
00000000
00000000
,
00010000
00000000
00001000
00000000
00000000
00100000
00000000
00000000
00001000
00000000
00010000
00000000
00001000
00000000
00000000
00000000
,
00010000
00000000
00000100
00000000
00000000
00001000
00000000
00000000
00000010
00000000
00001000
00000000
00000100
00000000
00000000
00000000
,
00000010
00000000
00000001
00000000
00000000
00001000
00000000
00000000
00000100
00000000
00001000
00000000
00000001
00000000
00000000
00000000
,
00001000
00000000
00000010
00000000
00000000
00010000
00000000
00000000
00000100
00000000
00010000
00000000
00001000
00000000
00000000
00000000
,
00100000
00000000
00010000
00000000
00000000
01000000
00000000
00000000
00010000
00000000
00100000
00000000
01000000
00000000
00000000
00000000
,
10000000
00000000
00100000
00000000
00000000
01000000
00000000
00000000
00010000
00000000
01000000
00000000
00100000
00000000
00000000
00000000
,
10000000
01000000
00100000
00010000
00100000
00001000
00010000
00001000
,
00010000
00000100
00010000
00000100
00001000
00000100
00001000
00000000
,
00000001
00001000
00000001
00000100
00000001
00000010
00000100
00001000
,
00000100
00010000
00000010
00010000
00001000
00010000
00001000
00000000
,
00010000
00001000
00010000
00001000
00100000
00010000
01000000
00010000
,
00100000
01000000
10000000
00010000
10000000
00100000
01000000
00000000
,
00100000
10000000
00100000
10000000
01000000
00010000
01000000
00010000
,
00001000
00000000
00000000
00000000
,
00011000
00000000
00000000
00000000
,
00000000
00000000
00000000
00000000
;
#NOTES:
     dance-double:
     :
     Hard:
     12:
     :
00000000
00000000
00000000
00000000
,
00000000
00000000
00000000
00000000
,
00000000
00000000
00000000
00000000
,
00000000
00000000
00000000
00000000
,
00000000
00000000
00000000
00000000
,
00022000
00000000
00033000
00000000
00001000
00010000
00001000
00000000
,
00010000
00100000
10000000
00200000
00000000
00000000
00300000
00000000
,
00100000
00010000
00001000
00000020
00000000
00000000
00000030
00000000
,
00000010
00001000
00010000
02000000
00000000
00000000
03000000
00000000
,
02200000
00000000
03300000
00000000
00010000
10000000
00010000
00000000
,
10000000
01000000
00010000
00002000
00000000
00000000
00003010
00000000
,
00000001
00000100
00001000
00020000
00000000
00000000
00130000
00000000
,
10000000
01000000
00010000
00002000
00000000
00000000
00003000
00000000
,
00010000
00000100
00000010
00000000
00000010
00000100
00010000
00000000
,
00001000
01000000
00100000
00000000
00100000
01000000
00001000
00000000
,
00010000
00001000
00000100
00001000
00010000
00001000
00000010
00001000
,
00020000
01000000
00000000
00031000
,
00001000
00100000
01000000
00000000
01000000
00100000
00001000
00000000
,
00010000
00000010
00000100
00000000
00000100
00000010
00010000
00000000
,
00001000
00010000
00100000
00010000
00001000
00010000
01000000
00010000
,
00002000
00000010
00013000
00000000
,
00001000
00010000
00100000
10000000
00010000
00100000
01000000
00001000
,
01000000
00100000
00010000
10000000
00100000
00010000
00001000
00000100
,
00000001
00000010
00000100
00010000
00000010
00000100
00010000
00001000
,
00000010
00001000
00000100
00010000
00001000
00000000
00011000
00000000
,
00010000
00001000
00000010
00000001
00001000
00000010
00000100
00010000
,
00000100
00000010
00001000
00000001
00000010
00001000
00010000
01000000
,
10000000
00100000
01000000
00001000
00100000
01000000
00001000
00010000
,
00100000
00010000
01000000
00001000
00000000
00001000
00010000
00000000
,
00001000
00000000
00000000
00001000
00000000
00000000
00001000
00000000
00000000
00000000
00000010
00000000
00000001
00000000
00001000
00000001
,
00001000
00000000
00000000
00001000
00000000
00000000
00001000
00000000
00000000
00000000
00000100
00000000
00010000
00000000
00001000
00010000
,
00001000
00000000
00000000
00001000
00000000
00000000
00001000
00000000
00000000
00000000
01000000
00000000
00010000
00000000
00100000
01000000
,
00100000
00000000
00000000
00100000
00000000
00000000
00100000
00000000
00000000
00000000
01000000
00000000
01000000
00000000
00000000
00000000
,
10000000
01000000
00100000
00010000
00001000
00010000
00100000
01000000
,
10000000
00100000
00010000
00001000
00100000
00010000
00001000
00000100
,
00000010
00000001
00001000
00000100
00000010
00000100
00001000
00000010
,
00000100
00010000
00001000
00000010
00001000
00000000
00001001
00000000
,
00000001
00000000
00000100
00000010
00000000
00000100
00000010
00000000
00001000
00000000
00000100
00000000
00000010
00000000
00000100
00000000
,
00010000
00000000
00001000
00010000
00000000
00001000
00010000
00000000
00001000
00000000
01000000
00000000
00010000
00000000
00100000
00000000
,
01000000
00000000
10000000
00100000
00000000
10000000
00100000
00000000
10000000
00000000
01000000
00000000
00100000
00000000
00010000
00000000
,
00001000
00000000
00000100
00000010
00000000
00000100
00000010
00000000
00000001
00000000
00000100
00000000
00001000
00000000
00000100
00000000
,
00000001
00000000
00000010
00000100
00000000
00010000
00000010
00000000
00000100
00000000
00000010
00000000
00000100
00000000
00001000
00000000
,
00010000
00000000
00100000
01000000
00000000
00001000
00010000
00000000
01000000
00000000
00100000
00000000
00001000
00000000
00010000
00000000
,
01000000
00000000
10000000
00100000
00000000
00010000
00100000
00000000
01000000
00000000
00010000
00000000
00100000
00000000
00001000
00000000
,
01000000
00000000
00100000
00010000
00000000
00001000
00010000
00000000
00000100
00000000
00001000
00000000
00000100
00000000
00000010
00000000
,
00000001
00000000
00000100
00000010
00000000
00001000
00000010
00001000
00000010
00000000
00001000
00000000
00000100
00000000
00000000
00000000
,
00010000
00000000
00000100
00010000
00000000
00001000
00010000
00001000
00010000
00000000
00100000
00000000
10000000
00000000
00000000
00000000
,
00010000
00000000
10000000
01000000
00000000
00100000
01000000
00100000
01000000
00000000
00010000
00000000
00001000
00000000
00000000
00000000
,
00000010
00000000
00000100
00001000
00000000
00000001
00000100
00000001
00000100
00000000
00000010
00000000
00010000
00000000
00000000
00000000
,
00001000
00000000
00010000
01000000
00000000
10000000
00100000
10000000
00100000
00000000
01000000
00000000
10000000
00000000
01000000
00000000
,
00010000
00000000
00100000
00001000
00000000
00010000
00001000
00010000
00000100
00000000
00001000
00000000
00000010
00000000
00000100
00000000
,
00000001
00000000
00000010
00000100
00000000
00001000
00000100
00010000
00001000
00000000
01000000
00000000
00010000
00000000
10000000
00000000
,
00100000
00000000
00000000
00000000
,
10010000
00000000
00000000
00000000
,
00000000
00000000
00000000
00000000
;
