
//----- song ID: mtpn -----//
#TITLE:メンタンピンドラドラ;
#ARTIST:enzo + O2i3;
#TITLETRANSLIT:Mentanpindoradora;
#BANNER:Mentanpindoradora.png;
#BACKGROUND:Mentanpindoradora-bg.png;
#CDTITLE:./CDTitles/MUSECA 1.5.png;
#MUSIC:Mentanpindoradora.ogg;
#SAMPLESTART:32.433;
#SAMPLELENGTH:15;
#DISPLAYBPM:93:185;
#BPMS:0=92.5,50=185,65=92.5,65.25=185,65.5=370,66=185,96=370,96.5=185,96.75=92.5,97.25=185,97.5=370,98=185,114=92.5,146=185,170=740,194=185,211=92.5,211.25=185,211.5=370,212=185,243=92.5,243.25=185,243.5=370,244=185;
#STAGE:3;
#NOTES:
     dance-single:
     :
     Beginner:
     2:
     :
0000
0000
0000
0000
,
0000
0000
0000
0000
,
0000
0000
0000
0000
,
0000
0000
0000
0000
,
0000
0000
0001
0000
,
0100
0000
0001
0000
,
0000
0000
1000
0000
,
0100
0000
1000
0000
,
0000
0000
0010
0000
,
0000
0010
0000
0000
,
0100
0000
0000
0100
,
0000
0000
0000
0000
,
0000
0000
1000
0000
,
0000
0000
1000
0000
,
0000
0000
0100
0000
,
0000
0000
0020
0000
,
0000
0000
0030
0000
,
0000
0000
0100
0000
,
0000
0000
0100
0000
,
0000
0000
0001
0000
,
0000
0000
0000
0000
,
0000
0000
0001
0000
,
0000
0000
0010
0000
,
0000
0000
0002
0000
,
0000
0000
0003
0000
,
0000
0000
0001
0000
,
0000
0000
0100
0000
,
0000
0000
0100
0000
,
0000
0000
0010
0000
,
0010
0000
0010
0000
,
0000
0000
0100
0000
,
0100
0000
0100
0000
,
0000
0000
2000
0000
,
0000
0000
3000
0000
,
0000
0000
0020
0000
,
0000
0000
0030
0000
,
0000
0000
0001
0000
,
0000
0000
0010
0000
,
0000
0000
0001
0000
,
0001
0000
0100
0000
,
0000
0000
0010
0000
,
0000
0000
1000
0000
,
0000
0000
2002
0000
,
0000
0000
0000
0000
,
0000
0000
0000
0000
,
0000
0000
0000
0000
,
0000
0000
0000
0000
,
0000
0000
0000
0000
,
0000
0000
3003
0000
,
1000
0000
1000
0000
,
0100
0000
0000
0000
,
1000
0000
0000
0000
,
0020
0000
0000
0000
,
0030
0000
0000
0000
,
0010
0000
0010
0000
,
0100
0000
0000
0000
,
0001
0000
0000
0000
,
0000
0000
0000
0000
,
0000
0000
0001
0000
,
0100
0000
0000
0000
,
0002
0000
0000
0000
,
0003
0000
0000
0000
,
0001
0000
0001
0000
,
0010
0000
0000
0000
,
0100
0000
0000
1001
,
0000
0000
0000
0000
;
#NOTES:
     dance-single:
     :
     Easy:
     7:
     :
0000
0000
0000
0000
,
0000
0000
0000
0000
,
0000
0000
0000
0000
,
0000
0000
0000
0000
,
0000
0000
1000
1000
,
0010
0000
1000
1000
,
0001
0000
0001
0001
,
0010
0000
0001
0001
,
1000
0000
0000
0000
1000
0000
0000
0100
,
0000
0000
0010
0000
0000
0110
0000
0000
,
0001
0000
0000
0100
0000
0000
0010
0000
,
0000
0110
0000
0000
0000
0000
0000
0000
,
0000
0000
0001
0100
,
0001
0100
0010
0100
,
0001
0000
1000
0100
,
0010
0001
1000
0000
,
1001
0000
0001
0010
,
0001
0010
0100
0010
,
0001
0000
1000
0001
,
0100
0010
1000
1000
,
1000
0000
1001
0000
,
1000
0010
0100
0010
,
1000
0000
0001
0010
,
0100
1000
0001
0000
,
1001
0000
1000
0100
,
1000
0100
0010
0100
,
1000
0000
0001
1000
,
0010
0100
0001
0001
,
0001
0000
0000
0000
0001
0100
0001
0000
,
1000
0100
1000
0000
0001
0010
0001
0000
,
1000
0010
1000
0000
0001
0000
1001
0000
,
1000
0001
1000
0000
0100
0000
0110
0000
,
0010
0100
0010
0000
0002
0000
0000
0000
,
0003
0000
2000
0000
,
3000
0000
0020
0000
,
0030
0000
0200
0000
,
0300
0000
0001
0001
,
0011
0000
0001
0100
,
0010
0000
1000
1000
,
1010
0000
0010
0100
,
0010
0000
1000
1000
,
1100
0000
1000
0100
,
0010
0001
0020
0000
,
0000
0000
0000
0000
,
0000
0000
0000
0000
,
0000
0000
0000
0000
,
0000
0000
0000
0000
,
0000
0000
0000
0000
,
0000
0000
0030
0000
,
0001
0000
1000
0000
0100
0010
0100
0000
,
1000
0001
0100
0000
,
0001
0010
1000
0010
,
0001
0001
1001
0000
,
1000
0000
0001
0000
0010
0100
1000
0000
,
0001
0100
0001
0000
,
1000
0010
0001
0010
,
1000
1000
1001
0000
,
0000
0000
0001
0100
,
0001
1000
0010
0000
,
1000
0100
0001
0100
,
1000
1000
1001
0000
,
0001
0000
1000
0000
0100
0010
0001
0000
,
1000
0010
1000
0000
,
0001
0100
1000
0100
,
0001
1000
0001
0000
1000
0000
1001
0000
,
0000
0000
0000
0000
;
#NOTES:
     dance-single:
     :
     Medium:
     11:
     :
0000
0000
0000
0000
,
0000
0000
0000
0000
,
0000
0000
0000
0000
,
0000
0000
0000
0000
,
0000
0000
0000
0000
0000
0000
0000
0000
1000
0000
0010
0000
1000
0100
1000
0000
,
0001
0010
0001
0000
1000
0000
0000
0000
0001
0000
0100
0010
0000
0100
0010
0000
,
1000
0100
0010
0000
0002
0000
0003
0000
0001
0000
0010
0000
0001
0100
0001
0000
,
1000
0010
1000
0000
0001
0000
0000
0000
1000
0000
0100
0010
0000
0100
0010
0000
,
0001
0100
0010
0000
2000
0000
3000
0000
0001
0000
0010
0000
0001
0000
1000
0000
,
1000
0000
1000
0010
1000
0001
0001
0000
,
0001
0100
0001
1000
1000
0000
1000
0100
,
1000
0002
0000
0000
0003
0000
0000
0000
,
0000
0000
0000
0000
0001
0100
0001
0100
,
0010
1000
0001
0000
1000
0100
0001
0100
,
1000
0000
1001
0000
0001
0010
0100
1000
,
0010
0100
0001
0000
1000
0010
0001
0010
,
1000
0000
0000
0000
1000
0000
0010
0100
,
0001
0100
0010
0000
1000
0100
0010
1000
,
0010
0000
0001
0000
0010
0100
1000
0010
,
1000
0100
0010
0000
0001
0100
0001
1000
,
0001
0110
1000
0110
,
1000
0001
1000
0000
0001
0100
1000
0100
,
0001
0000
1001
0000
1000
0010
0100
0001
,
0010
0100
1000
0000
0001
0010
1000
0010
,
0001
0000
0000
0000
0001
0000
0010
0100
,
1000
0100
0010
0000
0001
0100
0010
0001
,
0010
0000
1000
0000
0010
0100
0001
0010
,
0001
0100
0010
0000
1000
0100
1000
0001
,
1000
0000
0000
0000
0001
0001
0100
0100
,
0010
0010
1000
1010
0001
0001
0010
0010
,
0100
0000
0100
0000
1000
0000
1100
0000
1001
0000
0001
1000
0000
0000
0001
1000
,
0000
0100
0010
0000
0001
0000
1001
0000
0100
0000
0100
0000
0110
0000
0110
0000
,
1000
0001
1000
0001
1000
0000
0000
0000
0001
0000
0000
0000
1000
0000
0000
0100
,
0000
0000
0000
0000
0000
0000
0000
0000
1000
0000
0000
0000
0001
0000
0000
0100
,
0000
0000
0000
0000
0000
0000
0000
0000
0001
0000
0000
0000
1000
0000
0000
0010
,
0000
0000
0000
0000
0000
0000
0000
0000
1000
0000
0000
0000
0001
0000
0000
0010
,
0000
0000
0000
0000
0001
1000
0001
0000
1000
0000
0000
0000
1010
0000
0000
0000
,
0010
1010
1000
1010
,
0010
1000
0010
0000
0001
0000
0101
0000
,
0100
0101
0001
0101
,
0100
0001
0100
0000
0001
0000
0011
0000
,
0010
0011
0001
0011
,
0010
0001
1000
0100
2000
0000
0000
0000
,
0000
0000
0000
0000
,
0000
0000
0000
0000
,
0000
0000
0000
0000
,
0000
0000
0000
0000
,
0000
0000
0000
0000
,
0000
0000
3000
0000
,
1000
0010
1000
0010
0100
0001
1000
0000
,
0001
0010
0100
0010
0001
0000
1001
0000
,
1000
0010
0100
0000
0001
0010
0100
0000
,
1000
0001
0010
0001
1000
0000
0000
0000
,
1000
0001
1000
0001
0100
0010
0100
0000
,
0001
0010
0100
1000
0001
0000
1001
0000
,
1000
0100
1000
0001
0100
0001
1000
0000
,
0001
0100
0010
1000
0001
0000
1001
0000
,
0100
0000
1001
0000
0001
1000
0001
0000
,
1000
0100
0010
0100
1000
0000
1001
0000
,
0001
0100
0010
0000
1000
0100
0010
0000
,
0001
1000
0100
1000
0001
0000
0000
0000
,
0001
1000
0001
1000
0010
0100
0010
0000
,
1000
0100
0010
0001
1000
0000
1001
0000
,
0001
0010
0001
1000
0010
1000
0001
0000
,
1000
0010
0100
0001
1000
0000
1001
0000
,
0000
0000
0000
0000
;
#NOTES:
     dance-single:
     :
     Hard:
     16:
     :
0000
0000
0000
0000
,
0000
0000
0000
0000
,
0000
0000
0000
0000
,
0000
0000
0000
0000
,
0000
0000
0000
0000
0000
0000
0000
0000
0000
0000
0000
0000
0000
0000
0000
0000
1000
0000
0000
0000
0100
0000
0000
0000
1000
0010
1000
0000
0001
0000
0000
0000
,
1000
0100
0001
0100
1000
0000
0001
0010
0100
0010
0001
0100
0010
1000
0100
0010
,
0001
0000
1000
0001
1000
0000
0001
0000
0100
0000
0001
0000
1001
0000
0000
0000
0001
0000
0000
0000
0010
0000
0000
0000
0001
0100
0001
0000
1000
0000
0000
0000
,
0001
0010
1000
0010
0001
0000
1000
0100
0010
0100
1000
0010
0100
0001
0010
0100
,
1000
0000
0001
1000
0001
0000
1000
0000
1001
0000
0000
0000
0000
0000
0000
0000
0002
0000
0000
0000
0100
0000
0000
0000
0103
0000
0000
0000
0200
0000
0000
0000
,
0020
0330
0020
1000
1030
1000
0001
1001
,
2000
0100
3100
0200
0020
0330
0020
0001
,
0031
2002
0000
0000
3003
0000
0000
0000
,
0000
0000
0000
0000
0000
0000
0000
0000
0001
0000
0100
0010
0100
0010
1000
0000
,
0001
0000
0100
0000
1000
0000
0100
0000
0001
0000
0010
0100
0010
0000
0001
0000
,
1000
0000
1000
0001
1000
0010
0001
0010
,
1000
0000
0100
0010
0001
0010
0001
0000
1000
0000
0100
0001
0100
0000
1000
0000
,
0001
0000
0000
0000
0110
0000
0000
0000
1000
0000
0010
0100
0010
0100
0001
0000
,
1000
0000
0010
0000
0001
0000
0010
0000
1000
0000
0100
0010
0100
0000
1000
0000
,
0001
0000
0000
0000
0001
0000
1000
0000
0001
0000
0100
0010
1000
0010
0100
0010
,
1000
0001
1000
0000
0100
0000
0010
0000
0001
0000
0010
1000
0010
0000
0001
0000
,
1000
0000
0010
0100
0010
0000
1000
0100
0010
0000
0000
0000
1001
0000
0000
0000
,
0001
0010
0100
0000
1000
0000
0001
0000
0010
0000
1000
0000
0010
0000
0001
0000
,
1000
0000
1000
0010
0200
0302
0023
0230
,
2300
0000
3010
0100
0001
0100
0010
0000
1000
0000
0100
0001
0100
0000
1000
0000
,
0002
0000
0000
0000
0000
0000
0000
0000
1003
0000
0100
1000
0001
1000
0100
0000
,
0010
0001
0100
0010
2000
3020
0230
0302
,
0023
0000
0000
0000
0130
0000
0100
0000
1000
0000
0001
0010
0001
0000
0100
0000
,
0010
0000
1000
0000
0100
0000
0010
0001
0010
0000
0100
0000
0001
0000
0100
0000
,
1000
0000
0000
0000
0010
0000
0100
0000
0010
0000
0000
0000
1000
0000
0001
0000
1000
0000
0000
0000
1001
0000
0000
0000
0001
0000
0100
0000
0001
1000
0010
0000
,
1010
0000
1000
0001
0010
0000
0011
0000
0002
0000
0000
0000
2003
0000
0000
0000
3100
0000
0000
0000
1001
0000
0000
0000
1000
0000
0010
0000
1000
0001
0100
0000
,
0101
0000
0001
1000
0100
0000
1100
0000
2000
0000
0000
0000
3002
0000
0000
0000
0103
0000
0000
0000
0010
0000
1100
0000
0000
0000
1000
0000
0010
0000
0101
0000
,
0000
0000
0001
0010
0001
0000
1000
0000
0100
0000
0100
0000
0110
0000
0000
0000
0001
0000
0000
0000
0110
0000
0000
0000
1000
0000
1100
0000
0100
1000
0010
0000
,
1010
0000
1000
0010
0100
0000
0110
0000
1001
0000
0000
0000
0000
0000
0000
0000
0002
0000
0000
0000
0000
0000
0000
0000
0203
0000
0000
0000
0000
0000
0020
0000
,
0000
0000
0330
0000
0110
0000
0000
0000
1000
0000
0010
0001
0000
0010
0000
2000
,
0000
0000
0000
0000
0000
0000
3000
0000
0001
0000
0001
0000
0010
0000
0010
0001
,
0100
0000
0110
0000
0010
0000
1010
0000
1000
0100
0010
0001
1000
0100
0010
0002
,
0000
0000
0000
0000
1003
0010
0001
0010
1000
0000
0000
0000
1010
0000
0000
0000
,
1000
0000
0000
0010
1000
0000
0010
0000
0100
0000
0001
0000
0011
0000
0000
0000
,
0001
0000
0000
0001
0010
0000
0001
0100
0001
0000
0000
0000
1100
0000
0000
0000
,
0100
0000
0000
1000
0100
0000
1000
0000
0010
0000
1000
0000
1010
0000
0000
0000
,
0010
0000
0000
1000
0010
0000
0001
0000
0010
0000
0000
0000
0110
0000
0000
0000
,
0010
0000
0000
0100
0010
0000
0100
0000
0010
0000
1000
0000
1001
0000
0000
0000
,
0001
0000
0000
1000
0001
0000
0001
1000
0002
0000
0000
0000
0000
0000
0000
0000
,
0000
0000
0000
0000
,
0000
0000
0000
0000
,
0000
0000
0000
0000
,
0000
0000
0000
0000
,
0000
0000
0000
0000
,
0000
0000
0003
0000
,
0001
0000
0100
0010
1000
0100
0010
0000
0001
0000
0010
0000
0100
0000
1000
0000
,
0010
0100
0101
0001
1001
0000
1000
0100
,
0001
0000
0100
1000
0100
1000
0001
0000
0010
0000
1000
0010
0001
1000
0100
0000
,
0010
0000
0001
0100
0010
0000
0100
0000
0001
0000
0000
0000
2000
0000
0000
0000
,
3001
0000
0100
0010
1000
0010
0100
0000
0001
0000
0010
0000
0100
0000
1000
0000
,
0010
0100
0101
0001
1001
0000
1000
0010
,
1000
0000
0100
0010
0001
0100
0010
1000
0100
0010
0001
0000
1000
0100
0010
0001
,
0010
0000
1000
0010
0001
0000
1000
0000
0100
0000
0010
0100
0010
0000
0001
1000
,
0001
0000
0000
0000
1001
0000
0000
0000
1000
0001
0010
0000
1000
0000
0010
0000
,
0100
1000
1010
0010
0110
0000
0001
0010
,
1000
0000
0010
0001
0100
0010
1000
0000
0100
0000
0001
0100
0010
0100
1000
0000
,
0001
0000
0100
1000
0100
0000
0001
0000
1000
0000
0000
0000
0110
0000
0000
0000
,
0001
0000
0100
0010
1000
0001
0100
0000
1000
0000
0100
0000
0001
0000
1000
0000
,
0100
0010
0011
0001
0101
0000
0001
1000
,
0010
1000
0010
0100
0001
0010
0001
0000
1000
0010
1000
0100
0010
0001
0100
0001
,
0100
0000
0010
1000
0100
0000
0010
0001
0100
0000
0000
0000
1001
0000
0000
0000
,
0000
0000
0000
0000
;
#NOTES:
     dance-double:
     :
     Easy:
     7:
     :
00000000
00000000
00000000
00000000
,
00000000
00000000
00000000
00000000
,
00000000
00000000
00000000
00000000
,
00000000
00000000
00000000
00000000
,
00000000
00000000
10000000
00010000
,
10000000
00000000
10000000
01000000
,
00100000
00000000
00100000
00001000
,
00010000
00000000
00001000
00001000
,
00011000
00000000
00000000
00000000
00010000
00000000
00000000
00000100
,
00000000
00000000
00001000
00000000
00000000
00001000
00000000
00000000
,
00000010
00000000
00000000
00000100
00000000
00000000
00000001
00000000
,
00000000
00000001
00000000
00000000
00000000
00000000
00000000
00000000
,
00000000
00000000
00000001
00000010
,
00000001
00001000
00000100
00001000
,
00000100
00000000
00001000
00000100
,
00001000
00000010
00010000
00001000
,
00010000
00000000
00001000
00010000
,
00001000
00100000
00010000
01000000
,
00010000
00000000
00100000
00010000
,
01000000
00100000
10000000
00010000
,
10000000
00000000
00010000
00000000
,
10010000
00000000
10000000
01000000
,
00100000
00000000
00010000
00100000
,
01000000
00100000
00001000
00000000
,
00011000
00000000
00010000
00010000
,
00001000
00000000
00010000
00000010
,
00001000
00000000
00000010
00000100
,
00000001
00001000
00000001
00000000
,
00001001
00000000
00000000
00000000
00000001
00000001
00000100
00000000
,
00000110
00000000
00001001
00000000
00001000
00001000
00000100
00000000
,
00010000
00000000
00011000
00000000
00001000
00100000
00010000
00000000
,
01100000
00000000
10010000
00000000
10000000
10000000
01000000
00000000
,
01100000
10010000
00020000
00000000
,
00030000
00000000
00200000
00000000
,
00300000
00000000
00002000
00000000
,
00003000
00000000
00020000
00000000
,
00030000
00000000
00001000
00000000
,
00011000
00000000
00000010
00001000
,
00000010
00000000
00000100
00000000
,
00000110
00000000
00000001
00001000
,
00000001
00000000
00001000
00001000
,
00000100
00000000
00010000
00010000
,
00001000
00000000
00022000
00000000
,
00000000
00000000
00000000
00000000
,
00000000
00000000
00000000
00000000
,
00000000
00000000
00000000
00000000
,
00000000
00000000
00000000
00000000
,
00000000
00000000
00000000
00000000
,
00000000
00000000
00033000
00000000
,
00010000
00000000
00001000
00000000
01000000
00010000
01000000
00000000
,
00010000
00100000
00010000
00000000
,
10000000
01000000
00100000
01000000
,
00010000
00001000
00010000
00000000
,
00010000
00000000
00000100
00000000
00001000
00000010
00001000
00000000
,
00000100
00000010
00000100
00000000
,
00001000
00000100
00000010
00000100
,
00000010
00000001
00001001
00000000
,
00000000
00000000
00000001
00000010
,
00000100
00001000
00000010
00000000
,
00001000
00000010
00010000
00001000
,
00010000
00010000
00011000
00000000
,
00001000
00000000
01000000
00000000
00010000
00100000
00010000
00000000
,
01000000
00100000
10000000
00000000
,
10000000
01000000
00100000
00001000
,
00010000
00001000
00010000
00000000
00001000
00000000
00011000
00000000
,
00000000
00000000
00000000
00000000
;
#NOTES:
     dance-double:
     :
     Medium:
     11:
     :
00000000
00000000
00000000
00000000
,
00000000
00000000
00000000
00000000
,
00000000
00000000
00000000
00000000
,
00000000
00000000
00000000
00000000
,
00000000
00000000
00000000
00000000
00000000
00000000
00000000
00000000
10000000
00000000
00010000
00000000
00100000
01000000
00100000
00000000
,
00001000
00000000
00010000
00000000
00011000
00000000
00000000
00000000
00001000
00000000
00010000
00000100
00000000
00001000
00000100
00000000
,
00000010
00000001
00000010
00000000
00000200
00000000
00000300
00000000
00000100
00000000
00000010
00000000
00000001
00001000
00000001
00000000
,
00001000
00000100
00001000
00000000
00000010
00000000
00000000
00000000
00001000
00000000
00000100
00010000
00000000
00001000
00010000
00000000
,
00001000
01000000
00010000
00000000
00200000
00000000
00300000
00000000
00010000
00000000
01000000
00000000
10000000
00000000
10000000
00000000
,
01000000
00000000
00100000
01000000
00010000
00100000
00001000
00000000
,
00001000
00010000
00000100
00001000
00000010
00000000
00001000
00000100
,
00000001
00000200
00000000
00000000
00000300
00000000
00000000
00000000
,
00000000
00000000
00000000
00000000
00000001
00000100
00000001
00000100
,
00000010
00001000
00000010
00000000
00001000
00000100
00000001
00000100
,
00001000
00000000
00001000
00000010
00010000
00001000
00100000
00001000
,
00010000
00000100
00010000
00000000
00000010
00000100
00001000
00010000
,
00001000
00000000
00000000
00000000
00001000
00000000
00010000
00001000
,
01000000
00010000
00100000
00000000
00010000
01000000
10000000
01000000
,
00010000
00000000
00100000
01000000
00100000
00001000
00100000
00000000
,
00001000
01000000
00001000
00000000
00100000
00010000
01000000
00100000
,
10000000
10010000
01100000
10010000
,
10000000
00010000
00100000
00000000
00010000
01000000
10000000
01000000
,
00010000
00000000
00010000
00100000
00001000
00010000
00000010
00010000
,
00001000
01000000
00001000
00000000
00100000
01000000
00010000
00001000
,
00010000
00000000
00000000
00000000
00010000
00000000
00001000
00010000
,
00000100
00001000
00000010
00000000
00001000
00000100
00000001
00000100
,
00001000
00000000
00000010
00000100
00000010
00010000
00000010
00000000
,
00010000
00000100
00010000
00000000
00000010
00001000
00000100
00000010
,
00000001
00000000
00001001
00000000
00000001
00000001
00000010
00000010
,
00001000
00001000
00010000
00011000
00001000
00001000
00010000
00010000
,
01000000
00000000
01000000
00000000
10000000
00000000
11000000
00000000
10010000
00000000
00010000
01000000
00000000
00000000
00100000
10000000
,
00000000
10000000
01000000
00000000
00100000
00000000
01100000
00000000
00010000
00000000
10000000
00000000
01000000
00000000
01000000
00000000
,
00010000
00001000
00010000
00001000
00010000
00000000
00000000
00000000
00001000
00000000
00000000
00000000
00000010
00000000
00000000
00001000
,
00000000
00000000
00000000
00000000
00000000
00000000
00000000
00000000
00010000
00000000
00000000
00000000
00100000
00000000
00000000
00010000
,
00000000
00000000
00000000
00000000
00000000
00000000
00000000
00000000
00001000
00000000
00000000
00000000
00000100
00000000
00000000
00001000
,
00000000
00000000
00000000
00000000
00000000
00000000
00000000
00000000
00010000
00000000
00000000
00000000
01000000
00000000
00000000
00010000
,
00000000
00000000
00000000
00000000
00001000
00010000
00001000
00000000
00010000
00000000
00000000
00000000
00011000
00000000
00000000
00000000
,
00010000
00011000
00001000
00101000
,
00001000
00101000
00010000
00010100
,
00010000
00010100
00001000
00011000
,
00001000
00010000
00001000
00000000
00010000
00000000
00001000
00000000
,
00000100
00000010
00000100
00000000
00001000
00000000
00010000
00000000
,
00100000
01000000
00100000
10000000
00020000
00000000
00000000
00000000
,
00000000
00000000
00000000
00000000
,
00000000
00000000
00000000
00000000
,
00000000
00000000
00000000
00000000
,
00000000
00000000
00000000
00000000
,
00000000
00000000
00000000
00000000
,
00000000
00000000
00030000
00000000
,
10000000
01000000
00100000
00010000
01000000
00100000
10000000
00000000
,
01000000
00100000
00001000
00000000
00010000
00000000
00011000
00000000
,
00001000
00000010
00000100
00000000
00001000
00000010
00000100
00000000
,
00001000
00000100
00000001
00000100
00002000
00000000
00000000
00000000
,
00013000
00000100
00001000
00000010
00001000
00000100
00000010
00000000
,
00000001
00000010
00001000
00000000
00000010
00000000
00000110
00000000
,
00000001
00000010
00000100
00001000
00000010
00000100
00001000
00000000
,
00010000
00001000
00000100
00000000
00000010
00000000
00000110
00000000
,
00001000
00000000
00001001
00000000
00000001
00000010
00000001
00000000
,
00000100
00000010
00010000
00000000
00001000
00000000
00011000
00000000
,
00010000
00100000
01000000
00000000
00010000
00100000
01000000
00000000
,
00010000
01000000
10000000
01000000
00020000
00000000
00000000
00000000
,
00031000
01000000
00010000
00100000
00010000
01000000
00100000
00000000
,
10000000
00100000
00010000
00000000
00100000
00000000
01100000
00000000
,
10000000
00100000
01000000
00010000
00100000
01000000
00010000
00000000
,
00001000
00010000
01000000
00000000
00100000
00000000
01100000
00000000
,
00000000
00000000
00000000
00000000
;
#NOTES:
     dance-double:
     :
     Hard:
     16:
     :
00000000
00000000
00000000
00000000
,
00000000
00000000
00000000
00000000
,
00000000
00000000
00000000
00000000
,
00000000
00000000
00000000
00000000
,
00000000
00000000
00000000
00000000
00000000
00000000
00000000
00000000
00000000
00000000
00000000
00000000
00000000
00000000
00000000
00000000
10000000
00000000
00000000
00000000
00100000
00000000
00000000
00000000
10000000
01000000
10000000
00000000
00010000
00000000
00000000
00000000
,
00100000
00001000
01000000
00001000
00010000
00000000
00001000
00000010
00000001
00001000
00000100
00000010
00000001
00001000
00000100
00000010
,
00000001
00000000
00000100
00000000
00001000
00000000
00010000
00000000
00002000
00000000
00000000
00000000
00003000
00000000
00000000
00000000
00001000
00000000
00000000
00000000
01000000
00000000
00000000
00000000
00010000
00100000
00010000
00000000
01000000
00000000
00000000
00000000
,
00100000
10000000
01000000
10000000
00100000
00000000
10000000
01000000
00010000
00001000
00010000
00001000
00010000
00100000
00010000
00100000
,
00010000
00001000
00000100
00000001
00001001
00000000
00000000
00000000
00000002
00000000
00000100
00000000
00000103
00000000
00000200
00000000
,
00002000
00003300
00002000
00010000
00013000
00010000
00100000
01100000
,
20000000
01000000
31000000
02000000
00020000
03030000
00020000
00001000
,
00031000
00022000
00000000
00000000
00033000
00000000
00000000
00000000
,
00000000
00000000
00000000
00000000
00000000
00000000
00000000
00000000
00001000
00000000
00010000
00000100
00010000
00000000
00000010
00000000
,
00001000
00000000
00000100
00000010
00000100
00000000
00000010
00000000
00000001
00000000
00000100
00000010
00001000
00000000
00000100
00000000
,
00000010
00000000
00000001
00000100
00001000
00010000
00100000
10000000
,
00010000
00000000
01000000
00100000
01000000
00100000
10000000
00000000
00010000
00000000
01000000
10000000
01000000
00000000
00010000
00000000
,
20000000
00000000
00000000
00000000
00000000
00000000
00000000
00000000
30010000
00000000
00100000
01000000
00100000
00000000
00010000
00000000
,
10000000
00000000
01000000
00100000
01000000
00000000
00010000
00000000
00001000
00000000
00000010
00000100
00001000
00000000
00000001
00000000
,
00000100
00000000
00000000
00000000
00000001
00000000
00000010
00000000
00000001
00000000
00000100
00000010
00000100
00000010
00001000
00000010
,
00001000
00000000
00000100
00010000
00000100
00000000
00010000
00001000
00010000
00000000
00001000
00000000
01000000
00000000
00010000
00000000
,
00100000
00000000
01000000
10000000
00010000
00000000
01000000
00001000
00010000
00000000
00000000
00000000
00011000
00000000
00000000
00000000
,
00001000
00100000
00010000
00000000
01000000
00000000
00100000
00000000
10000000
00000000
01000000
00100000
00010000
00000000
01000000
00000000
,
00100000
00000000
10000000
01000000
00010000
00001000
00000010
00000001
,
00001000
00000000
00000100
00000010
00000100
00000010
00000001
00000000
00001000
00000000
00000100
00000001
00000100
00000000
00001000
00000000
,
00000002
00000000
00000000
00000000
00000000
00000000
00000000
00000000
00001003
00000000
00000010
00000100
00000010
00000000
00001000
00000000
,
00000001
00000000
00000100
00000010
00000100
00000000
00001000
00000000
00010000
00000000
00100000
01000000
00010000
00000000
10000000
00000000
,
01000000
00000000
00000000
00000000
10000000
00000000
00100000
00000000
10000000
00000000
01000000
00100000
01000000
00100000
00010000
00100000
,
00010000
00000000
01000000
00001000
01000000
00000000
00001000
00010000
00001000
00000000
00010000
00000000
00000100
00000000
00001000
00000000
,
00000010
00000000
00000000
00000000
00000100
00000000
00000001
00000000
00001000
00000000
00000000
00000000
00000100
00000000
00001000
00000000
00000001
00000000
00000000
00000000
00001001
00000000
00000000
00000000
00001000
00000000
00000010
00000000
00001000
00000100
00001000
00000000
,
00000100
00000000
00010000
00001000
00010000
00000000
00001000
00000000
00200000
00000000
00000000
00000000
00320000
00000000
00000000
00000000
01030000
00000000
00000000
00000000
01100000
00000000
00000000
00000000
00100000
00000000
01000000
00000000
00010000
01000000
00010000
00000000
,
00100000
00000000
00001000
00010000
00001000
00000000
00010000
00000000
00000200
00000000
00000000
00000000
00002300
00000000
00000000
00000000
00003010
00000000
00000000
00000000
00000100
00000000
00000101
00000000
00000000
00000000
00000001
00000000
00000010
00000000
00000011
00000000
,
00000000
00000000
00000001
00000100
00000001
00000000
00000100
00000000
00001000
00000000
00010000
00000000
00100000
00000000
00000000
00000000
01100000
00000000
00000000
00000000
10010000
00000000
00000000
00000000
00010000
00000000
00110000
00000000
00100000
00001000
00010000
00000000
,
00011000
00000000
00001000
00010000
00000010
00000000
00001000
00000000
00001001
00000000
00000000
00000000
00000000
00000000
00000000
00000000
00000002
00000000
00000000
00000000
00000000
00000000
00000000
00000000
00000203
00000000
00000000
00000000
00000000
00000000
00002300
00000000
,
00000000
00000000
00003000
00000000
00011000
00000000
00000000
00000000
00010000
00000000
00100000
10000000
00000000
00010000
00000000
20000000
,
00000000
00000000
00000000
00000000
00000000
00000000
30000000
00000000
10000000
00000000
10000000
00000000
01000000
00000000
01000000
00100000
,
00010000
00000000
00010000
00000000
00001000
00000000
00001000
00000000
00000100
00000010
00000100
00000010
00000001
00001000
00000001
00002000
,
00000000
00000000
00000000
00000000
00003001
00000010
00001000
00000010
00000001
00000000
00000000
00000000
00000101
00000000
00000000
00000000
,
00000001
00000000
00000000
00000100
00001000
00000000
00010000
00000000
00100000
00000000
01000000
00000000
00100000
00000000
00000000
00000000
,
01100000
00000000
00000000
00100000
10000000
00000000
00010000
10000000
00010000
00000000
00000000
00000000
00110000
00000000
00000000
00000000
,
10000000
00000000
00000000
10000000
01000000
00000000
00010000
00000000
00001000
00000000
00000010
00000000
00000110
00000000
00000000
00000000
,
00000011
00000001
00001100
00001000
00000001
00000000
00001001
00000000
,
00000001
00000000
00000000
00000001
00000010
00000000
00001000
00010000
00001000
00000000
00010000
00000000
00011000
00000000
00000000
00000000
,
00001000
00000000
00000000
00010000
00100000
00000000
10000000
00000000
00020000
00000000
00000000
00000000
00000000
00000000
00000000
00000000
,
00000000
00000000
00000000
00000000
,
00000000
00000000
00000000
00000000
,
00000000
00000000
00000000
00000000
,
00000000
00000000
00000000
00000000
,
00000000
00000000
00000000
00000000
,
00000000
00000000
00030000
00000000
,
10000000
00000000
00100000
01000000
00100000
01000000
00010000
00000000
00100000
00000000
01000000
00000000
00010000
00000000
00001000
00000000
,
00000010
00000100
00010000
00001000
00000010
00000000
00000001
00000100
,
00001000
00000000
00000100
00000001
00000100
00000001
00001000
00000000
00000010
00000000
00010000
00001000
00010000
00000000
00001000
01000000
,
00010000
00000000
00100000
01000000
00100000
00000000
00010000
00000000
20000000
00000000
00000000
00000000
00000000
00000000
00000000
00000000
,
30010000
00000000
00100000
01000000
10000000
01000000
00100000
00000000
00010000
00000000
01000000
00000000
00100000
00000000
00010000
00000000
,
00001000
00000010
00000011
00000001
00001001
00000000
00001000
00000010
,
00000100
00000001
00000100
00000001
00001000
00000010
00001000
00000000
00000100
00010000
00000100
00010000
00001000
00100000
00010000
00000000
,
01000000
00100000
00010000
00000000
00001000
00000100
00000010
00000000
00001000
00000000
00000100
00000001
00000100
00000000
00001000
00000001
,
00001000
00000000
00000000
00000000
00000110
00000000
00000000
00000000
00001000
00000010
00000100
00000000
00001000
00000000
00010000
00000000
,
00100000
01000000
00001000
00010000
00100000
00000000
10000000
01000000
,
00010000
00000000
01000000
10000000
01000000
10000000
00010000
00000000
00100000
00000000
00001000
00010000
00001000
00000000
00010000
00000100
,
00001000
00000000
00000010
00000100
00000010
00000000
00001000
00000000
00000002
00000000
00000000
00000000
00000000
00000000
00000000
00000000
,
00001003
00000000
00000010
00000100
00000001
00000100
00000010
00000000
00001000
00000000
00000100
00000000
00000010
00000000
00001000
00000000
,
00010000
00100000
10100000
10000000
10010000
00000000
00010000
00100000
,
01000000
10000000
01000000
10000000
00010000
00100000
00010000
00000000
01000000
00001000
01000000
00001000
00010000
00000010
00001000
00000000
,
00000100
00000010
00001000
00000000
00010000
01000000
00100000
00000000
00010000
00000000
00000000
00000000
10010000
00000000
00000000
00000000
,
00000000
00000000
00000000
00000000
;
