
//----- song ID: mega -----//
#TITLE:MEGALOVANIA;
#ARTIST:Toby Fox;
#BANNER:MEGALOVANIA.png;
#BACKGROUND:MEGALOVANIA-bg.png;
#CDTITLE:./CDTitles/DDR A3.png;
#MUSIC:MEGALOVANIA.ogg;
#SAMPLESTART:18;
#SAMPLELENGTH:15;
#BPMS:0=120,36=240,292=120,324=240,388=120;
#NOTES:
     dance-single:
     :
     Beginner:
     4:
     :
0000
0000
0000
0000
,
0000
0000
0000
0000
,
0000
0000
0000
0000
,
0000
0000
0000
0000
,
0000
0000
0000
0000
,
0001
0000
0001
0000
,
0001
0000
0000
0000
,
1000
0000
1000
0000
,
1000
0000
0000
0000
,
0001
0000
0000
0000
,
0001
0000
0000
0000
,
1000
0000
0000
0000
,
1000
0000
0000
0000
,
0001
0000
0000
0000
,
0001
0000
0000
0000
,
0010
0000
0000
0000
,
0001
0000
0000
0000
,
1000
0000
0000
0000
,
1000
0000
0000
0000
,
0001
0000
0000
0000
,
0001
0000
0000
0000
,
1000
0000
0000
0000
,
1000
0000
0000
0000
,
0010
0000
0000
0000
,
1000
0000
0000
0000
,
0002
0000
0000
0000
,
0003
0000
0000
0000
,
1000
0000
1000
0000
,
1000
0000
0000
0000
,
0100
0000
0000
0000
,
0010
0000
0000
0000
,
0001
0000
0001
0000
,
0001
0000
0000
0000
,
2000
0000
0000
0000
,
3000
0000
0000
0000
,
0001
0000
0001
0000
,
0001
0000
0000
0000
,
0100
0000
0000
0000
,
0010
0000
0000
0000
,
2000
0000
0000
0000
,
0000
0000
0000
0000
,
3000
0000
0000
0000
,
0001
0000
0000
0000
,
1000
0000
1000
0000
,
0000
0000
0000
0000
,
0001
0000
0000
0000
,
0010
0000
0000
0000
,
0100
0000
0000
0000
,
1000
0000
0000
0000
,
0001
0000
0001
0000
,
0001
0000
0000
0000
,
1000
0000
0000
0000
,
0100
0000
0000
0000
,
0020
0000
0000
0000
,
0030
0000
0000
0000
,
0002
0000
0000
0000
,
0000
0000
0000
0000
,
0003
0000
0000
0000
,
1000
0000
0000
0000
,
0001
0000
0001
0000
,
0000
0000
0000
0000
,
1000
0000
0000
0000
,
0010
0000
0000
0000
,
0100
0000
0000
0000
,
0001
0000
0000
0000
,
1000
0000
1000
0000
,
1000
0000
0000
0000
,
0001
0000
0000
0000
,
0100
0000
0000
0000
,
0020
0000
0000
0000
,
0030
0000
0000
0000
,
2000
0000
0000
0000
,
0000
0000
0000
0000
,
3000
0000
0000
0000
,
0001
0000
0001
0000
,
0002
0000
0000
0000
,
0000
0000
0003
0000
,
1000
0000
0000
0000
,
1000
0000
1000
0000
,
0001
0001
0001
0000
,
1000
1000
1000
0000
,
0001
0000
0000
0000
,
0001
0000
0001
0000
,
0001
0000
0000
0000
,
1000
0000
1000
0000
,
1000
0000
0000
0000
,
0001
0000
0000
0000
,
0010
0000
0000
0000
,
0100
0000
0000
0000
,
1000
0000
0000
0000
,
1000
0000
1000
0000
,
1000
0000
0000
0000
,
0001
0000
0001
0000
,
0001
0000
0000
0000
,
1000
0000
1000
0000
,
1000
0000
0000
0000
,
0001
0000
0001
0000
,
0001
0000
0000
0000
,
1000
0000
0000
0000
,
0010
0000
0010
0000
,
0010
0000
0010
0000
,
0000
0000
0000
0000
;
#NOTES:
     dance-single:
     :
     Easy:
     9:
     :
0000
0000
0000
0000
,
0000
0000
0000
0000
,
0000
0000
0000
0000
,
0000
0000
0000
0000
,
0000
0000
0000
0000
,
1000
1000
1000
1000
,
0001
0001
0001
0001
,
0010
0010
0010
0010
,
0100
0100
0010
0010
,
1001
0000
0000
0000
,
1000
0100
0010
0001
,
1000
0010
1000
0000
,
0001
0010
0100
1000
,
0001
0100
0001
0000
,
1000
0010
0100
0001
,
1000
0100
1000
0000
,
1001
0000
1001
0000
,
1000
1000
1000
0000
,
0001
1000
0100
0010
,
0001
0001
0001
0000
,
1000
0001
0100
0010
,
0100
0100
0100
0000
,
0001
1000
0010
0100
,
0010
0010
0010
0000
,
1001
0000
1001
0000
,
0002
0000
0013
0000
,
0001
0100
0001
0000
,
2000
0000
3010
0000
,
1000
0100
1000
0000
,
0020
0000
1030
0000
,
0001
0010
0001
0000
,
1000
0100
1000
0200
,
0000
0000
0000
0300
,
1000
0001
1000
0000
,
0010
0010
0010
0000
,
1000
0001
1000
0000
,
1000
0100
0010
0000
,
0001
0010
0100
1000
,
0001
0010
0100
1000
,
0001
0000
1000
0000
,
0020
0000
0000
0000
,
1030
0000
1000
0000
,
0001
0100
0001
0100
,
0001
0000
2000
0000
,
0000
0000
3001
1000
,
0001
0000
1000
0100
,
0010
0000
0001
0000
,
1000
0001
0100
0020
,
0000
0000
0030
0000
,
1000
0100
0010
0001
,
0020
0000
0230
0000
,
0320
0000
0032
0000
,
0203
0000
0320
0000
,
2030
0000
0000
3000
,
0001
0010
0100
1000
,
0002
0000
0000
0000
,
2003
0000
0000
3000
,
0001
0000
0001
0000
,
1000
0100
1000
0100
,
1000
0000
0002
0000
,
0000
0000
1003
0001
,
1000
0000
0001
0100
,
0010
0000
1000
0000
,
0001
1000
0100
0020
,
0000
0000
0000
0030
,
0001
0100
0010
1000
,
0020
0000
0230
0000
,
0320
0000
2030
0000
,
3200
0000
0320
0000
,
0032
0000
0000
0000
,
1003
0010
0100
0001
,
2000
0000
0000
0000
,
3002
0000
0000
0003
,
0200
0000
0001
0000
,
0302
0000
1000
0000
,
0023
0000
0001
0000
,
0100
0000
0001
0030
,
0200
0000
1000
0000
,
2300
0000
3001
0000
,
1001
0000
0001
1000
,
1001
0000
1000
0001
,
1001
0000
1000
0000
,
1000
0010
1000
0010
,
0100
0000
0100
0000
,
0001
0010
0001
0010
,
0001
0000
0001
0000
,
1000
0100
1000
0100
,
0010
0000
0010
0000
,
0001
0100
0001
0100
,
0010
0000
0010
0000
,
1000
0010
1000
0010
,
0100
0000
0100
0000
,
0001
0010
0001
0010
,
0001
0001
0001
0000
,
1000
0010
0100
0001
,
1000
1000
1000
0000
,
0001
0010
0100
1000
,
0001
0000
0001
0001
,
1000
0000
1000
1000
,
0010
0000
0100
0100
,
0010
0000
0100
0100
,
0000
0000
0000
0000
;
#NOTES:
     dance-single:
     :
     Medium:
     12:
     :
0000
0000
0000
0000
,
0000
0000
0000
0000
,
0000
0000
0000
0000
,
MMMM
0000
MMMM
0000
,
MMMM
0000
MMMM
0000
,
1000
0010
1000
0000
1000
0000
1000
0000
,
0001
0100
0001
0000
0001
0000
0001
0000
,
0010
0001
0010
0000
0010
0000
0010
0000
,
0100
1000
0100
0000
0010
0000
0010
0000
,
0001
1000
0001
0000
0010
0000
0000
0001
,
0000
MMMM
0000
0001
0000
0100
0010
0000
,
1000
0001
1000
0000
0010
0000
0000
1000
,
0000
MMMM
0000
1000
0000
0100
0010
0000
,
0001
1000
0001
0000
0100
0000
0000
0001
,
0000
MMMM
0000
0001
0000
0010
0100
0000
,
1000
0001
1000
0000
0100
0000
MMMM
0000
,
1001
0000
0000
0110
0000
0000
1001
0000
,
0001
0010
0001
0000
1000
0000
MMMM
1000
,
0000
0100
0000
0010
0000
0010
0001
0000
,
1000
0010
1000
0000
0001
0000
MMMM
0001
,
0000
0100
0000
0010
0000
0010
1000
0000
,
0100
1000
0100
0000
1000
0000
MMMM
1000
,
0000
0010
0000
0100
0000
0100
0001
0000
,
0010
0001
0010
0000
0001
0000
MMMM
0000
,
1001
0000
0000
0110
0000
0000
1001
0000
,
1000
0000
0010
1000
0000
0001
0000
1000
,
0000
0100
0000
2000
0000
0000
3000
0000
,
0001
0000
0100
0001
0000
1000
0000
0001
,
0000
0010
0001
0010
0001
0010
0000
0000
,
0001
0000
1000
0001
0000
0100
0000
0010
,
0000
1000
0000
0100
0000
1000
0000
0000
,
0001
0000
0001
0000
0001
1000
0001
0020
,
0000
0000
0000
0001
0000
0000
0031
0000
,
MMMM
0000
0001
1000
0000
0001
0000
1000
,
0000
0100
0000
2000
0000
0000
3000
0000
,
MMMM
0000
0001
1000
0000
0001
0000
1000
,
0000
0001
0000
0010
0000
0001
0100
0000
,
0001
0010
0100
1000
,
0001
0100
0010
1000
,
0100
0000
1000
0001
0000
0100
0000
0020
,
0000
0000
0000
1000
0000
0000
1030
0000
,
MMMM
1000
MMMM
1000
,
0100
0010
0001
0100
,
0001
1000
0001
0000
0020
0000
0100
0000
,
0000
0000
0001
0000
0030
0001
0000
1000
,
0010
0100
0001
1000
,
0100
0010
0100
1000
,
0010
0000
1000
0000
0010
0100
0010
0200
,
0000
0000
0000
0010
0000
0000
0301
0000
,
0001
0100
0010
1000
,
0002
0000
2003
0000
,
3200
0000
0320
0000
,
0032
0000
0203
0000
,
0320
0000
1000
0030
,
1000
0010
0100
0000
0010
0100
0001
0000
,
2000
0001
0000
0001
,
3002
0000
0000
1000
0000
0000
1003
0000
,
MMMM
0001
MMMM
0001
,
0100
0010
1000
0100
,
0010
0001
0010
0000
0200
0000
0010
0000
,
0000
0000
1000
0000
0300
1000
0000
0001
,
0010
0100
1000
0001
,
0100
0010
0100
0001
,
1000
0000
0001
0000
1000
0100
1000
0200
,
0000
0000
0000
0010
0000
0000
1300
0000
,
1000
0100
0010
0001
,
2000
0000
3002
0000
,
0203
0000
0320
0000
,
2030
0000
3200
0000
,
0320
0000
0001
0030
,
0001
0010
0100
0000
0010
0100
1000
0000
,
0002
1000
0000
1000
,
2003
0000
0000
0001
0000
0000
3001
0000
,
0002
0000
1000
0010
,
2003
0000
3200
0000
,
0320
0000
0001
0001
,
0001
0000
0100
0130
,
1000
0010
1000
0000
1000
0000
1000
0000
,
0001
0100
0001
0000
0001
0000
0001
0000
,
MMMM
0001
1000
0000
0001
0000
1000
0000
,
MMMM
1000
0001
0000
1000
0000
0001
0000
,
MMMM
0000
1000
0100
,
1000
0100
1000
1000
,
MMMM
0000
0001
0100
,
0001
0100
0001
0001
,
MMMM
0000
1000
0001
,
MMMM
0000
0001
0010
,
MMMM
0000
0001
1000
,
MMMM
0000
1000
0100
,
MMMM
0000
1000
0010
,
1000
0010
1000
1000
,
MMMM
0000
0001
0010
,
0001
0010
0001
0001
,
1000
0001
1000
0000
0010
0000
0000
1000
,
0000
MMMM
0000
1000
0000
0100
0010
0000
,
0001
1000
0001
0000
0010
0000
0000
0001
,
0000
MMMM
0000
0001
0000
0100
0010
0000
,
1000
0000
0001
0001
,
1000
0100
1000
0000
1000
0000
1000
0000
,
0010
1000
0010
0000
1000
0000
1000
0000
,
0010
1000
0010
0000
1000
0000
1000
0001
,
0000
0000
0000
0000
;
#NOTES:
     dance-single:
     :
     Hard:
     16:
     :
0000
0000
0000
0000
,
0000
0000
0000
0000
,
0000
0000
0000
0000
,
MMMM
MMMM
MMMM
MMMM
,
MMMM
MMMM
MMMM
MMMM
,
1000
0001
0010
0000
0100
0000
0000
1000
0000
0010
0000
0020
0000
1030
0100
0010
,
0001
1000
0010
0000
0100
0000
0000
0001
0000
0010
0000
0020
0000
0031
0100
0010
,
1000
0001
0100
0000
0010
0000
0000
1000
0000
0100
0000
0200
0000
1300
0010
0100
,
0001
1000
0100
0000
0010
0000
0000
0001
0000
0100
0000
0200
0000
0301
0010
0100
,
1000
0010
1000
0000
0101
0000
MMMM
1000
,
0000
0011
0000
1200
0000
0301
0100
1000
,
0001
0010
0001
0000
1100
0000
MMMM
0001
,
0000
1010
0000
0201
0000
1300
0100
0001
,
1000
0100
1000
0000
0011
0000
MMMM
1000
,
0000
0101
0000
1020
0000
0031
0010
1000
,
0001
0100
0001
0000
1010
0000
MMMM
0001
,
0100
0000
MMMM
1001
0000
MMMM
0110
0000
,
0001
0010
0001
0000
1100
0000
MMMM
0001
,
0000
0110
0000
2001
0000
3100
0001
0100
,
1000
0010
1000
0000
0101
0000
MMMM
1000
,
0000
0110
0000
1002
0000
0013
1000
0010
,
0001
0100
0001
0000
1010
0000
MMMM
0001
,
0000
0110
0000
2001
0000
3010
0001
0010
,
1000
0100
1000
0000
0011
0000
MMMM
1000
,
0001
0000
MMMM
0110
0000
MMMM
1002
0000
,
0023
0000
0031
0010
0000
0010
0000
1020
,
0000
0130
0000
0201
0000
0000
0310
0000
,
1020
0000
1030
0010
0000
0100
0000
2001
,
0000
3100
1000
0001
0010
0100
0010
0000
,
0201
0000
0301
0100
0000
0010
0000
0001
,
0000
0020
0030
1000
0000
0002
0000
0000
,
1003
0000
1001
0000
0001
0010
0001
0200
,
0001
0000
0000
1000
0000
0000
0301
0000
,
2002
3003
1000
0001
0000
1001
0000
2020
,
3030
1000
0000
0022
0000
0000
0033
0000
,
0220
0330
0010
0100
0000
0110
0000
1100
,
0000
0101
0000
1010
0000
0001
2000
3000
,
0002
1003
0002
1003
0200
0310
0200
0310
,
0002
1003
0002
1003
0020
0130
0020
0130
,
2000
0000
3100
0001
0000
0010
0000
0200
,
1000
0000
0000
0001
0000
0000
1300
0000
,
MMMM
1001
MMMM
1001
,
0001
1000
0001
0010
0100
0010
0001
1000
,
0020
1030
0001
0000
0200
0000
0001
0000
,
0010
0000
1000
0000
0310
2000
0000
3001
,
0010
0000
0100
1000
0010
0100
0001
0010
,
0200
2300
3020
0032
,
2003
0000
3100
0000
0100
0001
1000
0002
,
0010
0000
0000
0100
0000
0000
0013
MMMM
,
2002
3003
0202
0303
0220
0330
2020
3030
,
1200
0010
2300
0001
,
3020
1000
0230
0010
,
0302
0010
2003
0100
,
3020
0100
0001
0130
,
0001
0010
0100
1000
0001
0100
0010
1000
,
0200
1000
0010
0001
,
0320
0000
0000
1000
0000
0000
0031
0000
,
MMMM
0110
MMMM
0110
,
1000
0001
1000
0010
0100
0010
1000
0001
,
0020
0031
1000
0000
0200
0000
1000
0000
,
0010
0000
0001
0000
0310
0002
0000
1003
,
0010
0000
0100
0001
0010
0100
1000
0010
,
0200
0302
0023
2030
,
3002
0000
0103
0000
0100
1000
0001
2000
,
0010
0000
0000
0100
0000
0000
3010
MMMM
,
2002
3003
2200
3300
0220
0330
0022
0033
,
0201
0010
0302
1000
,
0023
0001
0230
0010
,
2300
0010
3002
0100
,
0023
0100
1000
0130
,
1000
0010
0100
0001
1000
0100
0010
0001
,
0200
0001
0010
1000
,
0320
0000
0000
0001
0000
0000
1030
0000
,
0002
0000
0000
0000
1000
0000
0000
1000
0000
1000
0000
0000
0023
0000
0001
0000
,
0230
0000
1000
0000
2300
0000
0001
0001
,
3020
0000
0000
0000
1000
0000
0000
1000
0000
1000
0000
0000
0100
0000
0100
0000
,
0100
0000
0000
0000
0001
0000
0000
0001
0000
0001
0000
0000
0100
0000
0130
0000
,
0001
1000
0010
0000
0100
0000
MMMM
0001
0000
0010
0000
0020
0000
0031
0100
0010
,
1000
0001
0010
0000
0100
0000
MMMM
1000
0000
0010
0000
0020
0000
1030
0100
0010
,
0000
MMMM
1001
0000
1010
0000
0000
0101
0000
1010
0000
2100
0000
3001
0100
0010
,
0000
MMMM
1001
0000
0011
0000
0000
1100
0000
0011
0000
0102
0000
1003
0100
0010
,
0001
MMMM
0201
0000
0301
0200
0000
0302
,
0000
0103
0010
0100
1000
0100
0020
0000
,
1030
0000
1200
0000
1300
0200
0000
2300
,
0000
3100
0010
0100
0001
0100
0020
0000
,
0031
0000
1002
0000
1003
0002
0000
0203
,
0000
0310
0001
0010
0100
1000
0200
0000
,
0301
0000
1002
0000
1003
0002
0000
0023
,
0000
0130
0001
0100
0010
1000
0020
0000
,
0031
MMMM
0201
0000
0301
0200
0000
0302
,
0000
0103
0010
0100
1000
0100
0020
0000
,
1030
0000
1200
0000
1300
0200
0000
2300
,
0000
3100
0010
0100
0001
0100
2000
0000
,
3001
1000
0010
0000
0001
2000
0000
3200
,
0000
0301
0100
0010
0001
0010
0100
0010
,
1000
0001
0010
0000
1000
0002
0000
0203
,
0000
1300
0100
0010
1000
0010
0100
0010
,
0001
1000
0100
0000
0010
0000
MMMM
0001
0000
0100
0000
0200
0000
0301
0010
0100
,
1000
0001
0010
0000
0100
0000
MMMM
1000
0000
0010
0000
0020
0000
1030
0100
0010
,
0001
1000
0010
0000
0100
0000
MMMM
0001
0000
0010
0000
0002
0000
1003
0100
0010
,
0001
1000
0010
0000
0100
0000
MMMM
0001
0000
0010
0000
0002
0000
1003
0100
0010
,
0000
0000
0000
0000
;
#NOTES:
     dance-single:
     :
     Challenge:
     18:
     :
0000
0000
0000
0000
,
0000
0000
0000
0000
,
0000
0000
0000
0000
,
MMMM
MMMM
MMMM
MMMM
MMMM
MMMM
MMMM
MMMM
,
MMMM
MMMM
MMMM
MMMM
MMMM
MMMM
MMMM
MMMM
,
1000
0001
0010
MMMM
0110
0000
0000
0001
0000
0100
0000
0020
0000
1030
0100
0010
,
0001
1000
0010
MMMM
0110
0000
0000
1000
0000
0100
0000
0020
0000
0031
0100
0010
,
1000
0001
0100
MMMM
0110
0000
0000
0001
0000
0010
0000
0200
0000
1300
0010
0100
,
0001
1000
0100
MMMM
0110
0000
0000
1000
0000
0010
0000
0200
0000
0301
1000
0100
,
0001
0100
0010
MMMM
0011
0000
1000
0010
,
MMMM
0101
MMMM
2100
0000
3001
0100
0010
,
0001
0010
0100
MMMM
0101
0000
0001
0010
,
MMMM
1100
MMMM
0102
0000
1003
0010
0100
,
1000
0100
0010
MMMM
1010
0000
0001
0010
,
MMMM
1100
MMMM
0102
0000
1003
0100
0010
,
1000
0010
0100
MMMM
1100
0000
1000
0010
,
0110
0000
MMMM
1001
0000
MMMM
0011
0000
,
0010
1000
0010
MMMM
1100
0000
0001
0010
,
MMMM
1010
MMMM
1200
0000
0310
0001
1000
,
0010
0001
0010
MMMM
0101
0000
1000
0010
,
MMMM
0011
MMMM
0201
0000
0310
1000
0001
,
0100
1000
0100
MMMM
1010
0000
0001
0100
,
MMMM
1100
MMMM
1020
0000
0130
0001
1000
,
0100
0001
0100
MMMM
0011
0000
1000
0100
,
0110
0000
MMMM
1001
0000
MMMM
1200
0000
,
0320
0000
1030
0010
0000
0001
MMMM
1020
,
0000
0130
MMMM
0201
0001
0000
0310
0000
,
1020
0000
0031
0010
0000
1000
MMMM
0021
,
0000
0130
1000
0001
0100
0010
1000
0000
,
1200
0000
0301
0100
MMMM
0010
MMMM
0001
,
MMMM
2000
0000
3010
MMMM
0002
0000
0000
,
1003
MMMM
0110
MMMM
0001
0010
0001
0200
,
0001
0000
1000
1000
0000
0001
0301
0000
,
2002
3003
1000
0001
0000
1001
MMMM
2020
,
3030
1000
MMMM
0022
0000
0000
0000
0033
,
0220
0330
0010
0100
MMMM
1001
MMMM
1100
,
MMMM
0101
MMMM
1010
MMMM
0001
0200
0300
,
2000
3100
0020
0130
0002
0103
0020
0130
,
0002
0013
0200
0310
2000
3010
0200
0310
,
0002
0000
0103
1000
0100
0001
MMMM
0020
,
0100
0000
1000
1000
0000
0001
0031
0000
,
1001
MMMM
0110
MMMM
1001
MMMM
0110
MMMM
,
1001
1000
0001
0010
1000
0010
0001
1000
,
0001
0100
0001
0100
0001
0000
MMMM
0000
0200
0000
0001
0000
0001
0000
0000
0000
,
0010
0000
1000
0000
0310
2000
0000
3100
,
0001
MMMM
0110
1000
0010
0100
0001
0010
,
0200
2300
3020
0032
,
2003
0000
3100
MMMM
0110
0001
1000
0020
,
0100
0000
0001
0001
0000
1000
1030
MMMM
,
2200
3300
0202
0303
0022
0033
2020
3030
,
1200
0000
0001
0000
2300
0001
0001
0000
,
3020
0000
1000
0000
0230
1000
1000
0000
,
0302
0000
0010
0000
2003
0100
0100
0000
,
3020
0000
1000
0000
0001
0000
0130
MMMM
,
0001
0010
0100
1000
0001
0100
0010
1000
,
0200
0000
0010
0000
0001
0000
1000
0300
,
0120
0000
1000
1000
0000
0001
0031
0000
,
1001
MMMM
0110
MMMM
1001
MMMM
0110
MMMM
,
1001
0001
1000
0010
0001
0010
1000
0001
,
1000
0100
1000
0100
1000
0000
MMMM
0000
0200
0000
1000
0000
1000
0000
0000
0000
,
0010
0000
0001
0000
0310
0002
0000
0103
,
1000
MMMM
0110
0001
0010
0100
1000
0010
,
0200
0302
0023
2030
,
3002
0000
0103
MMMM
0110
1000
0001
0020
,
0100
0000
1000
1000
0000
0001
0031
MMMM
,
0202
0303
2200
3300
2020
3030
0022
0033
,
0201
0000
1000
0000
0302
1000
1000
0000
,
0023
0000
0001
0000
0230
0001
0001
0000
,
2300
0000
0010
0000
3002
0100
0100
0000
,
0023
0000
0001
0000
1000
0000
0130
MMMM
,
1000
0010
0100
0001
1000
0100
0010
0001
,
0200
0000
0010
0000
1000
0000
0001
0300
,
0120
0000
0001
0001
0000
1000
1030
0000
,
0102
0000
0100
0000
1000
1000
0000
0100
0000
0100
0000
0010
0023
0000
0100
0000
,
0230
0000
1000
0000
0010
0010
0000
1000
2300
0100
0000
0001
0001
0000
0100
0000
,
3020
0000
1000
0000
0100
0100
0000
0001
0000
0001
0000
1000
1000
0000
0100
0000
,
0001
0000
0001
0000
0100
0100
0000
1000
0000
1000
0000
0001
0001
0000
0130
0000
,
0001
1000
0010
MMMM
0110
0000
0000
1000
0000
0100
0000
0020
0000
0031
0100
0010
,
1000
0001
0010
MMMM
0110
0000
0000
0001
0000
0100
0000
0020
0000
1030
0100
0010
,
0000
MMMM
1001
MMMM
1010
0000
MMMM
0101
MMMM
1010
MMMM
2100
0000
3001
0100
0010
,
0000
MMMM
1001
MMMM
0011
0000
MMMM
1100
MMMM
0011
MMMM
0102
0000
1003
0100
0010
,
0001
MMMM
0102
0000
0103
0210
0000
0302
,
0000
0103
1000
0100
0001
0100
0120
0000
,
1030
MMMM
2100
0000
3100
0210
0000
2300
,
0000
3100
0001
0100
1000
0100
0120
0000
,
0031
MMMM
0201
0000
0301
1001
MMMM
2010
,
0000
3010
0001
1000
0100
0010
0210
0000
,
0310
MMMM
1200
0000
1300
1001
MMMM
0012
,
0000
0000
0000
0000
0000
0000
0000
0000
0000
0000
0000
0000
0000
0000
0000
0000
0000
0000
0000
0000
0000
0000
0000
0000
0013
0000
0000
0000
0000
0000
0000
0000
0000
0000
0000
0000
0000
0000
0000
0000
0000
0000
0000
0000
0000
0000
0000
0000
1000
0000
0000
0000
0000
0000
0000
0000
0000
0000
0000
0000
0000
0000
0000
0000
0000
0000
0000
0000
0000
0000
0000
0000
0001
0000
0000
0000
0000
0000
0000
0000
0000
0000
0000
0000
0000
0000
0000
0000
0000
0000
0000
0000
0000
0000
0000
0000
0100
0000
0000
0000
0000
0000
0000
0000
0000
0000
0000
0000
0000
0000
0000
0000
0000
0000
0000
0000
0000
0000
0000
0000
0010
0000
0000
0000
0000
0000
0000
0000
0000
0000
0000
0000
0000
0000
0000
0000
0000
0000
0000
0000
0000
0000
0000
0000
0210
0000
0000
0000
0000
0000
0000
0000
0000
0000
0000
0000
0000
0000
0000
0000
0000
0000
0000
0000
0000
0000
0000
0000
0000
0000
0000
0000
0000
0000
0000
0000
0000
0000
0000
0000
0000
0000
0000
0000
0000
0000
0000
0000
0000
0000
0000
0300
,
1000
MMMM
2100
0000
3100
0120
0030
2100
,
0000
3100
0001
0100
1000
0100
0120
0000
,
0031
MMMM
0102
0000
0103
0110
MMMM
0102
,
0000
0103
1000
0100
0001
0100
0120
0000
,
1030
0001
0011
MMMM
0110
0000
MMMM
2010
,
0000
3100
0001
1000
0010
0001
2001
0000
,
3001
1000
1010
MMMM
0110
0000
MMMM
0012
,
0000
0103
1000
0001
0010
1000
1002
0000
,
1003
0001
0100
MMMM
0110
0000
0000
0001
MMMM
0010
MMMM
0200
0000
1300
0010
0100
,
0001
1000
0010
MMMM
0110
0000
0000
1000
MMMM
0100
MMMM
0020
0000
0031
0100
0010
,
1000
0001
0010
MMMM
0110
0000
0000
0001
MMMM
0100
MMMM
2000
0000
3001
0010
0100
,
0001
1000
0010
MMMM
0110
0000
0000
1000
MMMM
0100
MMMM
0002
0000
1003
0010
0100
,
0000
0000
0000
0000
;
#NOTES:
     dance-double:
     :
     Easy:
     9:
     :
00000000
00000000
00000000
00000000
,
00000000
00000000
00000000
00000000
,
00000000
00000000
00000000
00000000
,
00000000
00000000
00000000
00000000
,
00000000
00000000
00000000
00000000
,
00001000
00001000
00001000
00001000
,
00010000
00010000
00010000
00010000
,
00100000
00100000
00100000
00100000
,
01000000
01000000
00100000
00100000
,
10010000
00000000
00000000
00000000
,
10000000
01000000
00100000
00001000
,
00010000
00000100
00000010
00000000
,
00000001
00000100
00000010
00010000
,
00001000
00100000
01000000
00000000
,
10000000
00100000
01000000
00001000
,
00010000
00000010
00000100
00000000
,
00011000
00000000
01100000
00000000
,
10000000
10000000
10000000
00000000
,
00010000
10000000
01000000
00100000
,
00001000
00001000
00001000
00000000
,
00001000
00000010
00000100
00001000
,
00000001
00000001
00000001
00000000
,
00001000
00000001
00000100
00000010
,
00010000
00010000
00010000
00000000
,
00011000
00000000
01100000
00000000
,
20000000
00000000
30100000
00000000
,
10000000
01000000
10000000
00000000
,
00020000
00000000
00130000
00000000
,
00001000
00010000
00001000
00000000
,
00020000
00000000
00030100
00000000
,
00001000
00000010
00001000
00000000
,
00000001
00000100
00000001
00000200
,
00000000
00000000
00000000
00000300
,
00001000
00010000
00001000
00000000
,
00100000
00100000
00100000
00000000
,
00001000
00010000
00001000
00000000
,
00010000
00001000
00000010
00000000
,
00000001
00001000
00000100
00010000
,
00001000
01000000
00010000
10000000
,
00100000
00000000
01000000
00000000
,
00200000
00000000
00000000
00000000
,
10300000
00000000
10000000
00000000
,
00010000
01000000
00001000
01000000
,
00010000
00000000
00200000
00000000
,
00000000
00000000
00301000
00010000
,
00000010
00000000
00001000
00000001
,
00000100
00000000
00001000
00000000
,
00010000
00100000
10000000
00020000
,
00000000
00000000
00000000
00030000
,
10000000
01000000
00100000
00001000
,
00020000
00000000
00030200
00000000
,
00002300
00000000
00003020
00000000
,
00000230
00000000
00000302
00000000
,
00000023
00000000
00000000
00000030
,
00000001
00000100
00001000
00010000
,
00000200
00000000
00000000
00000000
,
00000320
00000000
00000000
00000030
,
00000001
00000000
00000001
00000000
,
00001000
00000100
00010000
00000100
,
00001000
00000000
00000020
00000000
,
00000000
00000000
00010030
00001000
,
00100000
00000000
00010000
10000000
,
01000000
00000000
00010000
00000000
,
00001000
00000010
00000001
00002000
,
00000000
00000000
00000000
00003000
,
00000001
00000100
00000010
00010000
,
00002000
00000000
02003000
00000000
,
03020000
00000000
00230000
00000000
,
02300000
00000000
23000000
00000000
,
30200000
00000000
00000000
00300000
,
10000000
01000000
00010000
00001000
,
02000000
00000000
00000000
00000000
,
03200000
00000000
00000000
00300000
,
20000000
00000000
00010000
00000000
,
30020000
00000000
10000000
00000000
,
02030000
00000000
00010000
00000000
,
00100000
00000000
00001000
03000000
,
00002000
00000000
00010000
00000000
,
00003020
00000000
00000130
00000000
,
00001001
00000000
00000001
00001000
,
00011000
00000000
10000000
00010000
,
10010000
00000000
10000000
00000000
,
10000000
00100000
10000000
00100000
,
01000000
00000000
01000000
00000000
,
00010000
00100000
00010000
00100000
,
00001000
00000000
00001000
00000000
,
00010000
00000100
00010000
00000100
,
00001000
00000000
00001000
00000000
,
00000001
00000100
00000001
00000100
,
00000010
00000000
00000010
00000000
,
00001000
00000010
00001000
00000010
,
00010000
00000000
00010000
00000000
,
00001000
00100000
00001000
00100000
,
00001000
00001000
00001000
00000000
,
00010000
00100000
10000000
01000000
,
00010000
00010000
00010000
00000000
,
00001000
00000010
00000001
00000100
,
00001000
00000000
00001000
00001000
,
00010000
00000000
00010000
00010000
,
00100000
00000000
10000000
10000000
,
00100000
00000000
10000000
10000000
,
00000000
00000000
00000000
00000000
;
#NOTES:
     dance-double:
     :
     Medium:
     12:
     :
00000000
00000000
00000000
00000000
,
00000000
00000000
00000000
00000000
,
00000000
00000000
00000000
00000000
,
MMMMMMMM
00000000
MMMMMMMM
00000000
,
MMMMMMMM
00000000
MMMMMMMM
00000000
,
00001000
00010000
00001000
00000000
MMMM0010
00000000
00000010
00000000
,
00000001
00001000
00000001
00000000
00000100
00000000
00001000
00000000
,
00010000
00001000
00010000
00000000
0010MMMM
00000000
00100000
00000000
,
10000000
00010000
10000000
00000000
01000000
00000000
00010000
00000000
,
00001000
00010000
00001000
00000000
MMMM0010
00000000
00000000
00000001
,
00000000
0000MMMM
00000000
00000001
00000000
00000100
00000010
00000000
,
00010000
00001000
00010000
00000000
0010MMMM
00000000
00000000
10000000
,
00000000
MMMM0000
00000000
10000000
00000000
01000000
00100000
00000000
,
00001000
00010000
00001000
00000000
MMMM0010
00000000
00000000
00000100
,
00000000
0000MMMM
00000000
00000100
00000000
00001000
00000010
00000000
,
00010000
00001000
00100000
00000000
0001MMMM
00000000
MMMM0000
00000000
,
10010000
00000000
00000000
01100000
00000000
00000000
00011000
00000000
,
00010000
00001000
00010000
00000000
00000010
00000000
00000000
0001MMMM
,
00000000
MMMM0100
00000000
00010000
00000000
00000100
00000010
00000000
,
00000001
00000010
00000001
00000000
00000100
00000000
00000000
MMMM0010
,
00000000
0001MMMM
00000000
00000010
00000000
00010000
00001000
00000000
,
00010000
00001000
00010000
00000000
00100000
00000000
00000000
0100MMMM
,
00000000
MMMM1000
00000000
01000000
00000000
00001000
00100000
00000000
,
00010000
01000000
00010000
00000000
00100000
00000000
MMMM0000
00000000
,
10010000
00000000
00000000
01100000
00000000
00000000
00011000
00000000
,
00010000
00000000
00000010
00001000
MMMM0000
00000010
00000000
00010000
,
00000000
00000100
MMMM0000
00002000
00000000
00000000
00003000
00000000
,
00000001
00000000
00000010
00000001
00000000
00001000
00000000
MMMM0010
,
00000000
00010000
00001000
00010000
00001000
00010000
00000000
00000000
,
MMMM1000
00000000
00100000
00001000
00000000
01000000
00000000
00100000
,
0000MMMM
10000000
00000000
01000000
00000000
00100000
00000000
00000000
,
MMMM1000
00000000
00010000
00000000
00000100
00001000
00000100
00000020
,
MMMM0000
00000000
00000000
00000001
00000000
00000000
00000031
00000000
,
MMMMMMMM
00000000
00000001
00000100
00000000
00001000
00000000
00010000
,
0000MMMM
00100000
00000000
20000000
00000000
00000000
30000000
00000000
,
MMMM0000
00000000
10000000
01000000
0000MMMM
00010000
00000000
00001000
,
MMMM0000
00000010
00000000
00000001
00000000
00000001
00001000
00000000
,
00000001
00000100
MMMM0010
00001000
,
00010000
01000000
0010MMMM
10000000
,
01000000
00000000
00100000
00010000
00000000
01000000
00000000
00002000
,
MMMM0000
00000000
00000000
00010000
00000000
00000000
00013000
00000000
,
00020000
0000MMMM
00001000
00000000
00000000
0000MMMM
00001000
00000000
,
00031000
00000010
00000001
MMMM0100
,
00001000
00010000
00001000
00000000
00200000
00000000
00001000
00000000
,
00000000
00000000
0001MMMM
00000000
00300000
00010000
00000000
10000000
,
00100000
01000000
00010000
10000000
,
01000000
0001MMMM
00001000
MMMM0010
,
00000001
00000000
MMMM1000
00000000
00000010
00010000
00000010
00020000
,
0000MMMM
00000000
00000000
00001000
00000000
00000000
00031000
00000000
,
00100000
0001MMMM
01000000
00100000
,
20000000
00000000
32000000
00000000
,
03200000
0000MMMM
00302000
MMMM0000
,
00023000
0000MMMM
00030200
MMMM0000
,
00000320
00000000
00000001
00000030
,
00000001
00000010
00000100
00000000
00000010
00000100
00001000
00000000
,
MMMM0010
00010000
00000000
MMMM1000
,
00020000
00000000
00000000
00001000
00000000
00000000
00031000
00000000
,
00002000
MMMM0000
00010000
00000000
00000000
MMMM0000
00010000
00000000
,
00013000
0010MMMM
10000000
0100MMMM
,
00010000
00001000
00010000
00000000
00000020
00000000
00010000
00000000
,
MMMM0000
00000000
00001000
00000000
00000030
00001000
00000000
00000001
,
00000010
00000100
00001000
00000001
,
00000100
MMMM1000
00010000
0010MMMM
,
10000000
00000000
0001MMMM
00000000
00100000
00001000
00100000
00002000
,
MMMM0000
00000000
00000000
00010000
00000000
00000000
00013000
00000000
,
00000010
MMMM1000
00000100
00000010
,
00000002
00000000
00000203
00000000
,
00000320
MMMM0000
00020030
0000MMMM
,
00032000
MMMM0000
02003000
0000MMMM
,
03200000
00000000
10000000
00300000
,
10000000
00100000
01000000
00000000
00100000
01000000
00010000
00000000
,
0010MMMM
00001000
00000000
0001MMMM
,
00002000
00000000
00000000
00010000
00000000
00000000
00013000
00000000
,
00000200
00000000
MMMM1000
00002300
,
00003002
00000000
00000203
00000000
,
00000320
00000000
MMMM1000
00010000
,
00001000
00000000
MMMM1000
00010030
,
00001000
00010000
00001000
00000000
00100000
00000000
0001MMMM
00000000
,
01000000
00001000
01000000
00000000
0010MMMM
00000000
10000000
00000000
,
MMMMMMMM
10000000
00010000
00000000
00001000
00000000
00000001
00000000
,
MMMMMMMM
00000001
00001000
00000000
00010000
00000000
10000000
00000000
,
MMMMMMMM
00000000
10000000
01000000
,
10000000
01000000
0010MMMM
00001000
,
00010000
0000MMMM
MMMM0100
00010000
,
00000100
00001000
00000001
00001000
,
00000010
MMMM0000
00001000
00000100
,
00010000
0000MMMM
00001000
00010000
,
00001000
MMMM0000
0100MMMM
00001000
,
01000000
0000MMMM
00010000
10000000
,
MMMMMMMM
00000000
10000000
00100000
,
10000000
00100000
0100MMMM
00001000
,
00010000
0000MMMM
MMMM0010
00010000
,
00000010
MMMM1000
00000001
00001000
,
00000001
00000010
00000001
00000000
00001000
00000000
0000MMMM
00001000
,
MMMM0000
00000100
00000000
00010000
00000000
00001000
01000000
00000000
,
0010MMMM
10000000
00100000
00000000
10000000
00000000
MMMM0000
10000000
,
00000000
00010000
00000000
0010MMMM
00000000
00001000
00010000
00000000
,
MMMM0100
00000000
00000010
00000010
,
00000001
00001000
00000001
00000000
00000100
00000000
00000100
00000000
,
00001000
00010000
00001000
00000000
00100000
00000000
00100000
00000000
,
00001000
00010000
00001000
00000000
00100000
00000000
00100000
00001000
,
00000000
00000000
00000000
00000000
;
#NOTES:
     dance-double:
     :
     Hard:
     16:
     :
00000000
00000000
00000000
00000000
,
00000000
00000000
00000000
00000000
,
00000000
00000000
00000000
00000000
,
MMMMMMMM
MMMMMMMM
MMMMMMMM
MMMMMMMM
,
MMMMMMMM
MMMMMMMM
MMMMMMMM
MMMMMMMM
,
00010000
00001000
00100000
00000000
0100MMMM
00000000
00000000
10000000
00000000
00100000
00000000
00200000
0000MMMM
10300000
01000000
00100000
,
00001000
00010000
00000010
00000000
MMMM0100
00000000
00000000
00000001
00000000
00000010
00000000
00000020
MMMM0000
00000031
00000100
00000010
,
00010000
00001000
01000000
00000000
0010MMMM
00000000
00000000
10000000
00000000
01000000
00000000
02000000
0000MMMM
13000000
00100000
01000000
,
00001000
00010000
00000100
00000000
MMMM0010
00000000
00000000
00000001
00000000
00000100
00000000
00000200
MMMM0000
00000301
00000010
00000100
,
00010000
00001000
00010000
00000000
0110MMMM
00000000
MMMM0000
10000000
,
00000000
00110000
00000000
12000000
0000MMMM
03010000
01000000
00100000
,
00001000
00010000
00001000
00000000
MMMM0110
00000000
0000MMMM
00000001
,
00000000
00001010
00000000
00000201
MMMM0000
00001300
00000100
00000010
,
00010000
00001000
00010000
00000000
MMMM1001
00000000
0000MMMM
00000001
,
00000000
00001010
00000000
00010200
00000000
00001300
MMMM0100
00000010
,
00000100
00010000
00001000
00000000
1001MMMM
00000000
MMMM0000
01000000
,
00100000
00000000
MMMMMMMM
00011000
00000000
MMMMMMMM
00000110
00000000
,
00000001
00000100
00001000
00000000
0101MMMM
00000000
MMMM0000
10000000
,
00000000
01100000
00000000
10020000
0000MMMM
00130000
01000000
00100000
,
00010000
00100000
00001000
00000000
MMMM1100
00000000
0000MMMM
00000001
,
00000000
00000110
00000000
00002001
MMMM0000
00003010
00000100
00000010
,
00001000
00000010
00010000
00000000
0011MMMM
00000000
MMMM0000
10000000
,
00000000
01100000
00000000
20010000
0000MMMM
31000000
00010000
01000000
,
00100000
00001000
00010000
00000000
MMMM1010
00000000
0000MMMM
00000001
,
00001000
00000000
MMMMMMMM
00011000
00000000
MMMMMMMM
10020000
00000000
,
00230000
00000000
00301000
00100000
0000MMMM
00100000
00000000
10200000
,
00000000
01300000
00000000
02010000
00000000
00000000
0310MMMM
00000000
,
00012000
00000000
00013000
00000100
MMMM0000
00000010
00000000
00001002
,
00000000
00000103
00001000
00010000
0010MMMM
01000000
00010000
00000000
,
12000000
00000000
13000000
01000000
0000MMMM
00100000
00000000
00001000
,
00000000
00020000
00030000
00000010
MMMM0000
00002000
00000000
00000000
,
00003001
00000000
00001001
00000000
MMMM0001
00001000
00000010
00020000
,
00001000
00000000
0000MMMM
00100000
0000MMMM
00000000
00031000
00000000
,
00002002
00003003
00000001
00001000
MMMM0000
00010100
00000000
00202000
,
00303000
00010000
00000000
20020000
0000MMMM
00000000
30030000
00000000
,
02200000
03300000
00100000
01000000
0000MMMM
10010000
00000000
01001000
,
00000000
00010010
00000000
00001001
MMMM0000
00000001
00000020
00000030
,
00000002
MMMM1003
00000002
MMMM1003
00000020
MMMM0130
00000020
MMMM0130
,
00002000
00013000
00002000
00013000
00200000
0130MMMM
00200000
0130MMMM
,
20000000
00000000
31000000
00010000
0000MMMM
00100000
00000000
00002000
,
00010000
00000000
MMMM0000
00000010
MMMM0000
00000000
00013000
00000000
,
MMMMMMMM
00011000
MMMMMMMM
00001001
,
00001000
00000100
MMMM1000
00000001
00000010
00000001
MMMM0100
00001000
,
00010000
00100000
1000MMMM
00000000
02000000
0000MMMM
1000MMMM
0000MMMM
,
0010MMMM
0000MMMM
0001MMMM
0000MMMM
0310MMMM
00020000
0000MMMM
10030000
,
01000000
00000000
0010MMMM
01000000
00010000
00001000
MMMM0010
00000100
,
00002000
00003002
00000203
00002300
,
00003002
00000000
00000013
00000000
00001000
00000001
MMMM0100
00002000
,
00010000
00000000
MMMM0000
00000100
MMMM0000
00000000
00013000
00000000
,
00022000
00033000
00202000
00303000
00220000
00330000
1001MMMM
00000000
,
10200000
0100MMMM
20300000
0001MMMM
,
32000000
0010MMMM
03020000
00001000
,
00030020
MMMM0100
00002030
MMMM0100
,
00003002
MMMM0000
MMMM0010
MMMM0000
MMMM1000
MMMM0000
MMMM0013
00000000
,
00000001
00000100
MMMM0010
00001000
00010000
01000000
0010MMMM
10000000
,
00020000
0100MMMM
10000000
0010MMMM
,
00032000
00000000
00000000
MMMM0100
00000000
00000000
MMMM3001
00000000
,
MMMMMMMM
00011000
MMMMMMMM
10010000
,
00010000
01000000
0001MMMM
10000000
00100000
10000000
0100MMMM
00010000
,
00001000
00000010
MMMM0001
00000000
00000200
MMMM0000
MMMM0001
MMMM0000
,
MMMM0010
MMMM0000
MMMM1000
MMMM0000
MMMM0310
00002000
MMMM0000
00003001
,
00000100
00000000
MMMM0010
00000100
00001000
00010000
0010MMMM
01000000
,
00020000
20030000
32000000
03020000
,
20030000
00000000
3010MMMM
00000000
00010000
10000000
0100MMMM
00020000
,
00001000
00000000
0000MMMM
01000000
0000MMMM
00000000
00031000
00000000
,
00022000
00033000
00020020
00030030
00002020
00003030
MMMM1001
00000000
,
00000021
MMMM0100
00000032
MMMM1000
,
00000203
MMMM0010
00002300
00010000
,
00203000
0100MMMM
00320000
0100MMMM
,
20030000
0000MMMM
0010MMMM
0000MMMM
0001MMMM
0000MMMM
3010MMMM
00000000
,
10000000
01000000
0010MMMM
00010000
00001000
00000100
MMMM0010
00000001
,
00002000
MMMM0100
00000001
MMMM0010
,
00023000
00000000
00000000
0100MMMM
00000000
00000000
1003MMMM
00000000
,
00102000
00000000
00000000
00000000
MMMM0010
00000000
00000000
00010000
00000000
00010000
00000000
00000000
00203000
00000000
0001MMMM
00000000
,
02300000
00000000
1000MMMM
00000000
23000000
00000000
00100000
0010MMMM
,
30020000
00000000
0000MMMM
00000000
0100MMMM
00000000
0000MMMM
10000000
0000MMMM
10000000
0000MMMM
00000000
0010MMMM
00000000
0010MMMM
00000000
,
00032000
00000000
MMMM0000
00000000
MMMM0100
00000000
MMMM0000
00000001
MMMM0000
00000001
MMMM0000
00000000
MMMM0010
00000000
MMMM3010
00000000
,
00010000
00001000
00100000
00000000
0100MMMM
00000000
MMMM0000
10000000
00000000
00100000
00000000
00200000
0000MMMM
10300000
01000000
00100000
,
00001000
00010000
00000010
00000000
MMMM0100
00000000
0000MMMM
00000001
00000000
00000010
00000000
00000020
MMMM0000
00000031
00000100
00000010
,
00000000
MMMMMMMM
00011000
00000000
0110MMMM
00000000
00000000
1001MMMM
00000000
00110000
00000000
21000000
00000000
30010000
00100000
01000000
,
00000000
MMMMMMMM
00011000
00000000
MMMM0110
00000000
00000000
MMMM1001
00000000
00001010
00000000
00000102
00000000
00001003
00000010
00000100
,
00001000
00000000
00021000
00000000
00031000
00020000
0000MMMM
00032000
,
00000000
00103000
00010000
0010MMMM
00001000
00100000
02000000
00000000
,
0301MMMM
00000000
00012000
00000000
00013000
00002000
MMMM0000
00023000
,
00000000
00030010
00001000
MMMM0010
00010000
00000010
00002000
00000000
,
MMMM3001
00000000
00000021
00000000
MMMM0031
00000020
MMMM0000
00000230
,
MMMM0000
00000310
MMMM0001
00000010
MMMM0100
00010000
00002000
00000000
,
00103000
00000000
00120000
00000000
0013MMMM
00020000
0000MMMM
00230000
,
0000MMMM
01300000
1000MMMM
01000000
0010MMMM
00001000
00020000
00000000
,
00031000
00000000
00012000
00000000
00013000
00002000
MMMM0000
00023000
,
00000000
00030010
00001000
MMMM0010
00010000
00000010
00000200
MMMM0000
,
00001300
00000000
00021000
00000000
00031000
00020000
0000MMMM
00032000
,
00000000
00103000
00010000
0010MMMM
00001000
00100000
02000000
0000MMMM
,
13000000
01000000
0001MMMM
00000000
MMMM1000
00000020
00000000
00000031
,
MMMM0000
MMMM1000
MMMM0001
MMMM0100
MMMM0001
MMMM1000
MMMM0100
MMMM0010
,
00000001
00000100
MMMM1000
00000000
0001MMMM
00200000
00000000
10300000
,
0000MMMM
0001MMMM
1000MMMM
0100MMMM
1000MMMM
0001MMMM
0010MMMM
0100MMMM
,
00010000
00001000
00000010
00000000
MMMM0100
00000000
0000MMMM
00001000
00000000
00000010
00000000
00000020
MMMM0000
00001030
00000001
00000100
,
00001000
00010000
00100000
00000000
0100MMMM
00000000
MMMM0000
00010000
00000000
00100000
00000000
00200000
0000MMMM
00310000
10000000
01000000
,
00010000
00001000
00100000
00000000
MMMM1000
00000000
0000MMMM
00000010
00000000
00000001
00000000
00000002
MMMM0000
00001003
00000100
00010000
,
00001000
00010000
00000010
00000000
0001MMMM
00000000
MMMM0000
00100000
00000000
10000000
00000000
20000000
0000MMMM
30010000
01000000
00001000
,
00000000
00000000
00000000
00000000
;
#NOTES:
     dance-double:
     :
     Challenge:
     18:
     :
00000000
00000000
00000000
00000000
,
00000000
00000000
00000000
00000000
,
00000000
00000000
00000000
00000000
,
MMMMMMMM
MMMMMMMM
MMMMMMMM
MMMMMMMM
MMMMMMMM
MMMMMMMM
MMMMMMMM
MMMMMMMM
,
MMMMMMMM
MMMMMMMM
MMMMMMMM
MMMMMMMM
MMMMMMMM
MMMMMMMM
MMMMMMMM
MMMMMMMM
,
00010000
00001000
00100000
MMMMMMMM
01100000
00000000
00000000
00001000
00000000
01000000
00000000
00200000
0000MMMM
10300000
01000000
00100000
,
00001000
00010000
00000010
MMMMMMMM
00000110
00000000
00000000
00010000
00000000
00000100
00000000
00000020
MMMM0000
00000031
00000100
00000010
,
00010000
00001000
01000000
MMMMMMMM
01100000
00000000
00000000
00001000
00000000
00100000
00000000
02000000
0000MMMM
13000000
00100000
01000000
,
00001000
00010000
00000100
MMMMMMMM
00000110
00000000
00000000
00010000
00000000
00000010
00000000
00000200
MMMM0000
00000301
00001000
00000100
,
00000001
00000100
00001000
MMMMMMMM
00010100
00000000
00010000
00001000
,
MMMM0000
0011MMMM
MMMM0000
21000000
00000000
30010000
00100000
01000000
,
00010000
01000000
00100000
MMMMMMMM
00101000
00000000
00001000
00010000
,
0000MMMM
MMMM1010
0000MMMM
00000102
00000000
00001003
00000100
00000010
,
00001000
00000010
00000100
MMMMMMMM
00010100
00000000
00010000
00001000
,
MMMM0000
0101MMMM
MMMM0000
20100000
00000000
30010000
01000000
00100000
,
00010000
00100000
01000000
MMMMMMMM
01001000
00000000
01000000
00010000
,
10010000
00000000
MMMMMMMM
00101000
00000000
MMMMMMMM
00010010
00000000
,
00000010
00000001
00000010
0000MMMM
00001010
00000000
00000001
00000010
,
MMMMMMMM
00010100
MMMMMMMM
00201000
00000000
0130MMMM
10000000
00010000
,
00100000
10000000
00100000
MMMM0000
00110000
00000000
10000000
00100000
,
MMMMMMMM
01001000
MMMMMMMM
00010020
00000000
00000130
00000001
00001000
,
00000100
00000001
00000100
MMMMMMMM
00001100
00000000
00000001
00000100
,
MMMMMMMM
00010010
MMMMMMMM
02001000
00000000
0310MMMM
10000000
00010000
,
01000000
10000000
01000000
MMMM0000
01010000
00000000
10000000
00010000
,
10010000
00000000
MMMMMMMM
01001000
00000000
MMMMMMMM
00010200
00000000
,
00000320
MMMM0000
00000031
00000010
00000000
00000001
0000MMMM
00000201
,
00000000
MMMM0310
00000000
00021000
00001000
00000000
0013MMMM
00000000
,
20100000
00000000
30010000
10000000
00000000
01000000
MMMM0000
00210000
,
0000MMMM
00301000
00010000
00000100
00010000
00000010
MMMM0100
00000000
,
00002001
00000000
00003100
00010000
MMMMMMMM
00001000
MMMMMMMM
01000000
,
MMMM0000
00020000
00000000
00130000
MMMM0000
20000000
00000000
00000000
,
30010000
MMMM0000
01100000
0000MMMM
00001000
00100000
00001000
00020000
,
00001000
00000000
0010MMMM
00100000
00000000
00001000
00031000
00000000
,
00002002
MMMM3003
00000001
00001000
00000000
00001001
MMMMMMMM
00020020
,
00030030
00011000
MMMMMMMM
02002000
00000000
00000000
00000000
03003000
,
20020000
3003MMMM
00010000
10000000
MMMM0000
10100000
MMMM0000
01001000
,
MMMMMMMM
00010010
MMMMMMMM
00001001
0000MMMM
00001000
00000200
00000000
,
00000302
00000103
00000020
00000130
00002000
MMMM3100
00020000
00031000
,
02000000
0310MMMM
00020000
00130000
02000000
03100000
20000000
30010000
,
00200000
00000000
10300000
00100000
00010000
01000000
MMMMMMMM
00002000
,
00010000
00000000
MMMM0010
00000010
00000000
00010000
00013000
00000000
,
00001001
MMMMMMMM
00000110
MMMMMMMM
00011000
MMMMMMMM
01100000
MMMMMMMM
,
10010000
10000000
01000000
0001MMMM
00001000
00010000
00000100
MMMM1000
,
00000001
00000100
00000001
00000100
00000001
00000000
00000000
00000000
00002000
00000000
00000001
00000000
00000001
00000000
00000000
00000000
,
MMMM0010
00000000
00010000
00000000
MMMM3010
00000200
00000000
00001300
,
00010000
MMMMMMMM
00010000
00001000
01000000
0001MMMM
10000000
01000000
,
00020000
0000MMMM
00030200
00000000
00000320
MMMM0000
00002030
00000000
,
00003002
00000000
00000103
0000MMMM
00000110
00000001
00001000
00000020
,
MMMM0100
MMMM0000
MMMM0001
MMMM0001
MMMM0000
MMMM1000
MMMM1030
MMMMMMMM
,
00000202
MMMM0303
00020020
00030030
02002000
03003000
20200000
3030MMMM
,
12000000
0001MMMM
23000000
0001MMMM
,
30200000
1000MMMM
02300000
0001MMMM
,
03002000
MMMM0100
00023000
0010MMMM
,
00030020
00000000
MMMM1000
MMMM0000
MMMM0100
MMMM0000
MMMM0031
MMMMMMMM
,
00000001
00000010
00000100
MMMM1000
00010000
0010MMMM
01000000
10000000
,
02000000
00000000
00010000
0000MMMM
00001000
00000000
0301MMMM
00000000
,
01200000
0000MMMM
0001MMMM
0001MMMM
0000MMMM
1000MMMM
1030MMMM
00000000
,
10010000
MMMMMMMM
01100000
MMMMMMMM
00011000
MMMMMMMM
00000110
MMMMMMMM
,
00001001
00000001
00000100
MMMM1000
00010000
00001000
01000000
0001MMMM
,
10000000
01000000
10000000
01000000
10000000
00000000
00000000
00000000
00020000
00000000
10000000
00000000
10000000
00000000
00000000
00000000
,
0010MMMM
00000000
00001000
00000000
0013MMMM
02000000
00000000
03010000
,
00001000
MMMMMMMM
00001000
00010000
00000100
MMMM1000
00000001
00000100
,
00002000
MMMM0000
02003000
00000000
03200000
0000MMMM
00320000
00000000
,
20030000
00000000
31000000
MMMM0000
01100000
10000000
00010000
00200000
,
0100MMMM
0000MMMM
1000MMMM
1000MMMM
0000MMMM
0001MMMM
0031MMMM
MMMMMMMM
,
22000000
3300MMMM
00202000
00303000
00020200
00030300
00000022
MMMM0033
,
00000201
MMMM1000
00000302
MMMM1000
,
00000023
MMMM0001
00000230
MMMM1000
,
00020300
0100MMMM
00032000
MMMM0010
,
00203000
00000000
0001MMMM
0000MMMM
0100MMMM
0000MMMM
1030MMMM
MMMMMMMM
,
10000000
00100000
01000000
0001MMMM
00001000
MMMM0010
00000100
00000001
,
00000200
MMMM1000
00010000
MMMM1300
,
00000120
MMMM0000
MMMM0001
MMMM0001
MMMM0000
MMMM1000
MMMM1030
00000000
,
00012000
00000000
00010000
00000000
00010000
00010000
00000000
00000010
MMMM0000
00000010
00000000
00010000
00023000
00000000
0010MMMM
00000000
,
00230000
00000000
01000000
00000000
10000000
10000000
00000000
01000000
02300000
00100000
00000000
00010000
0001MMMM
00000000
00001000
00000000
,
03020000
00000000
1000MMMM
00000000
01000000
01000000
00000000
10000000
00000000
10000000
00000000
00100000
0010MMMM
00000000
00032000
00000000
,
MMMM0100
00000000
00000001
00000000
00000100
00000100
00000000
00000001
00000000
00000001
00000000
00000010
MMMM0010
00000000
00013000
00000000
,
0100MMMM
00010000
10000000
MMMM0000
01100000
00000000
00000000
10000000
00000000
01000000
00000000
0001MMMM
00000000
00001000
00000010
MMMM0001
,
00000100
00000001
00001000
0000MMMM
00000110
00000000
00000000
00000001
00000000
00000100
00000000
MMMM1000
00000000
00010000
00100000
1000MMMM
,
00000000
MMMMMMMM
01100000
MMMMMMMM
00011000
00000000
MMMMMMMM
01001000
MMMMMMMM
00010010
MMMMMMMM
00001200
00000000
00000301
00000100
00001000
,
00000000
MMMMMMMM
00000110
MMMMMMMM
00011000
00000000
MMMMMMMM
00010100
MMMMMMMM
00101000
MMMMMMMM
02010000
00000000
13000000
01000000
00010000
,
00100000
MMMMMMMM
00102000
00000000
00103000
00210000
0000MMMM
00302000
,
MMMM0000
00103000
0001MMMM
00100000
00010000
0010MMMM
00102000
00000000
,
00013000
MMMMMMMM
00021000
00000000
00030100
00001200
MMMM0000
00020300
,
0000MMMM
00030100
MMMM1000
00000100
00001000
MMMM0100
00020100
00000000
,
00030010
MMMMMMMM
00002010
00000000
00003010
00001000
0000MMMM
00002100
,
MMMM0000
MMMM3100
MMMM0001
MMMM0100
MMMM1000
MMMM0100
00020100
00000000
,
00031000
MMMMMMMM
00012000
00000000
00013000
00001000
MMMMMMMM
00120000
,
0000MMMM
0013MMMM
1000MMMM
0010MMMM
0001MMMM
0010MMMM
00102000
00000000
,
01003000
MMMMMMMM
01002000
00000000
01003000
02010000
0000MMMM
03002000
,
MMMM0000
01003000
0001MMMM
01000000
00100000
0100MMMM
01002000
00000000
,
00013000
MMMMMMMM
00021000
00000000
00030010
00001020
MMMM0000
00020030
,
0000MMMM
00030010
MMMM1000
00000010
00001000
MMMM0010
00020010
00000000
,
00030100
MMMM1000
00001001
MMMMMMMM
00011000
00000000
MMMMMMMM
10020000
,
0000MMMM
0103MMMM
1000MMMM
0100MMMM
0001MMMM
0100MMMM
01002000
00000000
,
01003000
00010000
10010000
MMMMMMMM
00011000
00000000
MMMMMMMM
00002001
,
MMMM0000
MMMM3100
MMMM0001
MMMM0100
MMMM1000
MMMM0100
00020100
00000000
,
00031000
00010000
00000100
MMMMMMMM
00000110
00000000
MMMM0000
00010000
0000MMMM
00000010
MMMM0000
00000200
00000000
00000301
00000010
MMMM0100
,
00010000
00001000
01000000
MMMMMMMM
01100000
00000000
0000MMMM
00001000
MMMM0000
00100000
0000MMMM
02000000
00000000
13000000
00010000
0100MMMM
,
00001000
00010000
00000010
MMMMMMMM
00000110
00000000
MMMM0000
00010000
0000MMMM
00000100
MMMM0000
00000020
00000000
00000031
00000100
MMMM0010
,
00010000
00001000
00100000
MMMMMMMM
01100000
00000000
0000MMMM
00001000
MMMM0000
01000000
0000MMMM
00200000
00000000
01300000
00001000
00010000
,
00000000
00000000
00000000
00000000
;
