
//----- song ID: matr -----//
#TITLE:MA・TSU・RI;
#ARTIST:かなたん,アマギセーラ,ぁゅ by BEMANI Sound Team "藤森崇多";
#TITLETRANSLIT:MATSURI;
#ARTISTTRANSLIT: Kanata.N, Sera Amagi, ayu by BEMANI Sound Team "Sota Fujimori";
#BANNER:MA-TSU-RI.png;
#BACKGROUND:MA-TSU-RI-bg.png;
#CDTITLE:./CDTitles/BEMANI 2021 manatsu no utagassen 5 ban shoubu.png;
#MUSIC:MA-TSU-RI.ogg;
#SAMPLESTART:79.5;
#SAMPLELENGTH:15;
#BPMS:0=160;
#STOPS:276=1.125;
#STAGE:16;
#NOTES:
     dance-single:
     :
     Beginner:
     3:
     :
0000
0000
0000
0000
,
0000
0000
0000
0000
,
0000
0000
0000
0000
,
0000
0000
0000
0000
,
0000
0000
0000
0000
,
0000
0000
0000
0000
,
0000
0000
0000
0000
,
0001
0000
0100
0000
,
0001
0001
0010
0000
,
0100
0000
0000
0000
,
0000
0000
0000
0000
,
1000
0000
0100
0000
,
1000
1000
0010
0000
,
0100
0000
0100
0000
,
0010
0000
0000
0000
,
0001
0000
0100
0000
,
0001
0001
0010
0000
,
0100
0000
0000
0000
,
0000
0000
0000
0000
,
1000
0000
0100
0000
,
1000
1000
0010
0000
,
0100
0000
0100
0000
,
0001
0000
0000
0000
,
0001
0000
0100
0000
,
0001
0001
0010
0000
,
0100
0000
0000
0000
,
0000
0000
0000
0000
,
2000
0000
0000
0000
,
3000
0000
0000
0000
,
0100
0000
0010
0000
,
0100
0000
0000
0000
,
0002
0000
0000
0000
,
0003
0000
0000
0000
,
0100
0000
0010
0000
,
0100
0000
0000
0000
,
1000
0000
0010
0000
,
1000
1000
0010
0000
,
0100
0000
0001
0000
,
0100
0000
0000
0000
,
0001
0000
0010
0000
,
0001
0001
0010
0000
,
0100
0000
0000
0000
,
0000
0000
0000
0000
,
1001
0000
0000
0000
,
0001
0000
1000
0000
,
0001
0000
0000
0000
,
1000
0000
0001
0000
,
1000
0000
0000
0000
,
0010
0000
0100
0000
,
0010
0000
0000
0000
,
0110
0000
0000
0000
,
1001
0000
0000
0000
,
0000
0000
0000
0000
,
0001
0000
0001
0000
,
0100
0100
0001
0000
,
0010
0000
0010
0000
,
0100
0000
0100
0000
,
1000
0000
0000
0000
,
0001
0000
0000
0000
,
1001
0000
0000
0000
,
0000
0000
0000
0000
,
1000
0000
1000
0000
,
0100
0100
1000
0000
,
0010
0000
0010
0000
,
0100
0000
0100
0000
,
0001
0000
0000
0000
,
1000
0000
0000
0000
,
1001
0000
0000
0000
,
0000
0000
0000
0000
,
0000
0001
0000
0001
,
0000
0001
0001
0001
,
0000
1000
0000
1000
,
0000
1000
1000
1000
,
1000
0000
0000
0000
,
0000
0000
0000
0000
;
#NOTES:
     dance-single:
     :
     Easy:
     7:
     :
0000
0000
0000
0000
,
0000
0000
0000
0000
,
0000
0000
0000
0000
,
0000
0000
0000
0000
,
0000
0000
0000
0000
,
0000
0000
0000
0000
,
0000
0000
0000
0000
,
1000
0000
0100
0000
1000
0001
1000
0000
,
0001
0010
0100
1000
,
0001
0000
0100
0000
0001
1000
0001
0000
,
0100
0010
1000
0000
,
0002
0000
0103
0000
,
0001
0001
0001
0000
,
1000
0010
0100
0001
,
0010
0100
1000
0000
,
2000
0000
3100
0000
,
1000
1000
1000
0000
,
0001
0010
0100
1000
,
0010
0100
0001
0000
,
1000
1000
0100
0000
,
0001
0001
0100
0000
,
1000
0010
0001
0010
,
1000
0000
1001
0000
,
0001
0001
0010
0000
,
1000
1000
0010
0000
,
0001
0010
1000
0010
,
0001
0000
1001
0000
,
1000
0100
1000
0100
,
0010
0010
0010
0000
,
0011
0000
1010
0000
,
1001
0000
0000
0000
,
0001
0100
0001
0100
,
0010
0010
0010
0000
,
1010
0000
0011
0000
,
1001
0000
0000
0000
,
0001
0000
0010
0000
,
1000
0010
0001
0000
,
1100
0000
0101
0000
,
1001
0000
0000
0000
,
1000
0000
0010
0000
,
0001
0010
1000
0000
,
0101
0000
1100
0000
,
1001
0000
0000
0000
,
0001
0010
0001
0001
,
0100
0001
0100
0000
,
0001
0010
0100
1000
,
0001
1000
0001
0000
,
1000
0010
1000
1000
,
0100
1000
0100
0000
,
1000
0100
0010
0001
,
1000
0001
1000
0000
,
0001
0000
1000
0000
,
0001
1000
1001
0000
,
0001
0000
1000
0001
0000
1000
0001
0000
,
0100
0000
0010
0100
0000
0010
0100
0000
,
0002
0000
0013
0001
,
1000
0100
1000
0001
,
1000
0000
0001
1000
0000
0001
1000
0000
,
0010
0000
0100
0010
0000
0100
0010
0000
,
2000
0000
3010
1000
,
0001
1000
0001
0000
,
1000
0000
0100
0010
0000
0001
0010
0000
,
0100
0000
1000
0010
0000
0100
0010
0000
,
2000
0000
3010
0100
,
0010
0010
1000
1000
,
0001
0000
0010
0100
0000
1000
0100
0000
,
0010
0000
0001
0100
0000
0010
0100
0000
,
0002
0000
0013
0100
,
1000
0001
1000
1001
,
0000
0001
0001
1000
,
1000
0001
0001
1001
,
0000
0010
0010
0100
,
0100
0010
0100
0010
,
0110
0000
0000
0000
,
0000
0000
0000
0000
;
#NOTES:
     dance-single:
     :
     Medium:
     10:
     :
0000
0000
0000
0000
,
0000
0000
0000
0000
,
0000
0000
0000
0000
,
0000
0000
0000
0000
,
0000
0000
0000
0000
,
0000
0000
0000
0000
,
0000
0000
0000
0000
,
0001
0100
0001
0100
0010
1000
0010
1000
,
0001
0000
1000
0001
0100
0001
1000
0000
,
0001
0010
0001
0010
0100
1000
0100
1000
,
0001
0000
1000
0100
0010
0000
0110
0000
,
1000
0100
1000
0001
0010
0001
0000
0001
,
0100
0010
1000
0010
0100
0000
0001
1000
,
0000
1000
0001
0010
0001
0100
0010
1000
,
0000
1000
0100
0001
0100
1000
0001
0000
,
1000
0010
1000
0010
0100
0001
0000
0001
,
0010
0100
1000
0010
1000
0000
0001
0100
,
0000
0100
0001
1000
0010
1000
0100
0010
,
0000
0010
0100
0010
0100
0000
0110
0000
,
0002
0000
0023
0000
1030
0010
0001
0000
,
2000
0000
3020
0000
0031
0010
1000
0000
,
0000
0000
0001
0100
0001
0000
0100
0010
,
1000
0010
0100
0000
0001
1000
0001
0000
,
0000
0000
1000
0100
0001
0100
1000
0000
,
0002
0000
0203
0000
1300
0100
0001
0000
,
0000
1000
0010
0000
1000
0100
0010
0000
,
0001
0100
0010
1000
0001
0100
0010
0000
,
1000
0100
0010
0000
0100
0010
0001
0000
,
1000
0001
0100
0010
0100
0001
1000
0000
,
0001
0010
0100
0000
0010
0100
1000
0000
,
0001
0100
0010
1000
0001
0100
0010
0000
,
1000
0001
0100
0000
0001
1000
0100
0000
,
0010
0001
0100
0001
0010
0100
1000
0000
,
0001
1000
0100
0000
1000
0001
0100
0000
,
0010
1000
0100
1000
0010
0100
0001
0000
,
2000
3200
0320
0032
,
1003
0001
1000
0001
1000
0000
1001
0000
,
0002
0203
0320
2030
,
3001
1000
0001
1000
0001
0000
1001
0000
,
2000
3020
0230
0302
,
0013
0100
1000
0100
0010
0000
0110
0000
,
0002
0203
0320
2030
,
3100
0010
0001
1000
0100
0000
0110
0000
,
0001
0001
0101
0000
,
1000
0010
0000
1010
0000
0000
,
1000
1000
1100
0000
,
0001
0010
0000
0011
0000
0000
,
0001
0100
1000
0100
,
0010
0100
0000
0110
0000
0000
,
1000
0100
0001
0100
,
0010
0100
0000
0110
0000
0000
,
1000
0001
1001
0000
,
0001
0000
1000
0000
0000
0001
1000
0000
0000
0000
0000
0000
,
0001
0000
0001
0100
0000
0100
0010
1000
,
0010
0000
1000
0100
0000
0100
0010
0001
,
0020
0030
0010
0001
,
0101
0110
1010
1100
,
1001
0000
1000
0001
,
0010
0100
1000
0100
,
0020
0000
0000
0000
0031
0000
0001
0100
,
0001
1000
0001
1001
,
1000
0000
1000
0010
0000
0010
0100
0001
,
0100
0000
0001
0010
0000
0010
0100
1000
,
0200
0300
0100
1000
,
1010
0110
0101
0011
,
1001
0000
0001
1000
,
0100
0010
0001
0010
,
0200
0000
1300
0010
,
1000
0001
1000
0001
1000
0000
1001
0000
,
0000
0000
0001
0001
0001
0000
1000
1000
,
1000
0000
0001
0001
0001
0000
1001
0000
,
0000
0000
0010
0010
0010
0000
0100
0100
,
0100
0000
0010
0100
0010
0010
0100
0010
,
0100
0010
0000
0000
0000
0000
0000
0000
,
0000
0000
0000
0000
;
#NOTES:
     dance-single:
     :
     Hard:
     13:
     :
0000
0000
0000
0000
,
0000
0000
0000
0000
,
0000
0000
0000
0000
,
0000
0000
0000
0000
,
0000
0000
0000
0000
,
0000
0000
0000
0000
,
0000
0000
0000
0000
,
1000
0000
0001
0100
0001
0000
1000
0000
0001
0010
0001
0000
1000
0000
0100
0000
,
0010
0000
0001
0000
0100
0000
0010
0000
1000
0000
0001
1000
0001
0000
0000
0000
,
1000
0000
0001
0010
0001
0000
1000
0000
0001
0100
0001
0000
1000
0000
0010
0000
,
0001
0000
0010
0000
1000
0000
0001
0000
0100
0000
0100
0010
0100
0000
0000
0000
,
0001
0000
1000
0100
0010
0000
0001
0000
1000
0001
1000
0000
0000
0000
1000
0000
,
0001
0001
0100
0100
0020
0000
0130
0010
,
1000
0000
0100
0000
0001
0000
0100
0000
1000
0001
1000
0000
0010
0000
0100
0000
,
0000
0000
0100
0010
0100
0000
0010
0000
1000
0000
1000
0000
0001
0000
0000
0000
,
1000
0000
0001
0010
0100
0000
1000
0000
0001
1000
0001
0000
0000
0000
0001
0000
,
1000
1000
0010
0010
0200
0000
0310
0100
,
0001
0000
0010
0000
1000
0000
0010
0000
0001
1000
0001
0000
0100
0000
0010
0000
,
0000
0000
0010
0100
0010
0000
1000
0001
1000
0000
0000
0000
1001
0000
0000
0000
,
1000
0100
0001
0000
1000
0010
0001
0000
,
0020
0000
0230
0000
1300
0001
1000
0000
,
1001
0000
0001
0100
0010
1000
0010
1000
,
0001
0001
0200
0000
1300
1000
0200
0000
,
0301
0010
1000
0000
0001
0100
1000
0000
,
0200
0000
0320
0000
0031
1000
0001
0000
,
1001
1000
0100
1000
0001
0010
0001
0010
,
0001
0100
0001
0000
1000
0100
1000
0000
0010
0000
0100
0000
0110
0000
0000
0000
,
1000
0000
1000
0000
0001
0100
0010
0000
1000
0000
0001
0000
1000
0000
0000
0000
,
0001
0010
0000
0001
0010
0000
0100
1000
0100
0000
1000
0000
0001
0000
0000
0000
,
1000
0000
1000
0000
0001
0010
0100
0000
1000
0000
0010
0000
1000
0000
0000
0000
,
0001
0100
0000
0001
0010
0000
0100
1000
0100
0000
0010
0000
0001
0000
0000
0000
,
0001
0000
0001
0000
1000
0010
0100
0000
0001
0000
1000
0000
0001
0000
0000
0000
,
1000
0100
0000
1000
0100
0000
0010
0001
0010
0000
0001
0000
1000
0000
0000
0000
,
0001
0000
0001
0000
1000
0100
0010
0000
0001
0000
0100
0000
0001
0000
0000
0000
,
1000
0010
0000
1000
0100
0000
0010
0001
0010
0000
0100
0000
1000
0000
0000
0000
,
0002
0100
1000
0103
,
0001
0010
0001
0010
0001
0000
1000
0000
0100
0000
0000
0000
0110
0000
0000
0000
,
2000
0100
0001
3100
,
1000
0010
1000
0010
1000
0000
0100
0000
1000
0000
0000
0000
1001
0000
0000
0000
,
0002
0010
1000
0013
,
0001
0100
0001
0100
0001
0000
1000
0000
0010
0000
0000
0000
0110
0000
0000
0000
,
2000
0010
0001
3010
,
1000
0100
1000
0100
1000
0000
0010
0000
1000
0000
0000
0000
1001
0000
0000
0000
,
0001
0000
0001
0100
0000
0100
0010
0000
0010
1000
0000
0000
,
0001
0000
1000
0000
0000
0001
1000
0000
0000
1001
0000
0000
,
1000
0000
1000
0100
0000
0100
0010
0000
0010
0001
0000
0000
,
1000
0000
0001
0000
0000
1000
0001
0000
0000
1001
0000
0000
,
0001
0000
0001
0100
0000
0100
1000
0000
1000
0100
0000
0100
,
0001
0000
0010
0100
0000
1000
0001
0000
0000
1001
0000
0000
,
1000
0000
1000
0100
0000
0100
0001
0000
0001
0100
0000
0100
,
1000
0000
0010
0100
0000
0001
1000
0000
0000
1001
0000
0000
,
0002
0100
2003
0100
,
3001
0000
1000
0000
0000
0001
1000
0000
0000
1001
0000
0000
,
1000
0000
0100
0010
0001
0000
1000
0000
0001
0000
0100
0000
0010
0000
0100
0000
,
0001
0000
0010
0100
1000
0000
0010
0000
0100
0000
0010
0000
1000
0000
0001
0000
,
0200
0000
2300
3200
,
0302
0023
0230
2300
,
3001
0000
0010
0100
1000
0000
0001
0000
1000
0000
0010
0000
0100
0000
0010
0000
,
1000
0000
0100
0010
0001
0000
0100
0000
0010
0000
0100
0000
0001
0000
1000
0000
,
0020
0000
0000
0000
0032
0000
0013
1000
,
0020
0230
0302
1003
,
0001
0000
0100
0010
0100
0000
0001
0000
1000
0001
1000
0000
0100
0000
0010
0000
,
0001
0000
1000
0010
1000
0000
0001
0000
0100
0010
0100
0000
0001
0000
1000
0000
,
0200
0000
0320
0032
,
2003
3200
0302
0203
,
1300
0000
0010
0100
0010
0000
1000
0000
0001
1000
0001
0000
0010
0000
0100
0000
,
1000
0000
0001
0100
0001
0000
1000
0000
0010
0100
0010
0000
1000
0000
0001
0000
,
0020
0000
0230
2300
,
3001
0100
0001
0100
0010
0000
0110
0000
,
0000
0000
0000
0000
0001
0000
1000
0000
0001
0000
0001
0100
0001
0000
1000
0000
,
0001
0000
0001
0010
0001
0000
1000
0000
0001
0000
1000
0000
1001
0000
0000
0000
,
0000
0000
0000
0000
1000
0000
0001
0000
1000
0000
1000
0100
1000
0000
0001
0000
,
1000
0000
1000
0010
1000
0000
0001
0000
0010
0000
0100
0000
1000
0000
0010
0000
,
1010
1001
0000
0000
0000
0000
0000
0000
,
0000
0000
0000
0000
;
#NOTES:
     dance-double:
     :
     Easy:
     7:
     :
00000000
00000000
00000000
00000000
,
00000000
00000000
00000000
00000000
,
00000000
00000000
00000000
00000000
,
00000000
00000000
00000000
00000000
,
00000000
00000000
00000000
00000000
,
00000000
00000000
00000000
00000000
,
00000000
00000000
00000000
00000000
,
00000001
00000000
00001000
00000000
00000010
00000100
00000010
00000000
,
00001000
00000100
00010000
00001000
,
00100000
00000000
00010000
00000000
01000000
00100000
01000000
00000000
,
00010000
00100000
01000000
00000000
,
20000000
00000000
30010000
00000000
,
10000000
10000000
10000000
00000000
,
10000000
01000000
00100000
00001000
,
00010000
00000100
00000010
00000000
,
00000002
00000000
00001003
00000000
,
00000001
00000001
00000001
00000000
,
00000001
00000100
00000010
00010000
,
00001000
01000000
00100000
00000000
,
10000000
01000000
00100000
00000000
,
01000000
00100000
00010000
00000000
,
00100000
00001000
00010000
00001000
,
00000010
00000100
00000010
00000000
,
00000001
00000100
00000010
00000000
,
00000100
00000010
00001000
00000000
,
00000010
00010000
00001000
00010000
,
00100000
01000000
00100000
00000000
,
10000000
01000000
00010000
00001000
,
00010000
01000000
10000000
00000000
,
10000000
00100000
01000000
00001000
,
00010000
00000100
00000010
00000000
,
00000001
00000100
00001000
00010000
,
00001000
00000100
00000001
00000000
,
00000001
00000010
00000100
00010000
,
00001000
00100000
01000000
00000000
,
10000000
00100000
01000000
00000000
,
01010000
00000000
00011000
00000000
,
00001000
00010000
00000100
00000000
,
00000110
00000000
00000000
00000000
,
00000001
00000010
00000100
00000000
,
00001100
00000000
00011000
00000000
,
00010000
00001000
01000000
00000000
,
01100000
00000000
00000000
00000000
,
10000000
00100000
00010000
00100000
,
10000000
10000000
10000000
00000000
,
10000000
01000000
00100000
00001000
,
00010000
00010000
00010000
00000000
,
00010000
00001000
00000010
00001000
,
00010000
00010000
00010000
00000000
,
00001000
00010000
00000010
00000100
,
00000001
00000001
00000001
00000000
,
00000100
00000000
00001000
00000000
,
00010000
00001000
00011000
00000000
,
00001000
00000000
00100000
00010000
00000000
00000000
00100000
00000000
,
00010000
00000000
10000000
01000000
00000000
00000000
10000000
00000000
,
00200000
00000000
01300000
00010000
,
00100000
00001000
00010000
00000100
,
00001000
00000000
00000010
00000100
00000000
00000000
00000010
00000000
,
00001000
00000000
00000001
00000010
00000000
00000000
00000100
00000000
,
00002000
00000000
00003001
00001000
,
00000010
00000100
00000110
00000000
,
00000001
00000000
00001000
00000100
00000000
00000000
00000010
00000000
,
00000100
00000000
00010000
00001000
00000000
00000000
01000000
00000000
,
00020000
00000000
00130000
01000000
,
10000000
00100000
01000000
00010000
,
10000000
00000000
01000000
00100000
00000000
00000000
01000000
00000000
,
00010000
00000000
00001000
00010000
00000000
00000000
00000010
00000000
,
00002000
00000000
00003001
00000010
,
00000100
00001000
00000001
00001001
,
00000000
00000001
00000001
00000100
,
00000100
00001000
00001000
00001000
,
00000000
00010000
00010000
00100000
,
00100000
10000000
10000000
10000000
,
10010000
00000000
00000000
00000000
,
00000000
00000000
00000000
00000000
;
#NOTES:
     dance-double:
     :
     Medium:
     10:
     :
00000000
00000000
00000000
00000000
,
00000000
00000000
00000000
00000000
,
00000000
00000000
00000000
00000000
,
00000000
00000000
00000000
00000000
,
00000000
00000000
00000000
00000000
,
00000000
00000000
00000000
00000000
,
00000000
00000000
00000000
00000000
,
00000001
00000010
00000001
00000010
00000100
00001000
00000100
00001000
,
00000010
00000000
00010000
00001000
00010000
00001000
00010000
00000000
,
00001000
00100000
00001000
00100000
00010000
01000000
00010000
01000000
,
00100000
00000000
10000000
01000000
00100000
00000000
01100000
00000000
,
10000000
01000000
10000000
00010000
00100000
00010000
00000000
00010000
,
01000000
00001000
00010000
00001000
01000000
00000000
00010000
00100000
,
00000000
00100000
00001000
00010000
00000100
00001000
00000100
00000010
,
00000000
00000001
00001000
00000001
00000010
00000001
00001000
00000000
,
00000001
00000100
00000001
00001000
00000010
00001000
00000000
00001000
,
00000100
00010000
00001000
00010000
00000100
00000000
00001000
00000010
,
00000000
00000010
00010000
00001000
01000000
00010000
01000000
00100000
,
00000000
10000000
00010000
10000000
00010000
00000000
10010000
00000000
,
20000000
00000000
32000000
00000000
03100000
00010000
00100000
00000000
,
00002000
00000000
00023000
00000000
00030100
00001000
00000100
00000000
,
00000000
00000000
00001000
00000010
00000100
00000000
00000001
00000010
,
00000100
00000010
00000001
00000000
00001000
00000100
00000010
00000000
,
00000000
00000000
00000001
00000100
00000010
00001000
00000100
00000000
,
00020000
00000000
00032000
00000000
00013000
00001000
00010000
00000000
,
00000000
00001000
01000000
00000000
00010000
00100000
01000000
00000000
,
10000000
00100000
01000000
00010000
00100000
01000000
10000000
00000000
,
01000000
00100000
00001000
00000000
00100000
00001000
00010000
00000000
,
00001000
00010000
00000100
00000010
00000100
00010000
00001000
00000000
,
00010000
00001000
01000000
00001000
00010000
00000100
00001000
00000010
,
00000100
00001000
00000100
00000001
00001000
00000100
00000010
00000000
,
00000010
00000100
00010000
00000000
00000100
00010000
00001000
00000000
,
00010000
00001000
00100000
01000000
00100000
00001000
00010000
00000000
,
00001000
00010000
00000010
00010000
00001000
00100000
00010000
01000000
,
00100000
00010000
00100000
10000000
00010000
01000000
00100000
00000000
,
10000000
00000000
10010000
00000000
00010000
00100000
01000000
00000000
,
00100000
00001000
00010000
00001000
00010000
00000000
00011000
00000000
,
00001000
00000000
00010000
00000000
00000100
00001000
00000010
00000000
,
00000100
00000001
00001000
00000001
00001000
00000000
00001001
00000000
,
00000001
00000000
00001001
00000000
00001000
00000100
00000010
00000000
,
00000100
00010000
00001000
00010000
00001000
00000000
00011000
00000000
,
00010000
00000000
00001000
00000000
00100000
00010000
01000000
00000000
,
00100000
10000000
00010000
10000000
00010000
00000000
10010000
00000000
,
01000000
00100000
10010000
00000000
,
10000000
01000000
00000000
00110000
00000000
00000000
,
00001000
00010000
00011000
00000000
,
00010000
00000100
00000000
00000110
00000000
00000000
,
00000001
00000100
00000001
00001000
,
00000100
00000000
00010000
00000000
00000000
00001000
00010000
00000000
00000000
00000000
00000000
00000000
,
00001000
00100000
00010000
00100000
,
01000000
00000000
10000000
00000000
00000000
00010000
10000000
00000000
00000000
00000000
00000000
00000000
,
10000000
01000000
00100000
00010000
,
00001000
00000100
00000011
00000000
,
00000001
00000000
00000010
00000100
00000000
00000010
00000100
00000000
,
00001000
00000000
00000010
00010000
00000000
00001000
00010000
00000000
,
00002000
00000000
00103000
00010000
,
01000000
01100000
00100000
10100000
,
10000000
00000000
01000000
00100000
,
01000000
10000000
00100000
01000000
,
00002000
00000000
00000000
00000000
00013000
00000000
00010000
00001000
,
00010000
00000100
00000010
00000110
,
00000001
00000000
00000100
00000010
00000000
00000100
00000001
00000000
,
00001000
00000000
00000100
00010000
00000000
00001000
00010000
00000000
,
00002000
00000000
01003000
00010000
,
00100000
01100000
01000000
11000000
,
10000000
00000000
00010000
10000000
,
00100000
10000000
01000000
00100000
,
00002000
00000000
00013000
00001000
,
00000010
00000100
00000010
00000100
00000010
00000000
00000110
00000000
,
00000000
00000000
00000001
00000100
00000001
00000000
00001000
00000100
,
00001000
00000000
00000100
00010000
00000100
00010000
00001000
00000000
,
00000000
00000000
00010000
00001000
00010000
00000000
00001000
01000000
,
00001000
00000000
00100000
00010000
00100000
00010000
00100000
01000000
,
10000000
01000000
00000000
00000000
00000000
00000000
00000000
00000000
,
00000000
00000000
00000000
00000000
;
#NOTES:
     dance-double:
     :
     Hard:
     13:
     :
00000000
00000000
00000000
00000000
,
00000000
00000000
00000000
00000000
,
00000000
00000000
00000000
00000000
,
00000000
00000000
00000000
00000000
,
00000000
00000000
00000000
00000000
,
00000000
00000000
00000000
00000000
,
00000000
00000000
00000000
00000000
,
00000001
00000000
00000100
00000001
00000100
00000000
00000010
00000000
00000100
00000001
00000100
00000000
00000001
00000000
00000010
00000000
,
00000100
00001000
00000100
00010000
00001000
00100000
00010000
00000000
,
10000000
00000000
00100000
10000000
00100000
00000000
01000000
00000000
00100000
10000000
00100000
00000000
10000000
00000000
01000000
00000000
,
00100000
00000000
00010000
00000000
00100000
00000000
00001000
00000000
00010000
00000000
00010000
00001000
00010000
00000000
00000000
00000000
,
00000000
00000000
00001000
00010000
00001000
00000000
00000100
00000000
00000010
00000100
00000010
00000000
00000000
00000000
00000010
00000000
,
00001000
00000001
00000010
00000100
00002000
00000000
00000100
00003100
,
00000000
00000000
00000100
00010000
00000100
00000000
00010000
00000000
00001000
00010000
00001000
00000000
00100000
00000000
00010000
00000000
,
00000000
00000000
10000000
00010000
10000000
00000000
01000000
00000000
00100000
00000000
00100000
00000000
01000000
00000000
00000000
00000000
,
00000000
00000000
10000000
00100000
10000000
00000000
00010000
00000000
00100000
01000000
00100000
00000000
00000000
00000000
00100000
00000000
,
00001000
00010000
00000100
00001000
00000020
00000000
00000100
00000130
,
00000000
00000000
00000100
00000000
00000001
00000000
00000010
00000000
00000100
00000010
00000100
00000000
00001000
00000000
00000001
00000000
,
00000000
00000000
00001000
00000100
00001000
00000000
00000100
00010000
00000100
00000000
00000000
00000000
00011000
00000000
00000000
00000000
,
00001000
00000000
00010000
00000000
00100000
10000000
00100000
00000000
,
00010000
00000000
00001000
00000000
00000010
00000001
00000010
00000000
,
00001000
00010000
00001000
00010000
01000000
10000000
00100000
10000000
,
01000000
01000000
00200000
00000000
00301000
00001000
00010000
00000000
,
00011000
00000000
00001000
00000100
00000001
00000100
00000001
00000000
,
00000100
00001000
00010000
00000000
01000000
10000000
01000000
00000000
,
00010000
00001000
00010000
00001000
00000010
00000001
00000100
00000001
,
00000010
00000100
00000010
00000000
00000100
00010000
00000100
00000000
00010000
00000000
00001000
00000000
00011000
00000000
00000000
00000000
,
00001000
00100000
00010000
01000000
00100000
10000000
01000000
00000000
,
00100000
00010000
00000000
00100000
00010000
00000000
10000000
01000000
00100000
00000000
00001000
00000000
00010000
00000000
00000000
00000000
,
00001000
00010000
00000100
00001000
00000010
00000100
00000001
00000000
,
00001000
00000010
00000000
00001000
00000010
00000000
00000100
00000001
00001000
00000000
00000010
00000000
00000100
00000000
00000000
00000000
,
00000001
00000010
00000100
00000010
00001000
00010000
00001000
00000000
,
00100000
00010000
00000000
00100000
00010000
00000000
01000000
00010000
01000000
00000000
00100000
00000000
10000000
00000000
00000000
00000000
,
10000000
01000000
00100000
01000000
00010000
00001000
00010000
00000000
,
00001000
00010000
00000000
00001000
00010000
00000000
00000010
00001000
00000001
00000000
00001000
00000000
00000001
00000000
00000000
00000000
,
00000002
00000100
00000010
00000103
,
00001000
00000010
00001000
00000010
00001000
00000000
00000100
00000000
00010000
00000000
00000000
00000000
00011000
00000000
00000000
00000000
,
00002000
00100000
00010000
00103000
,
00010000
00100000
00010000
00100000
00010000
00000000
01000000
00000000
00100000
00000000
00000000
00000000
01100000
00000000
00000000
00000000
,
20000000
00100000
01000000
30100000
,
00010000
01000000
00010000
01000000
00010000
00000000
00100000
00000000
00001000
00000000
00000000
00000000
00011000
00000000
00000000
00000000
,
00020000
00000100
00001000
00030100
,
00001000
00000100
00001000
00000100
00001000
00000000
00000010
00000000
00000100
00000000
00000000
00000000
00000110
00000000
00000000
00000000
,
00000001
00000000
00000001
00000100
00000000
00000100
00000010
00000000
00000010
00001000
00000000
00000000
,
00000100
00000000
00010000
00000000
00000000
00001000
00010000
00000000
00000000
00011000
00000000
00000000
,
00001000
00000000
00001000
01000000
00000000
01000000
00010000
00000000
00010000
00100000
00000000
00000000
,
01000000
00000000
10000000
00000000
00000000
00010000
10000000
00000000
00000000
10010000
00000000
00000000
,
10000000
00000000
10000000
00100000
00000000
00100000
00010000
00000000
00010000
00100000
00000000
00100000
,
10000000
00000000
10000000
01000000
00000000
01000000
00010000
00000000
00010000
00001000
00000000
00000000
,
00010000
00000000
00010000
00001000
00000000
00001000
00000010
00000000
00000010
00000001
00000000
00000001
,
00000100
00000000
00000100
00001000
00000000
00001000
00000100
00000000
00000100
00000001
00000000
00000000
,
00001000
00000000
00000010
00000100
00000000
00000010
00000100
00000000
00001000
00010000
00000000
00001000
,
00010000
00000000
00001000
00000000
00000000
00001000
00010000
00000000
00000000
00011000
00000000
00000000
,
00001000
00000000
01000000
00010000
01000000
00000000
00010000
00000000
00100000
00000000
01000000
00000000
10000000
00000000
01000000
00000000
,
00100000
00000000
00001000
00010000
00001000
00000000
00010000
00000000
00000100
00000000
00001000
00000000
00000010
00000000
00000100
00000000
,
00000002
00000000
00000023
00002030
,
00023000
02030000
23000000
30010000
,
10000000
00000000
00100000
01000000
00100000
00000000
10000000
00000000
01000000
00000000
00100000
00000000
00001000
00000000
00010000
00000000
,
00000010
00000000
00001000
00000100
00001000
00000000
00000010
00000000
00000100
00000000
00000001
00000000
00000010
00000000
00000100
00000000
,
00002000
00000000
00000000
00000000
00003002
00000000
00000103
00000001
,
00000010
00001000
00000010
00000001
00001000
00000000
00001001
00000000
,
00001000
00000000
00000010
00000100
00000010
00000000
00001000
00000000
00000100
00000000
00010000
00000000
00001000
00000000
00010000
00000000
,
01000000
00000000
00100000
00010000
00100000
00000000
01000000
00000000
10000000
00000000
00100000
00000000
00010000
00000000
00100000
00000000
,
20000000
00000000
30020000
02030000
,
03002000
00023000
00030020
00002030
,
00003001
00000000
00000100
00000010
00000100
00000000
00000001
00000000
00001000
00000000
00000010
00000000
00000100
00000000
00001000
00000000
,
00010000
00000000
00001000
00010000
00001000
00000000
01000000
00000000
00010000
00000000
00100000
00000000
00001000
00000000
00010000
00000000
,
02000000
00000000
23000000
30020000
,
00130000
01000000
00100000
01000000
00100000
00000000
01100000
00000000
,
00000000
00000000
00000001
00000001
00000001
00000000
00001000
00001000
,
00001000
00000000
00000001
00001000
00000001
00001000
00001001
00000000
,
00000000
00000000
00010000
00010000
00010000
00000000
10000000
10000000
,
10000000
00000000
00010000
10000000
01000000
00100000
00010000
00001000
,
00000100
00000010
00000000
00000000
00000000
00000000
00000000
00000000
,
00000000
00000000
00000000
00000000
;
