
//----- song ID: losy -----//
#TITLE:Lose Your Sense;
#ARTIST:ZxNX;
#BANNER:Lose Your Sense.png;
#BACKGROUND:Lose Your Sense-bg.png;
#CDTITLE:./CDTitles/DDR A3.png;
#MUSIC:Lose Your Sense.ogg;
#SAMPLESTART:98.745;
#SAMPLELENGTH:15;
#DISPLAYBPM:44:175;
#BPMS:0=175,36=43.75,37=175,69=87.5,69.5=175,96.5=87.5,99=175,158=43.75,159=87.5,175=175,178=350,179=175,182=350,183=175,186=350,187=175,190=87.5,190.5=175,202.5=87.5,205=175,212=350,214=175,217=350,219=175,228=43.75,229=175,231=87.5,233=175,261=87.5,263.5=175,278.5=87.5,279.5=175,289.5=350,293.5=87.5,294=175,307=87.5,308=175,320=43.75,322=175;
#STOPS:178=0.171,182=0.171,186=0.171,289.5=0.129,290.25=0.129,291=0.129,291.75=0.129,292.5=0.086,293=0.086;
#STAGE:28;
#NOTES:
     dance-single:
     :
     Beginner:
     6:
     :
0000
0000
0000
0000
,
0000
0000
0000
0000
,
0000
0000
0000
0000
,
0000
0000
0000
0000
,
0000
0000
0000
0000
,
0000
0000
0000
0000
,
0001
0000
0001
0000
,
0100
0000
0000
0000
,
0010
0000
0100
0000
,
0010
0000
0000
1000
,
0000
0100
1000
0100
,
0000
0010
0000
0010
,
0000
0001
0000
0000
,
0000
0001
0000
0100
,
0000
0010
0001
0010
,
0000
0100
0000
0100
,
0000
2000
0000
0000
,
0000
0000
3000
0000
0000
1000
0000
0000
,
0000
1000
0000
1000
0000
0100
0000
0000
,
0000
0010
0000
0000
0000
0100
0000
0000
,
0000
0010
0000
0010
0000
0001
0000
0000
,
0000
0001
0000
0001
0000
0100
0000
0000
,
0000
0001
0000
0001
0000
0010
0000
0000
,
0000
0100
0000
0000
0000
1000
0000
0000
,
0000
1001
0000
0000
0000
0000
0000
0000
,
1000
0000
0010
0010
,
0100
0000
1000
0000
,
0100
0010
0100
0010
,
0001
0000
1001
0000
,
0000
0000
0110
0000
,
0000
0000
1001
0000
,
0000
0000
0001
0000
,
0100
0000
0001
0001
,
0010
0000
0100
0000
,
0100
0000
1000
0100
,
1000
0000
1000
0000
,
0010
0000
0100
0100
,
1000
0000
0100
0000
,
0001
0000
0010
0000
,
0010
0000
2002
3003
,
0000
0000
0000
0000
,
0000
0000
0000
2000
,
0000
3000
0000
0002
,
0000
0003
0000
0020
,
0000
0030
0000
0200
,
0000
0300
0000
0020
,
0000
0030
0000
0200
,
0000
0000
0300
0000
0000
0001
0000
0001
,
0000
0100
0000
0000
0000
0010
0000
1000
,
0000
0010
0000
0000
0000
1000
0000
0000
,
0000
0001
0000
0000
0000
1001
0000
0000
,
0000
0000
1000
0000
,
0100
0100
0010
0000
,
0002
0000
0003
0000
,
0000
2000
0000
3000
,
0000
0000
1000
1000
,
0010
0000
0010
0010
,
0100
0000
0000
1001
,
0000
0001
0000
0100
,
0000
0001
0010
0001
,
0000
1000
0000
0100
,
0000
1000
0010
1000
,
0000
2000
0000
0000
,
3000
0002
0000
0000
,
0003
1000
0000
0001
,
0000
1001
0000
0000
,
0000
0001
0000
0100
0000
0001
0000
0100
,
0000
0010
0000
0000
0000
1000
0000
0000
,
0000
0100
0000
0000
0000
1001
0000
0000
,
0000
0000
0000
0000
0000
0000
0000
1000
,
0000
0100
0000
1000
0000
0100
0000
0010
,
0000
0000
0000
0001
0000
0000
0000
0100
,
0000
0000
0000
2002
0000
0000
0000
0000
,
0000
0000
0000
3003
0000
0000
1000
0000
,
1000
0100
0100
0010
,
0000
0001
0001
0100
,
0000
0010
1000
0001
,
0000
0000
1001
0000
,
0000
0000
0110
0000
,
0001
0010
0100
1000
,
0000
0000
1001
0000
,
0000
0000
0000
0000
;
#NOTES:
     dance-single:
     :
     Easy:
     9:
     :
0000
0000
0000
0000
,
0000
0000
0000
0000
,
0000
0000
0000
0000
,
0000
0000
0000
0000
,
0000
0000
0000
0000
,
0000
0000
0000
0000
,
0001
0000
1000
0000
0100
0010
0100
0000
,
1000
0000
0010
0000
0100
0001
0100
0000
,
0001
0010
0001
0000
1000
0100
1000
0000
,
2002
3003
0001
0000
0001
0000
0100
0000
,
0100
0000
0010
1000
0010
0000
0100
0000
,
0100
0001
0010
1000
,
0010
0000
0001
1000
0001
0000
1000
0000
,
1001
0001
0100
0010
,
1000
0000
0100
0000
0010
0000
0100
1000
,
0100
1000
0001
0100
,
0010
1000
1000
0001
,
2000
0000
3000
0001
0000
0001
0000
0100
,
0000
0010
1000
0010
0000
0100
0001
0100
,
0000
0101
0000
0000
0000
1010
0000
0000
,
0000
1100
0000
0000
0000
0011
0000
0000
,
0000
1000
0000
0100
0000
0010
0001
0010
,
0000
0001
0000
0100
0000
0010
1000
0010
,
0000
1000
0000
0001
0000
0100
0000
0010
,
0000
0220
0000
0000
0000
0330
0110
0000
,
1000
0010
1010
0001
,
0100
0001
0101
0010
,
0001
0010
0011
1000
,
0100
1000
1100
0000
,
1001
0000
0110
0000
,
1001
0000
0001
0100
,
0110
0000
1000
0100
,
0110
0000
1000
1000
,
0001
0001
0100
0010
,
1000
0001
1000
0000
0100
0000
0010
0000
,
0001
1000
0001
0000
1000
0000
0010
0000
,
0100
0001
0100
0000
0001
0000
0001
0000
,
0010
0100
0010
0100
1000
0000
1000
0000
,
0010
0100
0010
0100
0001
0000
0101
0000
,
1000
0000
1100
0000
2002
3003
1001
0000
,
0000
0000
0000
0000
,
0000
0000
0000
0000
0000
0000
0000
0000
0000
0000
0000
0000
1000
0000
0000
0100
,
0000
0000
1000
0000
0001
0000
0000
0010
0000
0000
0001
0000
0100
0000
0000
0001
,
0000
0000
0100
0000
0010
0000
0000
1000
0000
0000
0010
0000
1000
0000
0000
0000
,
0000
1000
0000
0000
0000
0000
0001
0000
,
0000
0001
0000
0000
0000
0000
0100
0000
,
0000
0100
0000
0000
0000
0000
0010
0000
,
0000
0010
0000
0000
0000
1000
0000
0100
,
0000
0010
0001
0010
0000
0001
0000
0100
,
0000
0010
1000
0010
0000
1000
0100
0010
,
0000
0001
0100
0010
0000
0220
0000
0000
,
0000
0330
0110
0000
1000
0000
0010
0000
,
0100
0001
0010
0001
,
0200
0000
0300
0100
,
0100
0020
0000
0030
,
0010
0010
1000
0001
,
0100
0010
1000
0001
,
0200
0300
0100
0000
0010
0000
2002
0000
,
3003
1000
0100
1100
,
1000
0100
0001
0100
,
1000
0001
0100
0101
,
0001
0100
1000
0100
,
0001
0010
0010
0010
,
0000
0100
0100
0100
,
0000
1100
0000
0011
,
0000
0000
2002
0000
0000
0000
3003
1001
,
0000
1000
0000
0010
0000
0100
0000
0001
,
0000
0010
0001
0010
0000
0001
0000
0100
,
0000
1000
0000
0100
0000
0001
0010
0001
,
0000
1000
0100
1000
0000
2002
3003
0001
,
0000
0100
0000
0010
1000
0010
0000
0100
,
0000
0100
0000
0001
0000
0010
0000
0100
,
0000
1000
0000
0002
0000
0000
0000
0000
,
0000
0000
0000
0003
1001
0000
1000
0000
,
0010
0000
0100
0010
0100
0000
0001
1000
,
0001
1000
0010
0100
,
0001
0000
0010
0100
0010
0100
0020
0030
,
0001
0000
0000
0100
0000
0000
1001
0000
,
1000
0000
0000
0010
0000
0000
1001
0000
,
0001
0000
0010
0000
0100
1000
0100
1000
,
0000
0000
1001
0000
,
0000
0000
0000
0000
;
#NOTES:
     dance-single:
     :
     Medium:
     13:
     :
0000
0000
0000
0000
,
0000
0000
0000
0000
,
0000
0000
0000
0000
,
0000
0000
0000
0000
,
0000
0000
0000
0000
,
0000
0000
0000
0000
,
0001
0100
0010
1000
0010
0010
0010
0000
,
1000
0100
0010
0001
0010
0010
0010
0000
,
0001
0000
0100
0000
1000
0000
0100
0000
0001
1000
0001
1000
0001
0000
0000
0000
,
2002
3003
1000
0100
1000
0100
0010
0001
,
0100
0000
0001
0000
0020
0000
0000
0000
0031
0000
0000
0001
0000
0000
1000
0000
,
0010
0000
2000
0000
3100
0010
0001
0100
,
0001
1000
0010
0000
1001
0001
0100
0100
,
0100
0000
0002
0000
0013
0001
1000
0100
,
0010
0000
0001
0000
0100
0000
0000
0100
0010
0000
0010
0000
1000
0000
1000
0000
,
1000
0000
0001
0100
1000
0100
0001
0010
,
1000
0000
0010
0000
0001
0000
0000
0001
0000
0000
0001
0000
1000
0000
0000
0000
,
1010
0000
2000
3001
0100
0010
1000
0010
,
1000
0100
0010
0100
0010
0001
1000
0001
,
0000
0011
0000
0100
0000
0101
0000
1000
,
0000
1100
0000
0010
0000
1010
0000
0001
,
0000
0000
1000
0000
0100
0000
0010
0001
0000
0000
1000
0000
0100
0000
0010
0001
,
0000
0000
0001
0000
0100
0000
0010
1000
0000
0000
0001
0000
0100
0000
0010
1000
,
0000
0001
0100
0001
0100
1000
0100
0001
,
1000
0000
0002
0000
0000
0000
0000
0000
0003
0000
0000
0000
0001
0000
0000
0100
,
0000
0000
0001
0000
0100
0001
0000
0000
1001
0000
0000
0000
1000
0000
0000
0100
,
0000
0000
1000
0000
0100
1000
0000
0000
1001
0000
0000
0000
0001
0000
0000
0010
,
0000
0000
0001
0000
0010
0001
0000
0000
1001
0000
0000
0000
1000
0000
0000
0010
,
0000
0000
1000
0000
0010
1000
0000
0000
1001
0000
0000
0000
0001
0000
0100
0000
,
0001
0000
0010
0001
0000
1000
0010
0000
1000
0100
0000
0000
,
1000
0001
1000
0001
0000
0000
1001
0000
0000
0110
0000
0000
,
1000
0100
1000
0100
0000
0000
1000
0000
0001
0100
0000
0000
,
0001
0010
0001
0000
1000
0000
0000
0000
0001
0000
0000
0000
0110
0000
0000
0000
,
0001
0100
0010
1000
0010
0000
1000
0100
,
0001
0100
1000
1000
0001
0000
1000
0010
,
0001
0010
1000
1000
0001
0000
1000
0010
,
0100
0000
0001
0000
1000
0000
0000
0000
0001
0000
0000
0001
0100
0000
0000
0100
,
0010
0000
1000
0000
0010
0000
0000
0000
1000
0000
0000
1000
0100
0000
0000
0100
,
0010
0000
0000
0001
0000
0000
0010
0000
0000
0000
0000
0000
0001
0000
0000
0000
0001
0000
0100
0000
0000
0000
0100
0000
,
0010
0000
0010
1000
0000
0000
2002
0000
0000
3003
0000
0000
,
0000
0000
0000
0000
,
0000
0000
0000
0000
0000
0000
0000
0000
0000
0000
0000
0000
0001
0000
1000
0010
,
0000
0010
1000
0000
0100
0000
0010
0001
0000
0001
1000
0000
0001
0000
0100
0010
,
0000
0010
0100
0000
0001
0000
0010
0100
0000
0100
1000
0000
1010
0000
0000
0000
,
0000
0101
0000
0000
1001
0000
0011
0000
,
0000
1100
0000
0000
1001
0000
0011
0000
,
0000
1100
0000
0000
0110
0000
0101
0000
,
0000
0010
1000
0010
2000
3001
0100
0001
,
0100
0010
1000
0010
1000
0100
0010
0100
,
0010
0001
1000
0001
1000
0001
0100
0010
,
1000
0100
0010
0001
1000
0002
0000
0000
,
0000
0003
0001
0010
0100
1000
0010
1000
,
0100
0010
0100
0001
0100
0010
0100
1000
,
0200
0000
0000
0000
0310
0001
0100
0001
,
1000
0010
2000
0000
0000
0000
3001
0100
,
1000
0000
0100
0000
0001
0100
0001
0000
1000
0010
1000
0000
0010
0000
0100
0000
,
0001
1000
0010
0001
0010
1000
0001
0100
,
0020
0000
0130
0010
0100
0010
2000
0000
,
0000
3000
1001
0000
1000
0100
0010
0000
,
0011
0000
0101
0000
0011
0000
1000
0100
,
0001
0000
0110
0000
1001
0000
0001
0100
,
0010
1000
0000
1000
0001
1000
0001
0010
,
0010
0000
0000
0000
1001
0000
0000
0001
0100
0000
0000
0010
1000
0000
0010
0000
,
1000
0000
0000
0000
1001
0000
0000
1000
0100
0000
0000
0010
0001
0000
0010
0000
,
0001
0000
0000
0000
1000
0000
0010
0000
0100
0001
0100
0000
0001
0000
0010
0000
,
0100
1000
0100
0000
2000
0000
0000
0000
0000
0000
0000
0000
3000
0000
1000
0000
,
0100
0000
0010
0000
0001
0000
0100
0000
0000
0110
0000
0000
0010
0000
1000
0000
,
0010
0000
0001
0000
0010
0000
1000
0000
0000
0000
0001
0000
0000
0001
0100
0000
,
0100
0000
0010
0000
0000
0010
1000
0000
1000
0000
0100
0000
0000
0010
0001
0000
,
1000
0100
0001
0100
0000
0220
0330
1001
,
1000
0010
0100
0001
0010
1000
0010
0001
,
1000
0000
0100
0000
0000
0000
0010
0000
0000
0001
0100
0000
0001
0000
0010
0000
,
0000
0000
0110
0000
0000
0000
1000
0000
0000
1000
0000
0000
0001
0000
0000
0001
,
0000
2000
0002
3003
0001
0100
1000
0100
,
0001
0100
1000
0100
0001
1000
0010
0100
,
0001
0000
1000
0100
0010
0001
0010
0100
,
1000
0010
0100
0010
1000
0010
0200
0300
,
1000
0000
0000
1000
0000
0000
0010
0000
0000
0010
0000
0000
1010
0000
0000
0000
,
0001
0000
0000
0001
0000
0000
0010
0000
0000
0010
0000
0000
0011
0000
0000
0000
,
0001
0000
0000
0000
0000
0000
0000
0000
0100
0000
0000
0000
0000
0000
0000
0000
0010
0000
0000
0000
0000
0000
0000
0000
0000
0000
0000
1000
0000
0000
0000
0000
0000
0000
0000
0000
0001
0000
0000
0000
0000
0000
1000
0000
0000
0000
0000
0000
,
0000
0000
1001
0000
,
0000
0000
0000
0000
;
#NOTES:
     dance-single:
     :
     Hard:
     17:
     :
0000
0000
0000
0000
,
0000
0000
0000
0000
,
0000
0000
0000
0000
,
0000
0000
0000
0000
,
0000
0000
0000
0000
,
0000
0000
0000
0000
,
1000
0000
0000
1000
0100
0000
0010
0000
0001
1000
0001
0000
1000
0000
0000
0000
,
0001
0000
0000
0001
0100
0000
0010
0000
1000
0001
1000
0000
0001
0000
0000
0000
,
1000
0100
1000
0000
0001
0100
0001
0000
1000
0001
1000
0001
1000
0001
1000
0000
,
2002
0000
3003
0000
1001
0000
0000
0000
0001
0000
0100
0000
0010
1000
0010
1000
,
0010
0000
0100
0000
0002
0000
0000
0000
1003
0000
0100
0001
0000
0100
1000
0000
,
0001
0000
0001
0000
1001
0000
0000
0000
1000
0001
0100
0000
0010
0100
0001
0100
,
0010
0000
1000
0000
0001
0000
0100
0001
0010
0000
0100
1000
0001
1000
0100
1000
,
0001
0000
0001
0000
0010
0000
0000
0000
0011
0000
0001
0000
1000
0100
1000
0100
,
0010
0000
0010
0000
0001
0000
0000
1000
0010
0000
1000
0100
1000
0010
1000
0000
,
0001
0100
0001
0000
1000
0000
0001
0000
0100
0010
1000
0010
0100
0010
1000
0000
,
0100
0010
0001
1000
0100
0000
0001
0100
0000
1000
0100
0000
0002
0000
0000
0000
,
0103
1000
0010
0100
0002
0003
1001
0000
1000
0000
0001
0100
0010
1000
0010
0000
,
1000
0000
0001
0000
0100
0000
0001
0000
0010
0001
1000
0010
1000
0010
0100
0000
,
0000
0000
0000
1001
0000
0000
0000
0000
0000
0001
0000
0000
0100
0000
0000
1000
0000
0100
0000
0010
0000
1000
0000
0000
,
0001
0000
1001
0000
0000
0000
1000
0000
0100
0000
0001
0000
0100
1000
0001
0000
,
0000
0000
1001
0000
1000
0000
0100
0010
0100
0000
1000
0000
0001
0100
0001
0010
,
0001
0000
1000
0000
0100
0010
0100
1000
0010
0000
0100
0000
0001
0010
0100
0010
,
0001
0000
1000
0010
0100
0001
1000
0010
0100
0001
1000
0100
0010
0001
0010
0100
,
1000
0001
2000
0000
0000
0000
0000
0000
0000
0000
3000
0000
0001
0000
0010
1000
,
0000
0010
0001
0000
1000
0100
0010
0001
1000
0000
0000
0000
0001
0000
0100
1000
,
0000
0100
0001
0000
1000
0010
0100
0001
1000
0000
0000
0000
0100
0000
0010
0001
,
0000
0100
0001
0000
0010
0100
1000
0010
0100
0000
0000
0000
0010
0000
1000
0100
,
0000
1000
0010
0000
0100
0001
0010
0100
1000
0000
0000
0000
0001
0000
1000
0000
,
0100
0001
0100
0000
0010
0001
1000
0010
0100
0101
0000
0000
,
1000
0100
0010
0011
0000
0000
0101
0000
0000
1010
0000
0000
,
1000
0001
0100
0010
1000
0001
0010
0100
1000
1010
0000
0000
,
1000
0010
1000
0010
0100
0001
0100
0001
0100
0000
0000
0000
0101
0000
0000
0000
,
0001
0000
0001
0000
1000
0010
1000
0010
1000
0000
0000
0000
0001
0000
0100
1000
,
0000
0001
0010
0000
1000
0100
0010
0001
1000
0000
0000
0000
0001
0000
0010
1000
,
0000
0001
0100
0000
1000
0010
0100
0001
1000
0000
0000
0000
0001
0000
0010
1000
,
0000
0010
0001
0000
1000
0000
0000
0000
0001
0000
1000
0100
1000
0000
0010
0100
,
0001
0100
0010
0000
1001
0000
0000
0000
1000
0000
0001
0100
0001
0000
0010
0100
,
1000
0000
0000
0100
0000
0000
0010
0000
0000
0000
0000
0000
1001
0000
0000
0000
0000
0000
0000
0000
0000
0000
0000
0000
0001
0000
0000
0000
0100
0000
0000
0000
0010
0000
0000
0000
0100
0000
0000
0000
1000
0000
0000
0000
0001
0000
0000
0000
,
0010
0000
0100
0000
0010
0000
1000
0000
0001
0000
0100
0000
0020
0000
0000
0030
0000
0000
0110
0000
0000
0000
0000
0000
,
0000
0000
0000
0000
,
0000
0000
0000
0000
0000
0000
0000
0000
0000
0000
0000
0000
0001
0010
0010
0001
,
0010
0010
0001
0000
1000
0010
0010
1000
0010
0010
1000
0000
0001
0100
0100
0001
,
0100
0100
0001
0000
1000
0100
0100
1000
0100
0100
1000
0000
1010
0000
0010
0000
,
1000
1010
0010
1000
1010
0000
0011
0001
,
0010
0011
0001
0010
0011
0000
1100
1000
,
0100
1100
1000
0100
1100
0000
0101
0100
,
0001
0000
0101
0000
0100
0000
0100
0000
0002
0003
1000
0100
1000
0100
0010
0000
,
0001
0100
0001
0100
0010
0000
1000
0010
0100
0001
1000
0010
1000
0010
0100
0000
,
0001
0010
0001
0010
0100
0000
1000
0001
0010
0100
1000
0010
1000
0010
0100
0010
,
0100
0010
1000
0100
0010
0001
1000
0010
0100
0001
2000
0000
0000
0000
0000
0000
,
0000
0000
3000
0000
0001
0010
0100
0000
1000
0010
0100
0000
0001
0010
0100
0000
,
1000
0100
0010
0000
0001
0100
0010
0000
1000
0100
0010
0000
0001
0100
0010
0000
,
2000
0000
0000
0000
0000
0000
0000
0000
3001
0100
0010
0000
1000
0001
0100
0000
,
0001
1000
0100
0000
2000
0000
0000
0000
0000
0000
0000
0000
3001
0010
0100
0000
,
1000
0001
0010
0000
0001
1000
0010
1000
0001
1000
0010
1000
0001
0000
0100
0000
,
0010
1000
0100
0000
0010
0001
0100
0000
0010
1000
0100
0000
0010
0001
0100
0000
,
1000
0100
0001
0010
1000
0001
0100
1000
0001
0000
0100
0000
0010
0000
0000
0000
1000
0000
0010
0000
0100
0000
0000
0000
0002
0000
0000
0000
0000
0000
0000
0000
,
0000
0003
0001
0100
0010
1000
0001
0000
,
1000
0100
1000
0100
0010
0100
0010
0001
0010
0001
0000
0000
,
1001
0000
0000
0000
0000
0000
0100
0000
0000
0010
0000
0000
0100
0000
0000
0000
0000
0000
1000
0000
0100
0000
1000
0000
,
0000
0001
0100
0002
0000
0000
0000
0000
0000
0003
0000
0000
,
1001
0000
0000
0000
1000
0000
0000
0100
0010
0000
0000
0001
1000
0001
1000
0000
,
0001
0000
0000
0000
0001
0000
0000
0100
0010
0000
0000
1000
0001
1000
0001
0000
,
1000
0000
0000
0000
1001
0000
0000
0000
0001
0100
0001
0100
0010
1000
0010
1000
,
0001
1000
0001
1000
0002
0000
0000
0000
0000
0000
0000
0000
0003
0000
1000
0000
,
0001
0100
0000
0100
0010
0000
1000
0001
0000
1001
0000
0000
1000
0010
1000
0000
,
0001
0010
0001
1000
0001
1000
0001
0000
0100
0000
1000
0000
0000
0100
0001
0000
,
1000
0100
0001
0000
0000
0100
1000
0000
0001
0010
1000
0000
0000
0010
0001
0010
,
0001
0000
1000
0001
0000
1000
0001
0000
0000
0000
0020
0000
0030
0000
0001
0100
,
0010
1000
0001
0000
1000
0100
0010
0001
0010
0000
0001
0000
0100
0000
0001
0010
,
0100
1000
0001
0000
0100
0000
0010
0000
0000
0010
1000
0100
0010
0000
0011
0000
,
0000
0000
1000
0000
0000
0000
1010
0000
0000
0011
0000
0000
0101
0000
0000
1100
,
0000
0000
1000
0000
0001
0000
2000
3000
0001
0000
0010
0000
1000
0000
0010
0000
,
0001
0000
1000
0000
0001
0000
0000
0000
1001
0000
0000
0000
1000
0010
1000
0010
,
0100
0001
0100
0000
0001
0000
0000
1000
0001
0100
0000
0010
1000
0000
0001
0000
,
1000
0100
0010
0000
0001
0000
0100
0000
1000
0000
0100
0000
0002
0000
0003
0000
,
0001
0100
0000
1000
0100
0000
0001
0010
0000
1000
0010
0000
1001
0000
0000
0000
,
1000
0100
0000
0001
0100
0000
1000
0010
0000
0001
0010
0000
1001
0000
0000
0000
,
1000
0000
0000
0000
0100
0000
0000
0000
1000
0000
0000
0000
0001
0000
0000
0000
0100
0000
0000
0000
0001
0000
0000
0000
1000
0000
0000
0010
0000
0000
1000
0000
0000
0000
0000
0000
0001
0000
0000
0000
0000
0000
0001
0000
0000
0000
0000
0000
,
2000
0000
0000
0000
0000
0000
0000
3000
1001
0000
0000
0000
0000
0000
0000
0000
,
0000
0000
0000
0000
;
#NOTES:
     dance-single:
     :
     Challenge:
     18:
     :
0000
0000
0000
0000
,
0000
0000
0000
0000
,
0000
0000
0000
0000
,
0000
0000
0000
0000
,
0000
0000
0000
0000
,
0000
0000
0000
0000
,
0001
0100
0010
1000
1010
0001
1001
0000
,
1000
0100
0010
0001
0011
1000
1001
0000
,
0001
0100
0010
1000
0100
0010
0001
0010
1000
0010
0100
1000
0001
0100
0010
1000
,
0002
0000
0100
0100
0100
0000
0003
0000
1001
0000
0000
0000
0000
0000
0000
0000
1000
0000
0000
0000
0100
0000
0000
0000
0001
0000
0100
0000
0010
0000
0100
0000
,
1000
0000
0001
0000
0200
0000
0000
0000
1300
0000
0100
0010
0000
0100
0001
0000
,
1000
0100
0010
0001
1000
0000
0000
0000
0001
0010
1000
0000
0001
0100
1000
0100
,
0010
0000
0001
0000
1001
0000
1000
0010
0100
0000
1000
0100
0001
0010
0100
0010
,
0001
0000
0001
0000
2000
0000
0000
0000
3100
0000
0100
0000
0010
0001
0100
0001
,
0010
0000
0100
1000
0010
0000
0000
0100
1000
0000
0100
0001
0100
0010
1000
0000
,
0100
0010
0001
0000
2000
0000
0000
0000
3100
0000
0001
0100
0010
0100
0001
0000
,
0100
1000
0001
0010
0001
0000
0100
1000
0000
0001
0010
0000
1000
0010
0100
0001
,
0010
0100
1000
0010
0200
0000
0301
0000
0001
0000
0010
0100
0010
0100
0010
0000
,
0001
0000
1000
0000
1000
0000
0010
0000
0100
0010
0000
0100
0010
1000
0010
0000
,
0000
0000
0000
1010
0000
0000
0000
0000
0000
1000
0000
0000
1000
0000
0000
0001
0000
0100
0000
0001
0000
0100
0000
0000
,
0001
0000
0011
0000
0000
0000
0001
0000
0001
0000
1000
0100
0001
0100
1000
0000
,
0000
0000
0001
0000
0101
0000
1000
0010
0000
0000
1000
0000
1100
0000
0001
0010
,
0000
0000
0001
0000
1001
0000
0100
0010
0000
0000
1000
0000
1001
0000
0100
0010
,
0000
0000
1000
0001
0100
0010
0001
1000
0100
0010
1000
0001
0010
0100
0001
0100
,
1000
0000
0000
0001
0000
0000
0010
0000
0001
0000
0010
0000
0001
0000
1000
0000
0001
0000
1000
0000
0100
0000
1000
0000
0010
0000
0100
0000
0010
0000
0100
0000
0000
0000
0000
0000
1010
0000
0000
0000
0000
0000
0000
0000
0000
0101
0000
0000
,
0000
0000
1010
0000
0001
0100
0010
1000
0010
0000
0000
0000
0011
0000
0000
1100
,
0000
0000
0011
0000
1000
0100
0010
0001
0010
0000
0000
0000
0101
0000
0000
1010
,
0000
0000
0101
0000
1000
0010
0100
0001
0100
0000
0000
0000
1100
0000
0000
0011
,
0000
0000
1100
0000
0001
0010
0100
1000
0100
0000
0000
0000
0110
0000
0001
0000
,
1000
0100
0001
0100
1000
0001
0010
1000
0010
0001
0000
0000
,
1000
0100
0010
0001
0000
0000
1000
0000
0000
0110
0000
0000
,
0001
0100
1000
0100
0001
1000
0010
0001
0010
1000
0000
0000
,
0001
0100
0010
1000
0001
0100
0010
1000
0001
0000
0000
0000
1001
0000
0000
0000
,
1000
0000
1000
0000
0001
0010
0100
1000
0010
0000
0000
0000
1000
0000
0100
1000
,
0000
0100
1000
0000
0001
0010
0001
0010
0001
0000
0000
0000
0100
0000
0001
0100
,
0000
0001
0100
0000
0010
1000
0010
1000
0010
0000
0000
0000
1000
0000
0001
1000
,
0000
0001
1000
0000
0010
0100
0010
0100
0010
0000
0001
0010
0100
0000
0010
1000
,
0010
0100
0010
0000
1001
0000
0000
0000
0110
0000
1000
0100
0010
0000
0100
0001
,
0100
0000
0000
0010
0000
0000
0100
0000
0000
0000
0000
0000
1001
0000
0000
0000
0000
0000
0000
0000
0000
0000
0000
0000
1000
0000
0000
0000
0100
0000
0000
0000
0100
0000
0000
0000
0010
0000
0000
0000
0001
0000
0000
0000
0001
0000
0000
0000
,
0100
0000
0010
0000
0010
0000
1000
0000
0001
0000
0001
0000
2002
0000
0000
3003
0000
0000
2002
0000
0000
0000
0000
0000
,
0000
0000
0000
0000
,
0000
0000
0000
0000
0000
0000
0000
0000
3003
0000
0000
0000
0011
0001
0100
0001
,
0010
0000
0100
1000
0100
0000
0000
0000
1010
0000
1000
0000
0100
0000
1000
0000
0010
0000
0100
0001
0100
0000
0000
0000
0101
0000
0001
0000
1000
0000
0100
0000
,
0010
0000
0001
1000
0100
0000
0000
0000
1100
0000
1000
0000
0001
0000
0100
0000
0010
0000
1000
0001
0100
0000
0000
0000
0011
0000
0000
0000
0001
0000
0010
0000
,
0001
0000
0101
0000
0001
0100
0001
0000
0011
0000
0000
0000
1010
0000
1000
0010
,
1000
0000
1100
0000
1000
0100
1000
0000
1010
0000
0000
0000
0101
0000
0100
0001
,
0100
0000
1100
0000
0100
1000
0100
0000
0101
0000
0000
0000
1010
0000
0010
1000
,
0010
0000
0011
0000
0010
0001
0010
0001
0010
0000
0001
0000
0100
1000
0100
0000
,
0001
0000
0010
1000
0010
0000
0001
1000
0001
0000
1000
0000
0100
0001
0100
0000
,
1000
0000
0010
0001
0010
0000
1000
0001
1000
0000
0001
0000
0100
0000
0010
0000
,
1000
0000
0000
0000
0001
0000
0010
0000
1000
0000
0010
0000
0001
0000
0100
0000
1000
0000
0100
0000
0002
0000
0000
1000
0000
0000
1000
0000
0000
1000
0000
0000
,
1000
0000
0003
0000
1000
0100
0010
0000
0010
0001
0100
0000
0100
0010
1000
0000
,
1000
0001
0100
0000
0100
0001
0010
0000
0010
0001
0100
0000
0100
0010
1000
0010
,
2000
0000
0000
0000
0000
0000
0000
0000
3001
0010
0100
0000
0100
1000
0001
0000
,
0001
1000
0010
1000
0020
0000
0000
0000
0000
0000
0000
0000
0130
0001
1000
0000
,
1000
0001
0010
0000
0010
0100
1000
0010
0100
1000
0100
0001
1000
0100
0010
0000
,
0010
0100
0001
0000
0001
0100
1000
0000
1000
0010
0100
0000
0100
1000
0100
0000
,
0100
0001
0100
0001
0010
0001
0010
0001
1000
0100
1000
0100
0010
0100
0010
0000
0001
0000
0000
0000
1000
0000
0000
0000
0001
0000
0000
0000
0000
0000
0000
0000
0001
0000
0000
0000
0100
0000
0000
0000
0010
0000
0000
0000
0000
0000
0000
0000
0220
0000
0000
0000
0000
0000
0000
0000
0330
0000
0000
0000
0000
0000
0000
0000
,
0001
0010
0001
0010
0100
1000
0100
1000
0001
0000
0000
0000
0000
0000
0000
0000
1000
0000
0000
0000
0010
0000
0000
0000
1000
0000
0000
0000
0000
0000
0000
0000
,
0001
0010
0010
0100
1000
1000
0001
1000
1000
0010
0000
0000
,
0110
0000
0000
0000
0000
0000
0100
0000
0000
0010
0000
0000
1001
0000
0000
0000
0000
0000
1000
0000
0100
0000
0100
0000
,
0001
0000
0100
0000
0100
0000
1000
0000
0000
0010
0000
0000
0010
0000
0000
0010
0000
0000
0010
0000
0000
0100
0000
0000
,
1001
0000
0000
0000
1000
0000
0000
0001
0100
0000
0000
0010
1000
0001
1000
0000
,
0001
0000
0000
0000
0001
0000
0000
1000
0100
0000
0000
0010
0001
1000
0001
0000
,
1000
0000
0000
0000
1001
0000
0000
0000
0001
0010
0100
1000
0010
0100
0001
0010
,
0100
1000
0010
0100
0002
0000
0100
0100
0100
0000
0000
0000
0003
0000
0001
0000
,
0100
0010
0000
0010
1000
0001
1000
0100
0010
0001
0000
1000
0010
0100
1000
0100
,
0010
1000
0010
0100
1000
0100
0010
1000
0010
0000
1000
0000
0000
0001
0010
0100
,
0010
0001
1000
0000
0000
0001
0100
0010
0100
0001
1000
0000
0000
0100
0010
0001
,
1000
0000
0100
0000
0010
0000
0001
0000
0100
0000
0001
0000
0010
0000
0000
0000
0000
0000
0000
0000
0001
0100
0001
2000
0000
0000
3100
0000
1100
0000
0000
0000
,
0001
0000
1000
0010
0100
0001
0010
1000
0010
0001
0010
0000
0001
0000
1000
0100
,
0010
0001
0010
0000
0001
0100
0010
0000
0000
1000
0001
0100
0001
0010
0100
0000
,
0000
0000
1100
0000
0000
0000
1000
0100
0000
0010
0001
0000
1000
0010
0000
0100
,
0001
0000
0011
0000
1100
0000
1001
0000
0001
0010
0100
1000
0010
0100
0010
1000
,
0001
0100
0010
1000
0100
0010
0001
0100
0010
1000
0100
1000
0010
0100
0001
0100
,
0010
1000
0100
0010
0001
0000
1000
0100
0010
1000
0010
0100
1000
0001
0010
0100
,
0001
0100
1000
0001
0100
0010
0100
1000
0001
0010
1000
0001
0100
0000
0110
0000
,
1000
0010
1000
0001
0010
0001
1000
0100
1000
0001
0100
0001
1000
0010
0100
0001
,
0010
0100
1000
0010
0100
0001
0010
0001
0100
0010
1000
0100
0010
0001
1000
0010
,
0100
0000
0000
0000
0100
0000
0000
0000
0001
0000
0000
0000
0001
0000
0000
0000
1000
0000
0000
0000
1000
0000
0000
0000
0010
0000
0000
0100
0000
0000
0010
0000
0000
0100
0000
0000
0010
0000
0000
0000
0000
0000
0220
0000
0000
0000
0000
0000
,
0000
0000
0000
0330
1001
0000
0000
0000
;
#NOTES:
     dance-double:
     :
     Easy:
     9:
     :
00000000
00000000
00000000
00000000
,
00000000
00000000
00000000
00000000
,
00000000
00000000
00000000
00000000
,
00000000
00000000
00000000
00000000
,
00000000
00000000
00000000
00000000
,
00000000
00000000
00000000
00000000
,
00000001
00000000
00001000
00000000
00000010
00000100
00000010
00000000
,
00001000
00000000
00000100
00000000
00010000
00001000
00010000
00000000
,
00001000
00000000
00100000
00000000
00010000
01000000
00010000
00000000
,
20020000
30030000
10000000
00000000
10000000
00000000
00100000
00000000
,
00100000
00000000
01000000
00010000
01000000
00000000
00100000
00000000
,
00100000
10000000
01000000
00100000
,
00001000
00000000
00010000
00001000
00010000
00000000
00011000
00000000
,
00000000
00001000
00010000
00001000
,
00000100
00000000
00000010
00000000
00000100
00000000
00000001
00001000
,
00000001
00000010
00000001
00000100
,
00000010
00010000
00010000
00002000
,
00000000
00000000
00003000
00011000
00000000
00001000
00000000
01000000
,
00000000
00010000
00100000
00010000
00000000
10000000
01000000
10000000
,
00000000
11000000
00000000
00000000
00000000
01100000
00000000
00000000
,
00000000
00101000
00000000
00000000
00000000
00011000
00000000
00000000
,
00000000
00010000
00000000
00001000
00000000
00000010
00000000
00000001
,
00000000
00001000
00000000
00000100
00000000
00000010
00000001
00000010
,
00000000
00000001
00000000
00000100
00000000
00001000
00000000
00010000
,
00000000
00022000
00000000
00000000
00000000
00033000
00011000
00000000
,
00001000
00100000
00110000
00010000
,
01000000
00100000
10100000
10000000
,
01000000
00100000
00101000
00001000
,
00010000
00000100
00001100
00000000
,
00000011
00000000
00000110
00000000
,
00001001
00000000
00000001
00000100
,
00001000
00000000
00010000
00100000
,
10000000
00000000
10000000
10000000
,
01000000
01000000
00100000
00001000
,
00010000
00011000
00001000
00001000
,
00000010
00000010
00000100
00001000
,
00000001
00000000
00000011
00000000
00000010
00000001
00000010
00000000
,
00000001
00001000
00000001
00000000
00001000
00000100
00001000
00000000
,
00000100
00010000
00000100
00000000
00010000
00001000
01000000
00010000
,
01000000
00000000
00100000
00000000
02200000
03300000
01100000
00000000
,
00000000
00000000
00000000
00000000
,
00000000
00000000
00000000
00000000
00000000
00000000
00000000
00000000
00000000
00000000
00000000
00000000
10000000
00000000
00000000
01000000
,
00000000
00000000
10000000
00000000
00010000
00000000
00000000
00100000
00000000
00000000
00010000
00000000
00001000
00000000
00000000
00000100
,
00000000
00000000
00001000
00000000
00000001
00000000
00000000
00000010
00000000
00000000
00000001
00000000
00000010
00000000
00000000
00000000
,
00000000
00000010
00000000
00000000
00000000
00000000
00000100
00000000
,
00000000
00000100
00000000
00000000
00000000
00000000
01000000
00000000
,
00000000
01000000
00000000
00000000
00000000
00000000
00100000
00000000
,
00000000
00100000
00000000
00000000
00000000
10000000
00000000
00100000
,
00000000
01000000
00010000
01000000
00000000
00010000
00000000
00100000
,
00000000
00001000
00010000
00001000
00000000
00010000
00000010
00001000
,
00000000
00000100
00000010
00000001
00000000
00002002
00000000
00000000
,
00000000
00003003
00001001
00000000
00000001
00000000
00000100
00000000
,
00000001
00000100
00000010
00001000
,
00000020
00000000
00000030
00000010
,
00010000
00020000
00000000
00030000
,
00010000
00001000
00001000
01000000
,
00010000
00100000
00001000
01000000
,
00020000
00030000
00010000
00000000
01000000
00000000
02200000
00000000
,
03300000
10000000
00100000
10100000
,
10000000
01000000
00010000
00001000
,
00000000
00010000
00001000
00011000
,
00010000
00001000
00000010
00000001
,
00000000
00000000
00000001
00000100
00000001
00000000
00001000
00000000
,
00000000
00000000
00000100
00010000
00000100
00000000
00010000
00000000
,
00000000
00000000
00001000
00000000
00100000
00000000
00010000
01000000
,
00100000
00000000
02200000
00000000
00000000
00000000
03300000
01100000
,
00000000
10000000
00000000
00010000
00000000
00100000
00000000
01000000
,
00000000
00010000
00001000
00010000
00000000
00001000
00000000
00000010
,
00000000
00000001
00000000
00000010
00000000
00001000
00010000
00001000
,
00000000
00010000
00001000
00010000
00000000
00022000
00033000
00011000
,
00000000
00001000
00000000
01000000
00000000
00010000
00000000
00100000
,
01000000
00100000
00000000
00010000
00000000
00010000
00000000
10000000
,
00000000
00000000
00000000
00200000
00000000
00000000
00000000
00000000
,
00000000
00000000
00000000
00300000
01100000
00000000
10000000
00000000
,
00100000
00000000
01000000
00010000
00100000
00000000
00001000
00000000
,
00001000
00000000
00010000
00000000
00000100
00000000
00001000
00000010
,
00001000
00000000
00000001
00000100
00000001
00000000
00002000
00003000
,
00000001
00000000
00000000
00000100
00000000
00000000
00000110
00000000
,
00010000
00000000
00000000
00001000
00000000
00000000
00011000
00000000
,
00001000
00000000
01000000
00000000
00010000
01000000
00100000
10000000
,
00000000
00000000
10010000
00000000
,
00000000
00000000
00000000
00000000
;
#NOTES:
     dance-double:
     :
     Medium:
     13:
     :
00000000
00000000
00000000
00000000
,
00000000
00000000
00000000
00000000
,
00000000
00000000
00000000
00000000
,
00000000
00000000
00000000
00000000
,
00000000
00000000
00000000
00000000
,
00000000
00000000
00000000
00000000
,
00000001
00000010
00000001
00000010
00000001
00000100
00000001
00000000
,
00001000
00000010
00001000
00000010
00001000
00000100
00001000
00000000
,
00000100
00010000
00001000
00100000
00010000
01000000
00100000
00000000
,
20020000
30030000
10000000
00100000
10000000
00100000
01000000
00001000
,
00100000
00000000
00001000
00000000
00020000
00000000
00000000
00000000
00031000
00000000
00000000
00010000
00000000
00000000
00000010
00000000
,
00001000
00000000
00000002
00000000
00000103
00000010
00001000
00000001
,
00000010
00001000
00010000
00000000
00011000
00001000
01000000
00100000
,
01100000
00000000
20000000
00000000
30100000
01000000
00100000
00010000
,
00100000
00000000
00010000
00000000
00001000
00000000
00000000
00001000
00010000
00000000
00000100
00000000
00001000
00000000
00001000
00000000
,
00001000
00000000
00000001
00000100
00001000
00000100
00000001
00000010
,
00001000
00000000
00010000
00000000
00001000
00000000
00000000
00001000
00000000
00000000
00001000
00000000
00010000
00000000
00000000
00000000
,
00011000
00000000
00002000
00103000
00010000
01000000
00010000
00100000
,
01000000
10000000
00010000
10000000
00010000
01000000
00100000
01000000
,
00000000
10100000
00000000
00010000
00000000
00110000
00000000
00001000
,
00000000
00011000
00000000
00000100
00000000
00001100
00000000
00000001
,
00000000
00000000
00000010
00000000
00000001
00000000
00000100
00000010
00000000
00000000
00001000
00000000
00000100
00000000
00010000
00001000
,
00000000
00000000
00100000
00000000
00010000
00000000
01000000
00100000
00000000
00000000
10000000
00000000
01000000
00000000
00100000
00010000
,
00000000
10000000
01000000
00010000
00001000
00010000
00001000
00000010
,
00000001
00000000
00002000
00000000
00000000
00000000
00000000
00000000
00003000
00000000
00000000
00000000
00000001
00000000
00000000
00000100
,
00000000
00000000
00000001
00000000
00000010
00000100
00000000
00000000
00000110
00000000
00000000
00000000
00000100
00000000
00000000
00010000
,
00000000
00000000
00001000
00000000
00010000
00001000
00000000
00000000
00011000
00000000
00000000
00000000
00001000
00000000
00000000
01000000
,
00000000
00000000
00010000
00000000
00100000
00010000
00000000
00000000
10010000
00000000
00000000
00000000
10000000
00000000
00000000
00100000
,
00000000
00000000
10000000
00000000
01000000
00100000
00000000
00000000
01100000
00000000
00000000
00000000
10000000
00000000
01000000
00000000
,
00010000
00000000
00010000
00001000
00000000
00001000
00000010
00000000
00000010
00000001
00000000
00000000
,
00001000
00000001
00001000
00000001
00000000
00000000
00001001
00000000
00000000
00000110
00000000
00000000
,
00000001
00000100
00001000
00010000
00000000
00000000
00001000
00000000
00001000
00010000
00000000
00000000
,
00001000
01000000
00001000
00000000
00100000
00000000
00000000
00000000
00010000
00000000
00000000
00000000
01100000
00000000
00000000
00000000
,
10000000
01000000
00010000
01000000
10000000
00000000
00010000
00100000
,
00001000
00010000
00001000
00000010
00000001
00000000
00001000
00000100
,
00010000
00001000
00010000
01000000
10000000
00000000
00010000
10000000
,
00100000
00000000
01000000
00000000
00010000
00000000
00000000
00000000
10000000
00000000
00000000
10000000
01000000
00000000
00000000
01000000
,
00100000
00000000
00001000
00000000
00010000
00000000
00000000
00000000
00001000
00000000
00000000
00001000
00000010
00000000
00000000
00000010
,
00000001
00000000
00000000
00001000
00000000
00000000
00000001
00000000
00000000
00000000
00000000
00000000
00001000
00000000
00000000
00000000
00000001
00000000
00000100
00000000
00000000
00000000
00000100
00000000
,
00001000
00000000
00001000
00010000
00000000
00000000
00022000
00000000
00000000
00033000
00000000
00000000
,
00000000
00000000
00000000
00000000
,
00000000
00000000
00000000
00000000
00000000
00000000
00000000
00000000
00000000
00000000
00000000
00000000
00001000
00000000
01000000
00010000
,
00000000
01000000
00010000
00000000
10000000
00000000
01000000
00100000
00000000
01000000
00100000
00000000
00001000
00000000
00010000
00000100
,
00000000
00010000
00000100
00000000
00001000
00000000
00000010
00000100
00000000
00000010
00000100
00000000
00000101
00000000
00000000
00000000
,
00000000
00001010
00000000
00000000
00001001
00000000
00001100
00000000
,
00000000
00011000
00000000
00000000
00110000
00000000
01010000
00000000
,
00000000
10100000
00000000
00000000
10010000
00000000
11000000
00000000
,
00000000
01000000
00100000
00001000
00020000
00031000
00010000
00001000
,
00010000
00000100
00000010
00000100
00000010
00000001
00001000
00000001
,
00001000
00000010
00000100
00000010
00000100
00001000
00010000
00100000
,
01000000
00010000
00100000
01000000
10000000
00020000
00000000
00000000
,
00000000
00030000
10000000
01000000
00010000
01000000
10000000
00100000
,
01000000
00010000
00100000
00001000
00010000
00000100
00001000
00000010
,
00000200
00000000
00000000
00000000
00000301
00000100
00000001
00000010
,
00001000
00000010
00000002
00000000
00000000
00000000
00001003
00000100
,
00010000
00000000
00001000
00000000
00100000
00010000
00100000
00000000
00010000
01000000
00010000
00000000
10000000
00000000
00100000
00000000
,
01000000
00010000
10000000
01000000
00010000
01000000
00100000
00001000
,
00020000
00000000
00031000
00010000
00001000
00010000
00002000
00000000
,
00000000
00003000
00011000
00000000
00010000
00000010
00001000
00000000
,
00001010
00000000
00000011
00000000
00000101
00000000
00000001
00000100
,
00001000
00000000
00011000
00000000
01100000
00000000
10000000
00010000
,
10000000
00000000
01000000
01000000
00100000
00100000
00001000
00001000
,
00010000
00000000
00000000
00000000
00011000
00000000
00000000
00010000
00001000
00000000
00000000
00001000
00000010
00000000
00001000
00000000
,
00010000
00000000
00000000
00000000
00011000
00000000
00000000
00001000
00010000
00000000
00000000
00010000
00100000
00000000
00010000
00000000
,
00001000
00000000
00000000
00000000
00010000
00000000
00000100
00000000
00001000
00000010
00001000
00000000
00000001
00000000
00000010
00000000
,
00000100
00010000
00000100
00000000
00020000
00000000
00000000
00000000
00000000
00000000
00000000
00000000
00030000
00000000
00001000
00000000
,
00100000
00000000
00010000
00000000
01000000
00000000
00100000
00000000
00000000
01100000
00000000
00000000
01000000
00000000
00100000
00000000
,
00010000
00000000
00100000
00000000
10000000
00000000
00010000
00000000
00000000
00000000
10000000
00000000
00000000
10000000
01000000
00000000
,
01000000
00000000
00100000
00000000
00000000
00100000
00001000
00000000
00001000
00000000
00010000
00000000
00000000
00010000
00000100
00000000
,
00000100
00001000
00000010
00000100
00000000
00000220
00000330
00001001
,
00000001
00000100
00000010
00001000
00000100
00001000
00000010
00000100
,
00001000
00000000
00010000
00000000
00000000
00000000
00100000
00000000
00000000
01000000
00100000
00000000
10000000
00000000
00010000
00000000
,
00000000
00000000
10010000
00000000
00000000
00000000
00010000
00000000
00000000
00010000
00000000
00000000
01000000
00000000
00000000
01000000
,
00000000
00002000
00020000
00033000
00010000
00001000
00000010
00001000
,
00010000
00000010
00010000
00001000
00000100
00001000
00010000
00001000
,
00100000
00001000
00010000
00100000
00010000
00001000
00010000
01000000
,
00010000
00001000
00000010
00000100
00000010
00000001
00002002
00003003
,
00000001
00000000
00000000
00000100
00000000
00000000
00001000
00000000
00000000
00010000
00000000
00000000
01100000
00000000
00000000
00000000
,
10000000
00000000
00000000
01000000
00000000
00000000
00010000
00000000
00000000
00001000
00000000
00000000
00000110
00000000
00000000
00000000
,
00000001
00000000
00000000
00000000
00000000
00000000
00000000
00000000
00000010
00000000
00000000
00000000
00000000
00000000
00000000
00000000
00001000
00000000
00000000
00000000
00000000
00000000
00000000
00000000
00000000
00000000
00000000
00010000
00000000
00000000
00000000
00000000
00000000
00000000
00000000
00000000
01000000
00000000
00000000
00000000
00000000
00000000
10000000
00000000
00000000
00000000
00000000
00000000
,
00000000
00000000
10010000
00000000
,
00000000
00000000
00000000
00000000
;
#NOTES:
     dance-double:
     :
     Hard:
     17:
     :
00000000
00000000
00000000
00000000
,
00000000
00000000
00000000
00000000
,
00000000
00000000
00000000
00000000
,
00000000
00000000
00000000
00000000
,
00000000
00000000
00000000
00000000
,
00000000
00000000
00000000
00000000
,
00000001
00000000
00000010
00000100
00000010
00000000
00000001
00000000
00001000
00000000
00000010
00000000
00000100
00000000
00001000
00000000
,
00010000
00000000
00001000
00010000
00001000
00000000
00100000
00000000
00010000
00000000
00100000
00000000
01000000
00000000
10000000
00000000
,
00100000
10000000
00100000
00000000
10000000
01000000
00100000
00000000
00001000
00010000
00001000
00000000
00010000
00000100
00001000
00000010
,
00000200
00000000
00000300
00000000
00000110
00000000
00000000
00000000
00000001
00000000
00000010
00000000
00000100
00001000
00000100
00001000
,
00000100
00000000
00010000
00000000
00002000
00000000
00000000
00000000
00013000
00000000
01000000
00100000
00000000
01000000
10000000
00000000
,
00010000
00000000
00000000
00000000
10010000
00000000
00000000
00000000
10000000
00100000
10000000
00000000
00010000
00100000
00001000
00100000
,
00010000
00000000
01000000
00000000
00001000
00000000
00010000
00000000
00001000
00000000
00000100
00000010
00000000
00001000
00000001
00001000
,
00000001
00000000
00000000
00000000
00001001
00000000
00000000
00000000
00000001
00000100
00000001
00000000
00001000
00000010
00001000
00000000
,
00000100
00010000
00000100
00000000
00010000
00000000
00000000
00010000
00001000
00000000
01000000
00010000
00100000
00000000
01000000
00100000
,
00001000
00000000
00010000
00000000
00100000
00000000
00000000
00000000
10000000
00000000
00100000
01000000
00100000
10000000
01000000
00000000
,
00100000
00001000
00010000
00000010
00001000
00000000
00000000
00001010
00000000
00000000
00000101
00000000
00000002
00000000
00000000
00000000
,
00000103
00000010
00000100
00000010
00000200
00000300
00000110
00000000
00000001
00000000
00000100
00000010
00010000
00001000
00010000
00000000
,
00000000
00000000
00011000
00000000
00000000
00000000
00001000
00000000
00010000
01000000
10000000
00010000
00100000
01000000
00100000
00000000
,
00000000
00000000
00000000
10010000
00000000
00000000
00000000
00000000
00000000
10000000
00000000
00000000
01000000
00000000
00000000
00100000
00000000
00010000
00000000
00001000
00000000
00000100
00000000
00000000
,
00000000
00000000
00001001
00000000
00000000
00000000
00000001
00000000
00000100
00000000
00001000
00000000
00010000
00100000
10000000
00000000
,
00000000
00000000
10010000
00000000
10000000
00000000
01000000
00100000
00000000
00010000
00100000
00000000
00001000
00000000
00010000
00000100
,
00000000
00001000
00000010
00000000
00000100
00000000
00000001
00000010
00000000
00000100
00010000
00000000
00000100
00000000
00001000
00000010
,
00000000
00000100
00000001
00001000
00000001
00001000
00000010
00010000
00000010
00010000
00001000
01000000
00001000
01000000
00010000
00100000
,
00010000
00100000
02000000
00000000
00000000
00000000
00000000
00000000
00000000
00000000
03000000
00000000
10000000
00000000
01000000
00100000
,
00000000
00100000
01000000
00000000
10000000
00100000
01000000
00010000
00100000
00000000
00000000
00000000
00001000
00000000
00010000
00001000
,
00000000
00001000
00010000
00000000
00000100
00001000
00000100
00000010
00000001
00000000
00000000
00000000
00000001
00000000
00000100
00000010
,
00000000
00000010
00000100
00000000
00000001
00000010
00000100
00001000
00000010
00000000
00000000
00000000
00010000
00000000
00001000
00010000
,
00000000
00010000
00001000
00000000
01000000
00010000
01000000
00100000
10000000
00000000
00000000
00000000
10010000
00000000
10000000
00000000
,
01000000
00100000
01000000
00000000
10000000
00100000
00010000
00001000
00000100
00000001
00000000
00000000
,
00001000
00000100
00000010
00000011
00000000
00000000
00000101
00000000
00000000
00001010
00000000
00000000
,
00000001
00000100
00001000
00000100
00001000
00010000
00001000
00010000
00100000
10000000
00000000
00000000
,
00010000
01000000
00010000
01000000
00100000
10000000
00100000
10000000
00100000
00000000
00000000
00000000
10100000
00000000
00000000
00000000
,
10000000
00000000
10000000
00000000
00010000
01000000
00001000
01000000
00010000
00000000
00000000
00000000
00100000
00000000
00001000
00010000
,
00000000
00001000
00000010
00000000
00001000
00010000
00000100
00000000
00010000
00000000
00000000
00000000
00000010
00000000
00010000
00001000
,
00000000
00010000
00100000
00000000
00010000
00001000
01000000
00000000
00001000
00000000
00000000
00000000
01000000
00000000
00001000
00010000
,
00000000
00001000
00000100
00000000
00001000
00010000
00000010
00000000
00010000
00000000
00001000
00100000
00001000
00000000
01000000
00010000
,
01000000
00100000
01000000
00000000
01100000
00000000
00000000
00000000
10000000
00000000
01000000
00100000
00010000
00000000
00100000
00001000
,
01000000
00000000
00000000
00001000
00000000
00000000
00100000
00000000
00000000
00000000
00000000
00000000
00011000
00000000
00000000
00000000
00000000
00000000
00000000
00000000
00000000
00000000
00000000
00000000
00010000
00000000
00000000
00000000
00001000
00000000
00000000
00000000
00000010
00000000
00000000
00000000
00000100
00000000
00000000
00000000
00001000
00000000
00000000
00000000
00000010
00000000
00000000
00000000
,
00000100
00000000
00001000
00000000
00010000
00000000
00100000
00000000
01000000
00000000
00010000
00000000
00200000
00000000
00000000
00300000
00000000
00000000
01100000
00000000
00000000
00000000
00000000
00000000
,
00000000
00000000
00000000
00000000
,
00000000
00000000
00000000
00000000
00000000
00000000
00000000
00000000
00000000
00000000
00000000
00000000
10000000
01000000
01000000
10000000
,
01000000
01000000
10000000
00000000
00010000
00100000
00100000
00010000
00100000
00100000
00010000
00000000
00001000
00000100
00000100
00001000
,
00000100
00000100
00001000
00000000
00000001
00000010
00000010
00000001
00000010
00000010
00000001
00000000
00000101
00000000
00000100
00000000
,
00000001
00000101
00000100
00000001
00000101
00000000
00001010
00000010
,
00001000
00001010
00000010
00001000
00001010
00000000
01010000
01000000
,
00010000
01010000
01000000
00010000
01010000
00000000
10100000
00100000
,
10000000
00000000
10100000
00000000
00100000
00000000
10000000
00000000
00200000
00300000
10100000
00000000
10000000
01000000
00100000
00000000
,
00110000
00000000
00010000
00100000
00001000
00000000
00010000
00000100
00001000
00000000
00001100
00000000
00000100
00000010
00000001
00000000
,
00001001
00000000
00001000
00000001
00000100
00000000
00000010
00001000
00000010
00000000
00000100
00000001
00000100
00000001
00001000
00000100
,
00001000
00000100
00010000
00001000
00010000
00001000
00100000
00010000
00100000
01000000
20000000
00000000
00000000
00000000
00000000
00000000
,
00000000
00000000
30000000
00000000
10000000
01000000
00100000
00000000
00010000
01000000
00100000
00000000
10000000
01000000
00100000
00000000
,
00010000
01000000
00100000
00000000
00010000
00001000
00010000
00000000
00001000
00000010
00000100
00000000
00010000
00001000
00010000
00000000
,
00000200
00000000
00000000
00000000
00000000
00000000
00000000
00000000
00000310
00000001
00001000
00000000
00000010
00001000
00000001
00000000
,
00000100
00000010
00010000
00000000
00002000
00000000
00000000
00000000
00000000
00000000
00000000
00000000
00013000
00000100
00001000
00000000
,
00000100
00010000
00001000
00000000
00100000
00010000
01000000
00001000
00100000
00010000
01000000
00001000
00100000
00000000
00010000
00000000
,
10000000
00100000
01000000
00000000
00010000
00100000
00001000
00000000
00010000
00001000
01000000
00000000
00010000
00100000
01000000
00000000
,
10000000
01000000
00100000
00010000
00001000
00000100
00000010
00000001
00001000
00000000
00000100
00000000
00000010
00000000
00000000
00000000
00000001
00000000
00000100
00000000
00000001
00000000
00000100
00000000
00000020
00000000
00000000
00000000
00000000
00000000
00000000
00000000
,
00000000
00000030
00000110
00000000
00000001
00000100
00001000
00000000
,
00010000
00001000
00010000
00001000
00100000
00001000
01000000
00010000
01000000
00100000
00000000
00000000
,
01100000
00000000
00000000
10000000
00000000
00000000
01100000
00000000
00000000
00010000
01000000
10000000
,
00000000
01000000
00010000
20000000
00000000
00000000
00000000
00000000
00000000
30000000
00000000
00000000
,
10010000
00000000
00000000
00000000
10000000
00000000
00000000
00100000
01000000
00000000
00000000
00010000
10000000
00010000
10000000
00000000
,
01000000
00000000
00100000
00000000
00001000
00000000
00000000
00010000
00001000
00000000
00000000
00000010
00000100
00000010
00000100
00000000
,
00001000
00000000
00000001
00000000
00000100
00000000
00000000
00000000
00000001
00000100
00000001
00000100
00000010
00000100
00000010
00000100
,
00001000
00000100
00001000
00000100
00020000
00000000
00000000
00000000
00000000
00000000
00000000
00000000
00030000
00000000
00011000
00000000
,
00001000
00010000
00000000
00010000
00001000
00000000
00100000
00010000
00000000
01000000
00000000
00000000
00010000
00100000
00010000
00000000
,
10000000
01000000
10000000
01000000
00100000
00010000
00100000
00000000
00000000
00000000
01100000
00000000
00000000
10000000
01000000
00000000
,
00010000
00001000
00000010
00000000
00000000
00000001
00000100
00000000
00001000
00010000
00100000
00000000
00000000
10000000
00100000
00000000
,
00010000
00000000
00001000
00000100
00000000
00000001
00001000
00000000
00000100
00000000
00000020
00000000
00000030
00000000
00000001
00001000
,
00000100
00000010
00000001
00000000
00000000
00000000
00001000
00000010
00000100
00000001
00000100
00000001
00001000
00000000
00000100
00010000
,
00001000
00010000
00000100
00000000
00000000
00000000
00010000
00000000
00000000
00001000
01000000
00010000
01000000
00000000
01010000
00000000
,
00000000
00000000
00100000
00000000
00000000
00000000
10100000
00000000
00000000
11000000
00000000
00000000
01100000
00000000
00000000
00101000
,
00000000
00000000
00001000
00000000
00010000
00000000
00002000
00003000
00010000
00000000
00000100
00000000
00000001
00000000
00000100
00000000
,
00010000
00000000
00000020
00000000
00000000
00000000
00000030
00000000
00000110
00000000
00000000
00000000
00000001
00000100
00000010
00001000
,
00000010
00000100
00001000
00000000
00010000
00000000
00000000
00001000
00100000
00001000
00000000
00010000
00100000
00000000
01000000
00000000
,
00010000
10000000
00010000
00000000
10000000
00000000
01000000
00000000
00100000
00000000
00001000
00000000
00022000
00000000
00033000
00000000
,
00001000
01000000
00000000
10000000
01000000
00000000
00001000
01000000
00000000
10000000
01000000
00000000
00001000
00000000
00000000
00000000
,
00010000
00000100
00000000
00000001
00000100
00000000
00010000
00000100
00000000
00000001
00000100
00000000
00010000
00000000
00000000
00000000
,
00001000
00000000
00100000
00000000
10000000
00000000
00100000
00000000
00001000
00000000
00010000
00000000
00000010
00000000
00000000
00000001
00000000
00000000
00000010
00000000
00000000
00010000
00000000
00000000
,
00000000
00000000
00011000
00000000
,
00000000
00000000
00000000
00000000
;
#NOTES:
     dance-double:
     :
     Challenge:
     18:
     :
00000000
00000000
00000000
00000000
,
00000000
00000000
00000000
00000000
,
00000000
00000000
00000000
00000000
,
00000000
00000000
00000000
00000000
,
00000000
00000000
00000000
00000000
,
00000000
00000000
00000000
00000000
,
00000001
00000000
00000100
00000010
00000100
00000000
00001000
00010000
00001000
00000000
00010000
00000000
00011000
00000000
00000000
00000000
,
00001000
00000000
00010000
00100000
00010000
00000000
00100000
01000000
00100000
00000000
10000000
00000000
10010000
00000000
00000000
00000000
,
10000000
01000000
00100000
00010000
01000000
00010000
00100000
00001000
00010000
00000100
00010000
00001000
00000010
00000100
00001000
00000001
,
00000020
00000000
00000100
00000100
00000130
00000000
00000000
00000000
00001001
00000000
00000000
00000000
00000000
00000000
00000000
00000000
00000001
00000000
00000000
00000000
00000100
00000000
00000000
00000000
00001000
00000000
00000000
00000000
00010000
00000000
00000000
00000000
,
00100000
00000000
00010000
00000000
00002000
00000000
00000000
00000000
00003010
00000000
00001000
00010000
00000000
00010000
01000000
00000000
,
10000000
00010000
00100000
01000000
10000000
00000000
00000000
00000000
10000000
01000000
00010000
00000000
00001000
00000010
00000001
00000000
,
00000100
00000000
00000100
00000000
00000110
00000000
00000001
00000100
00000010
00000000
00001000
00000100
00000010
00000001
00000100
00000000
,
00001000
00000000
00001000
00000000
00020000
00000000
00000000
00000000
00031000
00000000
00001000
00000000
00010000
00100000
01000000
00010000
,
00100000
00000000
01000000
10000000
00100000
00000000
00000000
00100000
10000000
00000000
01000000
00100000
00001000
00010000
00001000
00000000
,
00010000
00001000
00000010
00000000
00000002
00000000
00000000
00000000
00000103
00000000
00001000
00010000
00000100
00010000
00001000
00000000
,
00010000
00000010
00000100
00001000
00010000
00000000
00100000
01000000
00000000
00010000
10000000
00000000
00020000
00000000
00000000
00000000
,
00130000
00001000
00010000
00001000
00000020
00000000
00000031
00000000
00000001
00000000
00000010
00000100
00000010
00000100
00000010
00000000
,
00001000
00000000
00020000
00000000
00000000
00000000
00031000
00000000
00010000
01000000
00000000
00100000
01000000
10000000
01000000
00000000
,
00000000
00000000
00000000
10100000
00000000
00000000
00000000
00000000
00000000
10000000
00000000
00000000
00100000
00000000
00000000
00010000
00000000
00001000
00000000
00010000
00000000
00001000
00000000
00000000
,
00000000
00000000
00000110
00000000
00000000
00000000
00000001
00000000
00000001
00000000
00000100
00001000
00010000
00100000
10000000
00000000
,
00000000
00000000
00010000
00000000
00110000
00000000
10000000
01000000
00000000
00000000
00100000
00000000
00101000
00000000
00000100
00010000
,
00000000
00000000
00000010
00000000
00001010
00000000
00000001
00000100
00000000
00000000
00000010
00000000
00000110
00000000
00010000
00001000
,
00000000
00000000
00010000
00001000
01000000
00010000
00100000
01000000
00010000
01000000
00100000
00001000
00010000
00000010
00000100
00001000
,
00000100
00000000
00000000
00000010
00000000
00000000
00001000
00000000
00000001
00000000
00000100
00000000
00000010
00000000
00001000
00000000
00010000
00000000
01000000
00000000
00100000
00000000
10000000
00000000
00010000
00000000
00000000
00000000
00000000
00000000
00000000
00000000
00000000
00000000
00000000
00000000
00110000
00000000
00000000
00000000
00000000
00000000
00000000
00000000
00000000
10100000
00000000
00000000
,
00000000
00000000
11000000
00000000
01000000
00010000
00000000
00001000
00000010
00000000
00000000
00000000
00001010
00000000
00000000
00000011
,
00000000
00000000
00000101
00000000
00000100
00001000
00000000
00010000
00100000
00000000
00000000
00000000
10100000
00000000
00000000
01010000
,
00000000
00000000
00110000
00000000
10000000
01000000
00100000
00001000
00010000
00000000
00000000
00000000
00000011
00000000
00000000
00001100
,
00000000
00000000
00001010
00000000
00000001
00000100
00000010
00010000
00001000
00000000
00000000
00000000
01100000
00000000
00010000
00000000
,
10000000
00100000
00010000
00100000
10000000
01000000
00100000
00001000
00010000
00001000
00000000
00000000
,
00010000
00000100
00000010
00000001
00000000
00000000
00001000
00000000
00000000
00000110
00000000
00000000
,
00000001
00000010
00001000
00000010
00000001
00000100
00000010
00010000
00001000
00010000
00000000
00000000
,
00001000
01000000
00001000
01000000
00010000
00100000
00010000
00100000
00010000
00000000
00000000
00000000
10010000
00000000
00000000
00000000
,
10000000
00000000
10000000
00000000
00010000
01000000
00100000
10000000
00010000
00000000
00000000
00000000
10000000
00000000
01000000
00010000
,
00000000
00010000
00001000
00000000
00100000
00001000
00000000
00001000
00010000
00000000
00000000
00000000
00000010
00000000
00001000
00000100
,
00000000
00000100
00000010
00000000
00000001
00000100
00000000
00000100
00000010
00000000
00000000
00000000
00001000
00000000
00000100
00010000
,
00000000
00010000
00001000
00000000
01000000
00010000
00000000
00010000
00100000
00000000
01000000
10000000
00100000
00000000
01000000
00010000
,
00100000
00001000
00010000
00000000
00011000
00000000
00000000
00000000
00011000
00000000
00001000
00010000
00000100
00000000
00001000
00000010
,
00000100
00000000
00000000
00000001
00000000
00000000
00000010
00000000
00000000
00000000
00000000
00000000
00000110
00000000
00000000
00000000
00000000
00000000
00000000
00000000
00000000
00000000
00000000
00000000
00000001
00000000
00000000
00000000
00000100
00000000
00000000
00000000
00000100
00000000
00000000
00000000
00001000
00000000
00000000
00000000
00001000
00000000
00000000
00000000
00010000
00000000
00000000
00000000
,
00010000
00000000
00100000
00000000
00100000
00000000
10000000
00000000
01000000
00000000
00100000
00000000
00020000
00000000
00000000
00030000
00000000
00000000
20020000
00000000
00000000
00000000
00000000
00000000
,
00000000
00000000
00000000
00000000
,
00000000
00000000
00000000
00000000
00000000
00000000
00000000
00000000
30030000
00000000
00000000
00000000
10010000
10000000
01000000
00100000
,
01000000
00000000
10000000
00000000
00100000
00000000
01000000
00010000
01000000
00000000
00010000
00000000
00100000
00000000
00001000
00000000
00010000
00000000
00001000
00000000
00100000
00000000
00001000
00010000
00000100
00000000
00001000
00000000
00000010
00000000
00001000
00000000
,
00000100
00000000
00000010
00000000
00000001
00000000
00000100
00000010
00000100
00000000
00000001
00000000
00000010
00000000
00000100
00000000
00010000
00000000
00001000
00000000
00100000
00000000
00010000
00000000
00110000
00000000
00000000
00000000
10000000
00000000
01000000
00000000
,
10000000
00000000
10100000
00000000
01000000
00000000
00010000
00000000
00110000
00000000
00000000
00000000
00101000
00000000
00001000
00010000
,
00001000
00000000
00010100
00000000
00000100
00000000
00001000
00000000
00001010
00000000
00000000
00000000
00000011
00000000
00000001
00000100
,
00000001
00000000
00001001
00000000
00001000
00000000
00000100
00000000
00010100
00000000
00000000
00000000
00011000
00000000
00001000
01000000
,
00001000
00000000
00110000
00000000
00010000
01000000
00010000
01000000
00200000
00000000
10300000
00000000
01000000
00100000
01000000
00000000
,
00100000
00000000
00001000
00010000
00001000
00000000
00010000
00000010
00010000
00000000
00000100
00000000
00001000
00000010
00001000
00000000
,
00000100
00000000
00000010
00000001
00000010
00000000
00000001
00001000
00000001
00000000
00000100
00000000
00000010
00000000
00000100
00000000
,
00001000
00000000
00000000
00000000
00010000
00000000
00100000
00000000
10000000
00000000
00010000
00000000
01000000
00000000
10000000
00000000
01000000
00000000
00000000
00000000
00020000
00000000
00000000
10000000
00000000
00000000
10000000
00000000
00000000
10000000
00000000
00000000
,
10000000
00000000
00030000
00000000
10000000
01000000
00100000
00000000
00100000
00001000
00010000
00000000
00010000
00000100
00001000
00000000
,
00001000
00000010
00000100
00000000
00000100
00000001
00000010
00000000
00000010
00000100
00001000
00000000
00001000
00000001
00000100
00000001
,
00002000
00000000
00000000
00000000
00000000
00000000
00000000
00000000
00003001
00000100
00000010
00000000
00000010
00010000
00000100
00000000
,
00000100
00001000
00000100
00010000
00002000
00000000
00000000
00000000
00000000
00000000
00000000
00000000
00013000
00001000
01000000
00000000
,
01000000
00010000
00100000
00000000
00100000
01000000
10000000
00010000
01000000
00100000
01000000
10000000
01000000
00100000
10000000
00000000
,
10000000
00010000
01000000
00000000
01000000
00001000
00010000
00000000
00010000
00000100
00001000
00000000
00001000
00000100
00000010
00000000
,
00000001
00000100
00000001
00000100
00000010
00001000
00000010
00000000
00010000
00001000
00010000
00001000
01000000
00010000
01000000
00000000
00010000
00000000
00000000
00000000
00100000
00000000
00000000
00000000
01000000
00000000
00000000
00000000
00000000
00000000
00000000
00000000
10000000
00000000
00000000
00000000
00100000
00000000
00000000
00000000
01000000
00000000
00000000
00000000
00000000
00000000
00000000
00000000
02200000
00000000
00000000
00000000
00000000
00000000
00000000
00000000
03300000
00000000
00000000
00000000
00000000
00000000
00000000
00000000
,
10000000
00100000
01000000
00010000
10000000
00000000
00000000
00000000
00010000
00000000
00000000
00000000
00000000
00000000
00000000
00000000
10000000
00000000
00000000
00000000
00100000
00000000
00000000
00000000
10100000
00000000
00000000
00000000
00000000
00000000
00000000
00000000
,
10000000
01000000
01000000
00100000
00001000
00001000
00010000
00001000
00001000
00000010
00000000
00000000
,
00000110
00000000
00000000
00000000
00000000
00000000
00000001
00000000
00000000
00000100
00000000
00000000
00001001
00000000
00000000
00000000
00000000
00000000
00000001
00000000
00000100
00000000
00000100
00000000
,
00001000
00000000
00010000
00000000
00010000
00000000
00001000
00000000
00000000
00010000
00000000
00000000
00011000
00000000
00000000
00001000
00000000
00000000
00011000
00000000
00000000
00010000
00000000
00000000
,
00011000
00000000
00000000
00000000
00001000
00000000
00000000
00001000
01000000
00000000
00000000
00010000
01000000
00100000
10000000
00000000
,
00010000
00000000
00000000
00000000
10000000
00000000
00000000
10000000
01000000
00000000
00000000
00100000
00001000
00010000
00001000
00000000
,
00010000
00000000
00000000
00000000
00011000
00000000
00000000
00000000
00001000
00010000
00000100
00001000
00000010
00000100
00000001
00000010
,
00000100
00001000
00000010
00010000
00002000
00000000
00000000
00000000
00000000
00000000
00000000
00000000
00003000
00000000
00001000
00000000
,
00100000
00010000
00000000
00010000
01000000
00100000
10000000
00100000
01000000
00010000
00000000
10000000
01000000
00100000
00010000
00100000
,
01000000
00100000
00001000
00010000
00001000
00010000
00000100
00001000
00000100
00000000
00000010
00000000
00000000
00000001
00000010
00000000
,
00001000
00000010
00000001
00000000
00000000
00000100
00001000
00000000
00010000
00100000
00010000
00000000
00000000
00100000
10000000
00010000
,
10000000
00000000
00100000
00000000
10000000
00000000
01000000
00000000
00100000
00000000
00010000
00000000
00100000
00000000
00000000
00000000
00000000
00000000
00000000
00000000
00011000
00000000
00000000
00000000
00001000
00000010
00000001
00000000
00001001
00000000
00000000
00000000
,
00000001
00000000
00000100
00000010
00000000
00000010
00001000
00000100
00001000
00000000
00000010
00000100
00001000
00000000
00010000
00100000
,
01000000
00010000
00100000
00000000
01000000
10000000
00010000
00000000
00000000
10000000
01000000
00100000
00010000
00000000
00110000
00000000
,
00000000
00000000
00011000
00000000
00000000
00000000
00001000
00000010
00000000
00000001
00000100
00000000
00001000
00010000
00000000
00100000
,
10000000
00000000
00010000
00000000
01000000
00000000
01100000
00000000
10000000
01000000
10000000
01000000
00100000
00010000
01000000
00010000
,
00100000
00001000
00010000
00001000
00010000
00000100
00001000
00000010
00001000
00000100
00000010
00000001
00000100
00000010
00001000
00000010
,
00000100
00000000
00000000
00000000
00000001
00000100
00000010
00001000
00000100
00000010
00000100
00010000
00001000
00100000
00001000
00010000
,
00100000
01000000
00010000
01000000
00100000
10000000
01000000
00100000
00010000
00000000
01000000
00000000
01100000
00000000
10010000
00000000
,
10000000
01000000
10000000
00010000
01000000
00010000
10000000
00100000
10000000
00010000
00100000
00010000
10000000
01000000
00010000
00001000
,
00000010
00000001
00000010
00000001
00000100
00000001
00001000
00000010
00001000
00000100
00001000
00000100
00000010
00000001
00000100
00000000
,
00000001
00000000
00000000
00000000
00000100
00000000
00000000
00000000
00000010
00000000
00000000
00000000
00001000
00000000
00000000
00000000
00010000
00000000
00000000
00000000
01000000
00000000
00000000
00000000
00100000
00000000
00000000
10000000
00000000
00000000
01000000
00000000
00000000
00100000
00000000
00000000
00001000
00000000
00000000
00000000
00000000
00000000
00022000
00000000
00000000
00000000
00000000
00000000
,
00000000
00000000
00000000
00033000
00011000
00000000
00000000
00000000
;
