
//----- song ID: lats -----//
#TITLE:Look at the Sky;
#ARTIST:Porter Robinson;
#BANNER:Look at the Sky.png;
#BACKGROUND:Look at the Sky-bg.png;
#CDTITLE:./CDTitles/DDR A3.png;
#MUSIC:Look at the Sky.ogg;
#SAMPLESTART:94.876;
#SAMPLELENGTH:15;
#BPMS:0=115;
#NOTES:
     dance-single:
     :
     Beginner:
     1:
     :
0000
0000
0000
0000
,
0000
0000
0000
0000
,
0000
0000
0000
0000
,
0000
0000
0000
0000
,
0000
0000
0000
0000
,
0001
0000
0000
0000
,
0000
0000
0000
0000
,
0010
0000
0000
0000
,
0000
0000
0000
0000
,
0100
0000
0000
0000
,
0000
0000
0000
0000
,
1000
0000
0000
0000
,
0000
0000
0000
0000
,
2000
0000
0000
0000
,
3000
0000
0000
0000
,
0100
0000
0000
0000
,
0000
0000
0000
0000
,
2000
0000
0000
0000
,
3000
0000
0000
0000
,
0010
0000
0000
0000
,
0000
0000
0000
0000
,
0002
0000
0000
0000
,
0003
0000
0000
0000
,
0100
0000
0000
0000
,
0000
0000
0000
0000
,
0002
0000
0000
0000
,
0003
0000
0000
0000
,
0010
0000
0000
0000
,
0000
0000
0000
0000
,
0001
0000
0000
0000
,
0001
0000
0000
0000
,
0100
0000
0000
0000
,
0000
0000
0000
0000
,
1000
0000
0000
0000
,
1000
0000
0000
0000
,
0010
0000
0000
0000
,
0000
0000
0000
0000
,
0000
0000
0000
0000
,
0001
0000
0000
0000
,
0100
0000
0000
0000
,
0010
0000
0000
0000
,
0000
0000
0000
0000
,
1000
0000
0000
0000
,
0010
0000
0000
0000
,
0100
0000
0000
0000
,
0000
0000
0000
0000
,
0001
0000
0000
0000
,
0100
0000
0000
0000
,
0001
0000
0000
0000
,
0010
0000
0000
0000
,
0100
0000
0000
0000
,
0000
0000
0000
0000
,
0100
0000
0000
0000
,
0000
0000
0000
0000
,
1000
0000
0000
0000
,
0010
0000
0000
0000
,
1000
0000
0000
0000
,
0200
0000
0000
0300
,
0000
0000
0000
0000
;
#NOTES:
     dance-single:
     :
     Easy:
     3:
     :
0000
0000
0000
0000
,
0000
0000
0000
0000
,
0000
0000
0000
0000
,
0000
0000
0000
0000
,
0000
0000
0000
0000
,
0001
0000
0100
0000
,
0001
0000
0000
0000
,
1000
0000
0010
0000
,
1000
0000
0000
0000
,
0010
0000
0100
0000
,
0010
0000
0000
0000
,
1000
0000
0001
0000
,
1000
0000
0000
0000
,
0001
0000
0100
0000
,
0010
0000
1000
0000
,
0001
1000
0001
0000
,
1000
0000
0000
0000
,
1000
0000
0100
0000
,
0010
0000
0001
0000
,
1000
0001
1000
0000
,
0001
0000
0000
0000
,
0002
0000
0000
0000
,
0003
0000
0000
0000
,
2000
0000
0000
0000
,
3000
0000
0000
0000
,
0020
0000
0000
0000
,
0030
0000
0000
0000
,
0200
0000
0000
0000
,
0300
0000
0000
0000
,
0001
0000
0010
0000
,
0001
0100
0001
0000
,
1000
0000
0000
0000
,
1001
0000
0110
0000
,
1001
0000
0000
0000
,
1000
0100
1000
0000
,
0001
0000
0000
0000
,
2002
0000
0000
0000
,
3003
0000
0000
0000
,
1000
0000
1000
0000
,
0100
0000
0000
0000
,
1000
0000
1000
0000
,
0001
0000
0000
0000
,
0001
0000
0001
0000
,
0010
0000
0000
0000
,
0001
0000
0001
0000
,
1000
0000
0000
0000
,
0001
0000
0100
0000
,
0010
1000
0001
0000
,
1000
0000
0100
0000
,
0010
0001
1000
0000
,
0020
0000
0000
0000
,
0030
0000
0000
0000
,
0200
0000
0000
0000
,
0300
0000
0000
0000
,
0001
0000
0010
0000
,
0100
0000
1000
0000
,
0100
0000
0010
0000
,
0002
0000
0000
0003
,
0000
0000
0000
0000
;
#NOTES:
     dance-single:
     :
     Medium:
     6:
     :
0000
0000
0000
0000
,
0000
0000
0000
0000
,
0000
0000
0000
0000
,
0000
0000
0000
0000
,
0000
0000
0000
0000
,
0001
0100
0001
1000
,
0001
0100
0010
0000
,
1000
0100
1000
0001
,
1000
0100
0010
0000
,
0001
0001
0100
0000
,
0001
0001
0010
0000
,
0001
1000
0100
0010
,
0100
1000
0001
0000
,
1000
0010
1000
0010
,
0100
0010
1000
0000
,
1001
0000
0110
0000
,
1001
0000
0000
0000
,
0001
0100
0001
0100
,
0010
0100
0001
0000
,
1001
0000
0110
0000
,
1001
0000
0000
0000
,
0001
0001
1000
0000
,
1000
1000
0001
0000
,
0100
0100
0010
0000
,
0010
0010
0100
0000
,
0001
0010
0100
1000
,
0001
1000
0010
0000
,
1000
0100
0010
0001
,
1000
0001
0100
0000
,
0002
0000
0003
0000
,
2000
0000
3000
0000
,
0020
0000
0030
0000
,
0200
0000
0300
0000
,
2002
0000
0000
3003
,
2000
0000
3000
0000
,
0020
0000
0030
0000
,
0200
0000
0000
0000
,
0300
0000
0000
0000
,
0001
0100
0010
0000
,
1001
0000
0000
0000
,
1000
0100
0010
0000
,
1001
0000
0000
0000
,
0001
0010
0100
0000
,
1001
0000
0000
0000
,
1000
0010
0100
0000
,
1001
0000
0000
0000
,
1000
0010
0100
0010
,
1000
0100
0010
0001
,
0100
0010
0100
0010
,
1000
0000
0001
0000
1000
0001
1000
0000
,
0001
0010
0100
0010
,
0001
0100
0010
1000
,
0100
0010
0100
0010
,
0001
0000
1000
0000
0001
1000
0001
0000
,
0100
0100
0010
0000
,
0100
0100
0010
0000
,
1000
0001
1000
0001
,
2002
0000
0000
3003
,
0000
0000
0000
0000
;
#NOTES:
     dance-single:
     :
     Hard:
     10:
     :
0000
0000
0000
0000
,
0000
0000
0000
0000
,
0000
0000
0000
0000
,
0000
0000
0000
0000
,
0000
0000
0000
0000
,
1000
0010
1000
0010
0100
0001
0010
0001
,
1000
0100
0001
0100
0010
0100
1000
0000
,
0001
0010
0001
0010
0100
1000
0010
1000
,
0001
0100
1000
0100
0010
0100
0001
0000
,
2000
0100
0010
3100
,
1000
0100
0010
0001
0101
1000
1010
0000
,
0002
0100
0010
0103
,
0001
0100
0010
1000
1100
0001
0011
0000
,
0001
0100
0001
0100
0010
1000
0010
1000
,
0100
0001
0100
1000
0100
0001
0100
0100
,
1100
1000
0000
0101
0000
0001
0010
0011
,
0000
0010
0001
0100
0010
1000
0100
0100
,
1000
0010
1000
0010
0100
0001
0100
0001
,
0010
1000
0010
0001
0010
1000
0010
0010
,
0011
0001
1000
1010
0000
1000
0100
1100
,
0000
0100
1000
0010
0100
0001
0010
0000
,
0002
0100
1000
0103
,
0010
0001
0100
0001
0010
0001
0100
0000
,
0001
0010
1000
0000
1000
0010
0001
0000
,
2000
0100
0001
3100
,
1000
0100
0010
0001
0100
0010
1000
0000
,
0001
0100
0010
1000
0100
0010
0001
0000
,
1000
0010
0001
0010
0100
0010
1000
0000
,
2002
0000
0000
3003
,
0002
0000
0000
1000
2000
0000
3003
0000
,
2000
3020
0230
0320
,
2030
0000
0000
0001
0002
0000
3003
0000
,
0200
0000
0000
0010
0020
0000
0330
0000
,
2002
0000
0000
3003
,
0002
0023
0230
0320
,
0032
0000
0203
0000
,
0320
0000
0000
0000
,
0030
0000
0000
0000
,
0002
0000
0003
0001
0200
0000
0300
0100
,
0020
0000
0030
0000
1000
0000
0001
2000
,
0000
0000
3000
1000
0200
0000
0300
0220
,
0000
0000
0330
0000
0001
1000
0001
0000
,
0002
0000
0003
0001
2000
0000
3000
1010
,
0000
0010
0100
0001
0100
0000
0000
0100
,
0010
0000
1000
0100
0010
0000
0001
0100
,
0020
0000
0100
0130
,
1000
0010
0100
0010
1000
0100
0010
0001
,
1000
0100
0001
0100
1000
0001
0010
0000
,
0001
0010
0100
0010
0001
0100
0010
1000
,
0001
0100
1000
0100
0001
1000
0010
0000
,
1000
0100
1000
0010
0100
0001
0010
0001
,
0000
1000
0010
0001
0010
1000
0001
0100
,
0001
0010
0001
0100
0010
1000
0100
1000
,
0000
0001
0100
1000
0100
0001
1000
0000
,
1010
1100
1010
1100
,
0001
0100
0001
0100
0001
0010
0001
0000
,
0011
0101
0011
0101
,
2000
0000
0000
3000
,
0000
0000
0000
0000
;
#NOTES:
     dance-double:
     :
     Easy:
     3:
     :
00000000
00000000
00000000
00000000
,
00000000
00000000
00000000
00000000
,
00000000
00000000
00000000
00000000
,
00000000
00000000
00000000
00000000
,
00000000
00000000
00000000
00000000
,
00001000
00000000
00010000
00000000
,
00001000
00000000
00000000
00000000
,
00001000
00000000
01000000
00000000
,
00100000
00000000
00000000
00000000
,
00100000
00000000
01000000
00000000
,
00100000
00000000
00000000
00000000
,
01000000
00000000
00001000
00000000
,
00010000
00000000
00000000
00000000
,
00001000
00000000
00010000
00000000
,
00000100
00000000
00001000
00000000
,
00000010
00000000
00000010
00000000
,
00000110
00000000
00000000
00000000
,
00000001
00000000
00000100
00000000
,
00000010
00000000
00001000
00000000
,
00000100
00000000
00010000
00000000
,
00011000
00000000
00000000
00000000
,
00020000
00000000
00000000
00000000
,
00030000
00000000
00000000
00000000
,
00200000
00000000
00000000
00000000
,
00300000
00000000
00000000
00000000
,
20000000
00000000
00000000
00000000
,
30000000
00000000
00000000
00000000
,
02000000
00000000
00000000
00000000
,
03000000
00000000
00000000
00000000
,
00010000
00000000
00001000
00000000
,
00000020
00000000
00000000
00000030
,
00000001
00000000
00000000
00000000
,
00000001
00000000
00001000
00000000
,
00000110
00000000
00000000
00000000
,
00000001
00000000
00000100
00000000
,
00001000
00000000
00010000
00000000
,
00022000
00000000
00000000
00000000
,
00033000
00000000
00000000
00000000
,
00001000
00000000
01000000
00000000
,
00010000
00000000
00000000
00000000
,
00010000
00000000
01000000
00000000
,
00100000
00000000
00000000
00000000
,
20000000
00000000
00000000
00000000
,
30000000
00000000
00000000
00000000
,
00020000
00000000
00000000
00000000
,
00030000
00000000
00000000
00000000
,
10000000
00000000
01000000
00000000
,
00100000
00010000
00100000
00000000
,
00001000
00000000
00010000
00000000
,
00001000
00010000
00001000
00000000
,
00010000
00000000
00000100
00000000
,
00000110
00000000
00000000
00000000
,
00000001
00000000
00001000
00000000
,
00001001
00000000
00000000
00000000
,
00000001
00000000
00000001
00000000
,
00000100
00000000
00000100
00000000
,
00001000
00000000
00010000
00000000
,
00022000
00000000
00000000
00033000
,
00000000
00000000
00000000
00000000
;
#NOTES:
     dance-double:
     :
     Medium:
     5:
     :
00000000
00000000
00000000
00000000
,
00000000
00000000
00000000
00000000
,
00000000
00000000
00000000
00000000
,
00000000
00000000
00000000
00000000
,
00000000
00000000
00000000
00000000
,
10000000
00100000
10000000
00100000
,
01000000
00010000
01000000
00000000
,
00010000
00100000
00010000
00100000
,
00001000
00010000
00001000
00000000
,
00010000
00000100
00010000
00000100
,
00001000
00000100
00001000
00000000
,
00000001
00000100
00000001
00000100
,
00000010
00001000
00000010
00000000
,
00002000
00000000
00000000
00003000
,
00000002
00000000
00000000
00000003
,
00000001
00000100
00001000
00000000
,
00011000
00000000
00000000
00000000
,
00020000
00000000
00000000
00030000
,
00002000
00000000
00000000
00003000
,
00010000
00100000
10000000
00000000
,
10010000
00000000
00000000
00000000
,
10000000
01000000
00100000
00010000
,
10000000
00000000
00000000
00000000
,
01100000
00000000
00000000
00000000
,
00011000
00000000
00000000
00000000
,
00000001
00000100
00000010
00001000
,
00000001
00000000
00000000
00000000
,
00000110
00000000
00000000
00000000
,
00011000
00000000
00000000
00000000
,
20000000
00000000
30000000
00000000
,
00200000
00000000
00300000
00000000
,
00020000
00000000
00030000
00000000
,
00002000
00000000
00003000
00000000
,
00011000
00000000
00000000
00000000
,
00020000
00000000
00030000
00000000
,
00002000
00000000
00003000
00000000
,
00000020
00000000
00000000
00000000
,
00000030
00000000
00000000
00000000
,
00000001
00000000
00000100
00000000
,
00002002
00000000
00003003
00000000
,
00001000
00000000
00000100
00000000
,
00022000
00000000
00033000
00000000
,
00001000
00000000
01000000
00000000
,
02200000
00000000
03300000
00000000
,
10000000
00000000
00010000
00000000
,
20020000
00000000
30030000
00000000
,
10000000
01000000
00100000
00000000
,
00010000
01000000
00100000
00000000
,
10000000
01000000
00100000
00010000
,
00001000
00000100
00000010
00000000
,
00000001
00000100
00000010
00000000
,
00001000
00000100
00000010
00000000
,
00000001
00000100
00000010
00001000
,
00010000
01000000
00100000
00000000
,
10000000
10000000
01000000
00000000
,
00100000
00100000
00001000
00000000
,
00010000
00010000
00001000
00001000
,
00022000
00000000
00000000
00033000
,
00000000
00000000
00000000
00000000
;
#NOTES:
     dance-double:
     :
     Hard:
     10:
     :
00000000
00000000
00000000
00000000
,
00000000
00000000
00000000
00000000
,
00000000
00000000
00000000
00000000
,
00000000
00000000
00000000
00000000
,
00000000
00000000
00000000
00000000
,
10000000
01000000
00100000
00000000
00010000
01000000
00100000
00000000
,
10000000
01000000
00010000
00001000
00000010
00000001
00001000
00000000
,
00000001
00000100
00000010
00000000
00001000
00000100
00000010
00000000
,
00000001
00000100
00001000
00010000
00100000
10000000
00010000
00000000
,
20000000
32000000
03200000
00320000
,
01030000
00001000
00010000
00100000
00010000
00001000
00100000
00000000
,
02000000
03020000
00032000
00003020
,
00000130
00010000
00001000
00000100
00001000
00010000
00001000
00000000
,
00010000
00000100
00010000
00000100
00001000
00000100
00001000
00000000
,
00000010
00001000
00000010
00001000
00000001
00000100
00000001
00000000
,
00000010
00000001
00000000
00000101
00000000
00000100
00000010
00001000
,
00000000
00000001
00000100
00000010
00000100
00001000
00010000
00000000
,
00001000
01000000
00001000
01000000
00010000
01000000
00010000
00000000
,
00100000
00010000
00100000
00010000
10000000
01000000
10000000
00000000
,
00100000
10000000
01000000
10000000
00000000
01000000
00100000
00010000
,
00000000
10000000
01000000
00100000
01000000
00010000
00001000
00000000
,
00020000
00001000
00000100
00031000
,
00010000
00001000
01000000
00100000
00010000
00001000
00010000
00000000
,
00001000
00010000
00000100
00000000
00000100
00000010
00000001
00000000
,
00002000
00000100
00000001
00003100
,
00000001
00000100
00000010
00001000
00000100
00010000
00001000
00000000
,
00100000
00010000
01000000
00100000
10000000
01000000
00100000
00000000
,
00010000
10000000
01000000
00100000
01000000
00010000
00001000
00000000
,
00022000
00000000
00000000
00033000
,
00020000
00000000
00000000
00030100
00002000
00000000
00003000
00000000
,
00002000
00003002
00000203
00000320
,
00020030
00000000
00000000
00001000
00002000
00000000
00033000
00000000
,
02000000
00000000
00000000
00100000
00200000
00000000
03300000
00000000
,
20020000
00000000
00000000
30030000
,
20000000
32000000
03020000
02030000
,
23000000
00000000
30020000
00000000
,
00230000
00000000
00000000
00000000
,
00300000
00000000
00000000
00000000
,
00002000
00000000
00003000
00001000
00020000
00000000
00030000
00010000
,
00000020
00000000
00000030
00000000
00001000
00000000
00000001
00000020
,
00000000
00000000
00000030
00000010
00000200
00000000
00000300
00000220
,
00000000
00000000
00000330
00000000
00000001
00001000
00000001
00000000
,
00002000
00000000
00003000
00000100
00020000
00000000
00030000
00011000
,
00000000
00001000
00100000
00010000
00100000
00000000
00000000
00010000
,
01000000
00000000
10000000
01000000
00010000
00000000
10000000
01000000
,
00200000
00000000
01000000
01300000
,
10000000
00010000
01000000
00010000
10000000
01000000
00100000
00010000
,
01000000
00100000
00010000
00001000
00010000
00000000
00011000
00000000
,
00001000
00010000
00001000
00000010
00000100
00000010
00000001
00001000
,
00000100
00001000
00000010
00000100
00000001
00000000
00001001
00000000
,
00001000
00000010
00000100
00000010
00001000
00000100
00010000
00001000
,
00000010
00001000
00010000
01000000
10000000
00000000
10010000
00000000
,
00010000
01000000
00100000
10000000
01000000
00100000
01000000
00010000
,
00001000
00000010
00000001
00001000
00000001
00000000
00001001
00000000
,
00000001
00000100
00001000
00000000
00010000
00100000
10000000
00000000
,
00010000
10000000
01000000
00100000
00010000
01000000
00100000
00000000
,
10000000
01000000
00010000
00000000
00001000
00000010
00000001
00000000
,
00002000
00000000
00000000
00003000
,
00000000
00000000
00000000
00000000
;
