
//----- song ID: lien -----//
#VERSION:0.83;
#TITLE:リリーゼと炎龍レーヴァテイン;
#ARTIST:黒猫ダンジョン;
#TITLETRANSLIT:Lilieze to enryuu Laevateinn;
#ARTISTTRANSLIT:Kuro neko dungeon;
#BANNER:Lilieze to enryuu Laevateinn.png;
#BACKGROUND:Lilieze to enryuu Laevateinn-bg.png;
#CDTITLE:./CDTitles/RB colette -Summer-.png;
#MUSIC:Lilieze to enryuu Laevateinn.ogg;
#SAMPLESTART:82.201;
#SAMPLELENGTH:15;
#BPMS:0=200;
#STOPS:116=0.3;

//---------------dance-single - ----------------
#NOTEDATA:;
#STEPSTYPE:dance-single;
#DIFFICULTY:Beginner;
#METER:4;
#NOTES:
0000
0000
0000
0000
,
0000
0000
0000
0000
,
0000
0000
0000
0000
,
0000
0000
0000
0000
,
0000
0000
0000
0000
,
0001
0000
0000
0000
,
0010
0000
0000
0000
,
0100
0000
0000
0000
,
1000
0000
0000
0000
,
1001
0000
0000
0000
,
1000
0000
1000
0000
,
0100
0000
0000
0000
,
1000
0000
1000
0000
,
0010
0000
0000
0000
,
0100
0000
0100
0000
,
0001
0000
0000
0000
,
0010
0000
0010
0000
,
0001
0000
0000
0000
,
0100
0000
0000
0000
,
0010
0000
0010
0000
,
1000
0000
0000
0000
,
1000
0000
0000
0000
,
0100
0000
0000
0000
,
0010
0000
0010
0000
,
0001
0000
0000
0000
,
0001
0000
0000
0001
,
0000
0000
0010
0000
,
0000
0010
0000
0000
,
1000
0000
0000
1000
,
0000
1000
0000
1000
,
0000
0100
0100
1000
,
0000
0010
0000
0000
,
0000
0000
0000
0000
,
0000
0001
0000
0001
,
0000
0100
0100
0001
,
0000
0010
0000
0000
,
0000
0000
0000
0000
,
0000
0001
0000
0100
,
0000
0010
0000
0100
,
0000
1000
0000
0010
,
0000
1000
1000
0100
,
0000
1000
0000
0100
,
0000
0010
0000
0100
,
0000
0001
0000
0010
,
0000
0001
0001
0010
,
0000
0002
0000
0000
,
0000
0003
0000
0000
,
0000
0200
0000
0000
,
0000
0300
0000
0000
,
0000
0020
0000
0000
,
0000
0030
0000
0000
,
0000
2000
0000
0000
,
0000
3000
0000
0000
,
0000
1000
0010
1000
,
0000
1000
1000
0100
,
0000
0010
0000
0000
,
0000
0000
0000
0000
,
0000
0001
0001
0100
,
0000
0001
0010
0001
,
0000
0100
0000
0000
,
0000
0000
0000
0000
,
0000
1001
0000
0000
,
0000
0110
0000
0000
,
0000
1001
0000
0000
,
0000
1000
0000
0100
,
0000
0001
0000
0001
,
0000
0010
0000
1000
,
0000
0000
0000
0000
,
0000
0001
0000
0100
,
0000
0001
0000
0010
,
0000
0100
0000
0000
,
0000
1001
0000
0000
,
0000
1000
0000
0100
,
0000
1000
0000
0010
,
0000
0100
0000
0000
,
0000
1001
0000
0000
,
0000
1000
1000
0100
,
0000
0010
0000
0001
,
0000
0010
0000
0010
,
0000
0001
0000
0000
,
0000
0001
0001
0100
,
0000
0010
0000
1000
,
0000
0010
0000
1000
,
0000
0100
0000
0000
,
0000
1000
0000
0100
,
0000
0001
0000
0000
,
0000
0100
0000
0001
,
0000
0010
0000
0010
,
0000
1000
1000
0000
;

//---------------dance-single - ----------------
#NOTEDATA:;
#STEPSTYPE:dance-single;
#DIFFICULTY:Easy;
#METER:8;
#NOTES:
0000
0000
0000
0000
,
0000
0000
0000
0000
,
0000
0000
0000
0000
,
0000
0000
0000
0000
,
0000
0000
0000
0000
,
0001
0100
0001
0100
,
0010
1000
0010
0100
,
0001
0010
0001
0010
,
0100
1000
0100
0010
,
0001
0000
0110
0000
,
1000
0100
1000
0000
,
0010
0000
1001
0000
,
0001
0100
0001
0000
,
1000
0000
0110
0000
,
0001
0010
0001
0000
,
0100
0000
1001
0000
,
1000
0010
0100
0000
,
0001
0010
0100
1000
,
0010
0100
0001
0000
,
1000
0100
0010
0001
,
0100
0010
1000
0000
,
0001
0010
1000
0010
,
0001
0010
0100
0000
,
1000
0010
0001
0010
,
1000
0010
0100
0000
,
0001
0000
0000
0100
0000
0000
0001
0000
,
0000
1000
0000
0000
0010
0000
0000
1000
,
0000
0000
0100
0000
0000
0010
0000
0000
,
0100
0000
0000
1000
0000
0000
0001
0000
,
0000
0001
0100
0001
,
0100
0010
1000
0010
,
0000
1000
0100
1000
,
0100
0010
0001
0010
,
0000
0001
0010
0001
,
0010
0100
1000
0100
,
0000
1000
0010
1000
,
0010
0100
0001
0100
,
0000
0001
0010
0100
,
0010
0100
1000
0001
,
0000
1000
0100
0001
,
0000
0001
0100
1000
,
0000
1000
0100
0010
,
0100
0010
0001
1000
,
0000
0001
0010
1000
,
0000
1000
0010
0001
,
0000
0000
0001
0000
0000
0001
0000
0000
,
0100
0000
0000
0100
0000
0000
1001
0000
,
0000
0000
1000
0000
0000
1000
0000
0000
,
0100
0000
0000
0100
0000
0000
1001
0000
,
0000
0000
0001
0000
0000
0010
0000
0000
,
0001
0000
0000
1000
0000
0000
0110
0000
,
0000
0000
1000
0000
0000
0010
0000
0000
,
1000
0000
0000
0001
0000
0000
0110
0000
,
0000
1000
0010
1000
,
0010
0100
0001
0010
,
0001
0100
0000
0010
,
0000
0100
0100
0100
,
0000
0001
0010
0001
,
0010
0100
1000
0001
,
0010
0100
0000
0010
,
0000
0100
0100
0100
,
0000
1100
0000
1001
,
0000
0000
0000
0011
,
0000
1001
0000
0000
,
0000
1100
0000
0101
,
0000
1010
0000
0011
,
0000
0100
0000
1001
,
0000
0000
0000
0000
,
0000
0000
1000
0000
0000
0001
0000
0000
,
1000
0010
0100
0001
,
0010
0000
0100
0000
0000
1000
0000
0000
,
0200
0000
0000
0000
,
0300
0000
1000
0000
0000
0001
0000
0000
,
1000
0001
0010
0100
,
1000
0000
0010
0000
0000
0010
0000
0000
,
0100
0000
0100
0000
0000
0110
0000
0000
,
0000
1000
0100
0010
,
0100
1000
0010
0100
,
0001
0000
1000
0000
0000
1000
0000
0000
,
2000
0000
0000
0000
,
3000
0001
0010
0100
,
0010
0001
0100
0010
,
1000
0000
0001
0000
0000
0001
0000
0000
,
0100
0000
0000
0010
0000
0000
1000
0000
,
0000
0000
1000
0000
0000
1000
0000
0000
,
0100
0000
0000
0010
0000
0000
0001
0000
,
0000
2000
0000
3000
,
0020
0000
0030
0200
,
0000
0000
0300
0000
0001
1000
0000
0000
;

//---------------dance-single - ----------------
#NOTEDATA:;
#STEPSTYPE:dance-single;
#DIFFICULTY:Medium;
#METER:13;
#NOTES:
0000
0000
0000
0000
,
0000
0000
0000
0000
,
0000
0000
0000
0000
,
0000
0000
0000
0000
,
0000
0000
0000
0000
,
0001
0100
0010
0000
0100
0001
1000
0001
,
1000
0000
0100
0010
0100
0000
1000
0001
,
0010
0001
0010
0000
0001
1000
0001
0000
,
1000
0010
0100
0001
0100
0000
0010
1000
,
0100
0000
0000
1000
0000
0100
0010
0000
0000
0100
0000
0010
,
0001
0000
0000
1000
0000
0001
0010
0000
0000
0110
0000
0000
,
1001
0000
0000
0001
0000
0100
0010
0000
0000
0100
0000
0010
,
1000
0000
0000
0010
0000
1000
0001
0000
0000
1001
0000
0000
,
0110
0000
0000
1000
0000
0100
0010
0000
0000
0100
0000
1000
,
0010
0000
0000
0100
0000
0001
0010
0000
0000
0011
0000
0000
,
1100
0000
0000
0001
0000
1000
0100
0000
0000
0010
0000
0001
,
0100
0000
0000
0001
0000
0010
0100
0000
0000
1100
0000
0000
,
1000
0100
1000
0100
0010
0001
0100
0001
,
0010
0100
1000
0001
1000
0100
0010
0001
,
0100
0010
0100
0010
1000
0001
0100
0010
,
1000
0010
1000
0001
0100
0001
0100
0000
,
0001
0010
0001
0010
0100
1000
0010
1000
,
0100
0010
0001
1000
0001
0010
0100
1000
,
0010
0100
0010
0100
0001
1000
0010
0100
,
0001
0100
0001
1000
0010
1000
0010
0000
,
1000
0000
0001
0100
0000
0001
0100
0000
,
0010
1000
0000
0010
1000
0000
0100
1000
,
0000
0100
1000
0000
0001
0010
0000
0001
,
0010
0000
0001
0100
0010
1000
0001
1000
,
0000
0000
0001
0000
0100
0000
1000
0100
,
0001
0000
0010
0000
0100
0010
0000
0010
,
0100
0000
1000
0000
0010
0000
0001
0010
,
1000
0000
0100
0000
0010
0100
0000
0100
,
0010
0000
0001
0000
0010
0000
1000
0010
,
0001
0000
0100
0000
0010
0100
0000
0100
,
0010
0000
1000
0000
0100
0000
0001
0100
,
1000
0000
0010
0000
0100
0010
0000
0010
,
0100
0000
0001
0010
0001
0100
0010
0100
,
0010
1000
0100
1000
0010
1000
0100
0010
,
0001
1000
0001
0100
0010
0100
1000
0100
,
0010
0100
0001
1000
0010
0100
0010
1000
,
0001
0000
1000
0100
1000
0010
0100
0010
,
0100
0001
0010
0001
0100
0001
0010
0100
,
1000
0001
1000
0010
0100
0010
0001
0010
,
0100
0010
1000
0001
0100
0010
0100
0001
,
1000
0000
0001
0100
0010
0110
0000
0100
,
0010
1000
0001
1001
0000
0000
1010
0000
,
0101
0000
0001
1000
0100
1100
0000
1000
,
0100
0010
0001
0011
0000
0000
0001
1000
,
0001
0000
1000
0100
0010
0110
0000
0100
,
0010
0001
1000
1001
0000
0000
0011
0000
,
1100
0000
1000
0001
0100
0101
0000
0001
,
0100
0010
1000
1010
0000
0000
1000
0001
,
1000
0000
0001
0000
0100
0000
0010
0100
,
0010
0000
1000
0100
0010
0001
0100
0010
,
1000
0020
1000
0230
,
0001
0000
0310
1000
0010
0100
0001
1000
,
0001
0000
1000
0000
0010
0000
0100
0010
,
0100
0000
0001
0010
0100
1000
0010
0100
,
0001
0200
0001
0320
,
1000
0000
0130
0001
0100
0010
1000
0001
,
1000
0000
0000
0002
0000
0000
0023
0000
0000
0130
1000
0100
,
1000
0000
0000
0001
0100
0001
0100
0000
0000
0010
0000
0100
,
0000
0010
0000
0110
0000
0000
0000
0000
0000
1000
0100
0010
,
0001
1000
0001
1001
,
0000
0100
0010
0110
,
0000
1010
0000
0101
,
0000
0000
0000
0001
0000
0001
1000
0000
1000
0100
0000
0100
,
0010
0000
0001
0000
0100
0010
0000
1000
,
0010
0000
1000
0100
1000
0000
0001
0100
,
0001
0000
1000
0000
0100
0010
0000
0001
,
0020
0000
0100
0000
,
0130
0000
1000
0000
0001
0100
0000
0010
,
0100
0000
0001
0010
0001
0000
1000
0010
,
1000
0000
0001
0010
0100
1100
0000
0000
,
1000
0001
1000
0100
0010
0011
0000
0000
,
1000
0001
1000
0000
0001
0100
0000
0010
,
1000
0000
0100
1000
0010
0000
0100
0001
,
0010
0000
0100
0000
1000
0010
0000
0001
,
0020
0000
0100
0000
,
0130
0000
0001
0000
1000
0100
0000
1000
,
0001
0000
0010
0001
0100
0000
0010
1000
,
0100
0000
1000
0010
0000
0001
0010
0000
,
1000
0100
0000
0001
0100
0000
1000
0001
,
0000
0000
0001
0100
0000
1000
0100
0000
,
0001
0010
0000
1000
0010
0000
0001
1000
,
0000
0000
0001
0100
0001
1000
0100
1000
,
0001
0010
0001
1000
0010
1000
0100
0010
,
0100
1000
0001
1000
0001
1001
0000
0000
;

//---------------dance-single - ----------------
#NOTEDATA:;
#STEPSTYPE:dance-single;
#DIFFICULTY:Hard;
#METER:16;
#NOTES:
0000
0000
0000
0000
,
0000
0000
0000
0000
,
0000
0000
0000
0000
,
0000
0000
0000
0000
,
0000
0000
0000
0000
,
0001
0100
0001
0100
0001
0010
0001
0010
,
0001
0010
0100
1000
0100
1000
0100
1000
,
0010
1000
0010
1000
0010
0100
0001
0100
,
0001
0100
0010
0100
0010
0100
0010
0100
,
0110
0000
0000
1000
0010
0100
0001
0000
0000
1000
0100
0010
,
0001
0000
0000
1000
0010
1000
0001
0010
0100
1000
0100
0010
,
0001
0000
0000
0001
0100
0010
1000
0000
0000
0001
0010
0100
,
1000
0000
0000
0001
0010
0001
1000
0100
0010
0001
0010
0100
,
1000
0000
0000
0001
0100
1000
0100
0000
0000
0001
0100
1000
,
0100
0000
0000
0001
0010
0100
1000
0010
0100
0001
0010
0100
,
1000
0000
0000
1000
0100
0001
0100
0000
0000
1000
0100
0001
,
0100
0000
0000
1000
0100
0010
0001
0100
0010
1000
0100
0010
,
0001
0000
0010
0100
0010
0000
0001
0000
1000
0000
0100
0010
0100
0000
1000
0000
,
0001
0010
0100
0010
0001
1000
0010
0100
,
0001
0000
0100
0010
0100
0000
0001
0000
1000
0000
0010
0100
0010
0000
1000
0000
,
0001
0010
1000
0010
0001
1000
0100
0100
,
1000
0000
0100
0010
0100
0000
1000
0000
0001
0000
0010
0100
0010
0000
0001
0000
,
1000
0100
0010
0100
1000
0001
0100
0010
,
1000
0000
0010
0100
0010
0000
1000
0000
0001
0000
0100
0010
0100
0000
0001
0000
,
1000
0100
0001
0100
1000
0001
0010
0010
,
0001
0100
0001
0100
0001
0100
0010
1000
,
0010
1000
0010
1000
0100
1000
0100
1000
,
0100
1000
0001
0010
0001
0010
0001
0010
,
0001
1000
0001
1000
0100
0010
0100
0010
,
0000
0000
0110
0000
1001
0000
0001
0100
,
1000
0000
1001
0000
0001
0010
1000
0010
,
1000
0000
0110
0000
1001
0000
1000
0100
,
0001
0000
1001
0000
1000
0010
0001
0010
,
0001
0000
0110
0000
1001
0000
0001
0010
,
1000
0000
1001
0000
0001
0100
1000
0100
,
1000
0000
0110
0000
1001
0000
1000
0010
,
0001
0000
1001
0000
1000
0100
0001
0100
,
0001
0000
1000
0100
0010
0100
1000
0010
,
0100
0010
1000
0100
0001
1000
0010
0001
,
1000
0000
0000
0000
0001
0000
0100
0000
0010
0000
1000
0000
0001
1000
0001
0000
,
1000
0100
0010
0001
0100
0001
0010
0100
,
1000
0000
0001
0100
0010
0100
0001
0010
,
0100
0010
0001
0100
1000
0001
0010
1000
,
0001
0000
0000
0000
1000
0000
0100
0000
0010
0000
0001
0000
1000
0001
1000
0000
,
0001
0100
0010
1000
0100
1000
0010
0100
,
0001
0000
0101
0001
1000
1100
0100
1000
,
1010
0010
0100
0110
0010
1000
0001
0100
,
0001
0000
0011
0001
1000
1010
0010
0100
,
0101
0001
1000
1001
0001
0010
0100
1000
,
0001
0000
1010
1000
0001
0011
0010
0001
,
0101
0100
0010
0110
0100
0001
1000
0010
,
1000
0000
1100
1000
0001
0101
0100
0010
,
1010
1000
0001
1001
1000
0100
0010
0001
,
1000
0000
0000
0000
0001
0000
1000
0100
1000
0000
0100
0010
0100
0000
0010
0001
,
0010
0001
1000
0010
0100
0001
0010
0001
,
1000
0000
0100
0000
0010
0001
0010
0001
0010
0000
0100
0000
1000
0001
1000
0001
,
1000
0000
0010
0000
0100
0000
0001
0000
1000
0000
0010
0000
0100
0000
0001
1000
,
0001
0000
0000
0000
1000
0000
0001
0010
0001
0000
0010
0100
0010
0000
0100
1000
,
0100
1000
0001
0100
0010
1000
0100
1000
,
0001
0000
0010
0000
0100
1000
0100
1000
0100
0000
0010
0000
0001
1000
0001
1000
,
0001
0000
0100
0000
0010
0000
1000
0000
0001
0000
0100
0000
0010
1000
0010
0100
,
0001
0000
0000
1000
0010
1000
0010
0100
0010
0200
0000
0000
,
0001
0000
0000
1000
0000
0000
0301
0000
0000
0011
0000
0010
,
0000
0100
0000
1200
0000
0000
0001
0000
0000
1300
0010
0100
,
0010
1000
0010
0200
0000
0000
1000
0000
0000
0301
0010
0100
,
1000
0100
0010
0002
0000
0000
0100
0000
0000
1003
0010
0100
,
0001
0100
0010
2000
0000
0000
0100
0000
0000
3020
0000
0000
,
0000
0000
0000
0000
0000
0000
0030
0000
0000
1000
0100
0010
,
0100
0000
0010
0000
0001
0000
1000
0000
0000
0010
0000
0000
1000
0000
0000
0001
0000
0000
0010
0000
0000
0001
0000
0000
,
0010
0001
0100
0001
0010
0000
0100
1000
,
0010
0000
1000
0100
1000
0001
0100
0001
,
0010
0001
0010
0100
1000
0010
0100
0100
,
0001
1000
0001
1000
0001
0000
0100
0000
0001
0000
1000
0000
0100
0000
1000
0000
,
0100
1000
0010
1000
0100
0000
0010
0001
,
0100
0000
0000
0000
0001
0000
0100
0010
1000
0000
0010
0100
0001
0000
1000
0100
,
0010
0001
0010
0100
0010
0110
0000
0001
,
1000
0000
2010
0010
3010
0012
0010
0010
,
0013
0000
0011
0010
0110
0100
1100
1000
,
1001
0000
0102
0100
0103
2100
0100
0100
,
3100
0000
1100
0100
0110
0010
0011
0001
,
1001
0000
0021
0001
0031
0201
0001
0001
,
0301
0000
1010
1000
1100
0000
1010
1000
,
1100
0000
0001
0001
0000
0100
0100
0000
,
0010
0010
0000
1010
1010
0000
1001
1001
,
0000
0000
1000
1000
0000
0100
0100
0000
,
0010
0010
0000
0011
0011
0000
1001
1001
,
0000
0000
1000
1000
1000
0100
0100
0100
,
0010
0010
0010
0001
0001
0001
0011
0011
,
0011
1100
1100
1100
1001
1001
0000
0000
;

//---------------dance-single - ----------------
#NOTEDATA:;
#STEPSTYPE:dance-single;
#DIFFICULTY:Challenge;
#METER:18;
#BPMS:0=200,36=100,52=200,100=100,101=200;
#NOTES:
0000
0000
0000
0000
,
0000
0000
0000
0000
,
0000
0000
0000
0000
,
0000
0000
0000
0000
,
0000
0000
0000
0000
,
0001
0100
0010
1010
1010
1000
0100
0010
,
0011
0011
0001
1000
0100
1100
1100
1000
,
0001
0100
0101
0101
0001
0100
0010
0110
,
0110
0100
0001
1000
1001
0001
0101
0100
,
0110
0000
0000
1000
0000
0010
0110
0000
0000
0001
0000
0000
1001
0000
0000
0001
0000
0010
0110
0000
0000
1000
0100
0010
,
0011
0000
0000
0001
0000
1000
1010
0000
0000
1000
0000
0000
1001
0000
0001
0100
0000
0000
0001
0010
0100
1000
0010
0100
,
0101
0000
0000
1000
0000
0001
1001
0000
0000
0100
0000
0000
0110
0000
0000
0001
0000
0010
0011
0000
0000
0001
1000
0010
,
1010
0000
0000
1000
0100
0010
0110
0000
0000
0001
0000
0000
0011
0000
0000
1000
0000
0100
1100
0000
0000
1001
0000
0000
,
1000
0100
1000
0100
0010
0001
0010
0001
1000
0010
0100
0001
0100
0010
1000
0000
,
0001
0010
0100
1000
0001
0100
0010
1000
0010
0100
0001
1000
0010
0100
0010
0000
,
1000
0100
1000
0001
0010
0001
1000
0010
0100
0010
1000
0001
0010
0100
1000
0000
,
0001
1000
0100
0010
0001
1000
0100
0010
0001
1000
0010
0100
0001
1000
0010
0000
,
1000
0100
1000
0010
0100
0001
0010
0001
1000
0100
0010
0001
1000
0100
0010
0000
,
0001
0010
0100
1000
0001
0100
0001
0010
0100
1000
0010
0100
0010
1000
0001
0000
,
1000
0010
0100
0001
1000
0100
0010
0001
1000
0010
0100
0010
1000
0100
1000
0000
,
0001
0010
0100
1000
0100
0010
0001
0100
0010
1000
0100
0010
0001
1000
0001
0000
,
1000
0100
1000
0100
0010
0001
0100
0001
,
0100
0010
1000
0010
1000
0010
0100
0001
,
0010
0001
0011
1000
0010
0100
0101
1000
,
0100
1000
1010
0001
1000
0100
1100
0001
,
0000
0000
0001
0010
0100
1000
0001
0010
0100
0000
0000
0000
1000
0000
0000
0000
1010
0000
0000
0000
0010
0000
0000
0000
0100
0000
0000
0000
0101
0000
0000
0000
,
0001
0000
1000
0000
0100
0000
0010
0001
0010
0000
0100
0000
1000
0010
1000
0000
,
0001
1000
0001
0000
0100
0000
0010
0000
1010
0000
1000
0000
0100
0000
0110
0000
,
0010
0000
0001
0000
1000
0000
0010
0100
0010
0000
1000
0000
0001
0010
0100
1000
,
0001
0010
0100
1000
0001
0000
0100
0000
0110
0000
0010
0000
1000
0000
0001
0010
,
0100
0000
1000
0000
0001
0000
0100
0010
0100
0000
0001
0000
1000
0100
0010
0000
,
0001
1000
0001
0000
1000
0000
0100
0000
0110
0000
0010
0000
0001
0000
1000
0010
,
0100
0000
0001
0000
1000
0000
0100
0010
0100
0000
1000
0000
0001
0100
0010
1000
,
0010
0100
0001
0000
0012
0000
1000
0000
0100
0000
0103
0000
2010
0000
0001
0000
,
0100
3100
1200
1300
0021
0031
0102
0103
,
2010
0000
3010
0000
2100
0000
0001
0000
0100
0000
3100
0000
1000
0100
0010
0000
,
0011
1001
0021
0001
0100
0130
1020
1000
,
0100
0031
2100
0001
0010
3010
0102
1000
,
0010
0013
0021
0031
1200
1300
2010
3010
,
0102
0000
0103
0000
0012
0000
1000
0000
0010
0000
0013
0000
0001
0010
0100
0000
,
1100
1001
1200
1000
0010
0310
0201
0001
,
0010
0000
1300
0000
1000
0000
0100
0000
0010
0000
0011
0000
0010
0001
1000
0010
,
1000
0000
0100
0000
0010
0000
0011
0000
0001
0000
0100
0000
0010
1000
0001
0100
,
0010
1000
0001
0100
0010
0000
1000
0000
0100
0000
1100
0000
0100
1000
0001
0010
,
0001
0000
0100
0000
0001
0000
1001
0000
0001
0000
0100
0000
0001
1000
0010
0100
,
0001
0000
1000
0000
0001
0000
0100
0000
0010
0000
1010
0000
0010
1000
0001
0010
,
0001
0000
0100
0000
0010
0000
1010
0000
1000
0000
0001
0000
0010
0001
1000
0100
,
0010
0001
1000
0100
0010
0000
0001
0000
1000
0000
1001
0000
1000
0001
0100
0010
,
1000
0000
0100
0000
1000
0000
1001
0000
1000
0000
0010
0000
1000
0001
0010
0100
,
1000
0000
0001
0000
1000
0000
0100
0010
0001
0000
0010
0001
1000
0000
0001
0010
,
0100
0000
1000
0100
0010
0001
1000
0100
1000
0001
0100
0010
1000
0001
1000
0010
,
0100
0001
1000
0000
0001
0010
0001
0010
0100
1000
0010
0100
0001
1000
0001
1000
,
0100
0010
0001
1000
0010
0100
0001
1000
0100
1000
0001
0100
0010
1000
0100
0010
,
0001
1000
0100
0010
0001
0000
0010
0100
1000
0000
0100
1000
0001
0000
1000
0100
,
0010
0000
0001
0010
0100
1000
0001
0010
0001
1000
0010
0100
0001
1000
0001
0100
,
0010
1000
0001
0000
1000
0100
1000
0100
0010
0001
0100
0010
1000
0001
1000
0001
,
0010
0100
1000
0001
0100
0010
1000
0001
0010
0001
1000
0010
0100
0001
0010
0100
,
1000
0000
0000
0010
0000
0000
0100
0000
0000
0001
0000
0000
1000
0000
0000
0000
0100
0000
0000
0000
1000
0000
0000
0000
0100
0000
0000
0000
0010
0000
0000
0000
0100
0000
0000
0000
0010
0000
0000
0000
0001
0000
0000
0000
0010
0000
0000
0000
,
0001
1000
0001
1000
0010
1000
0010
0100
0010
0110
0000
0101
,
0000
1001
0000
1001
0001
0100
0010
1000
0100
0010
0001
1000
,
0001
0010
0100
1000
0010
0100
0001
0010
0100
1000
0001
1000
,
0001
1000
0001
0010
0001
0100
0001
0010
0100
1000
0010
0100
,
1000
0100
0010
1000
0100
0001
0100
0010
0001
1000
0010
0100
,
0001
1000
0100
0010
1000
0001
0100
0010
0001
0100
0010
1000
,
0100
0000
0010
0000
0001
0000
2000
0000
0000
0000
0000
0000
0000
0000
0000
3002
0000
0000
0000
0000
0000
0000
0000
0000
,
0003
0011
0101
1010
,
1100
0000
0220
0000
0330
0022
0000
0033
,
2001
0010
0001
3200
,
0310
1000
0010
0001
0200
0000
0000
0000
0300
0000
0002
0000
0000
0000
0000
0000
,
0003
0101
0011
1010
,
1100
0000
0000
0000
2000
0000
3010
0100
0010
0000
0002
0000
0013
0100
0010
0000
,
1000
0001
0202
0000
0303
2020
0000
3030
,
1000
0100
0010
0000
0012
0000
1000
0000
0013
0000
2010
0000
0001
0000
0001
0000
,
0100
3100
1100
1000
0011
0001
0101
0100
,
1010
0010
2100
0001
3100
0102
1000
1003
,
0021
0031
0011
0001
1100
1000
1010
0010
,
1000
0010
0100
0001
0200
0000
0010
0000
1300
0000
0120
0000
0001
0000
0100
0000
,
1000
0000
1030
0000
1010
0000
1000
0000
1100
0000
0100
0000
0110
0000
0001
0010
,
0001
0010
0100
1000
0100
0000
1100
0000
0000
0000
0001
0000
0011
0000
0000
0000
,
0101
0000
0101
0000
0000
0000
1010
0000
0110
0000
0100
0010
0100
0000
1001
0000
,
0000
0000
0001
0011
0000
1000
1100
0000
,
1010
0000
1010
0000
0000
0000
0011
0000
0110
0000
0100
0010
0100
0000
1001
0000
,
1000
0001
0010
0100
1000
0000
1100
0000
1100
0000
0001
0000
0011
0000
0011
0000
,
0100
0110
0110
1000
1001
1001
0011
0101
,
0101
1010
1100
1100
0110
0110
0000
0000
;

//---------------dance-double - ----------------
#NOTEDATA:;
#STEPSTYPE:dance-double;
#DIFFICULTY:Easy;
#METER:8;
#NOTES:
00000000
00000000
00000000
00000000
,
00000000
00000000
00000000
00000000
,
00000000
00000000
00000000
00000000
,
00000000
00000000
00000000
00000000
,
00000000
00000000
00000000
00000000
,
00000001
00000100
00000001
00000100
,
00000010
00001000
00000010
00010000
,
00001000
00010000
00001000
00010000
,
00100000
01000000
00100000
10000000
,
00010000
00000000
01100000
00000000
,
10000000
00010000
10000000
00000000
,
01000000
00000000
01100000
00000000
,
00001000
00010000
00001000
00000000
,
00010000
00000000
00001010
00000000
,
00001000
00000010
00001000
00000000
,
00000100
00000000
00001001
00000000
,
00001000
00000001
00000010
00000000
,
00000001
00000100
00000001
00000100
,
00000010
00001000
00000010
00001000
,
00010000
01000000
00010000
01000000
,
00100000
10000000
00100000
00000000
,
10000000
01000000
10000000
01000000
,
00100000
00010000
00100000
00010000
,
00001000
00000100
00001000
00000100
,
00000010
00000001
00000010
00000000
,
00000001
00000000
00000000
00000001
00000000
00000000
00001000
00000000
,
00000000
00001000
00000000
00000000
00000010
00000000
00000000
00000010
,
00000000
00000000
00010000
00000000
00000000
00010000
00000000
00000000
,
00100000
00000000
00000000
00100000
00000000
00000000
00100000
00000000
,
00000000
10000000
00100000
01000000
,
00100000
10000000
00000000
00010000
,
00000000
10000000
01000000
00100000
,
00001000
00010000
00000000
00001000
,
00000000
00010000
00000100
00001000
,
00000010
00000100
00000000
00000001
,
00000000
00001000
00000001
00000010
,
00000100
00001000
00000000
00000001
,
00000000
00000001
00000100
00000010
,
00000100
00001000
00010000
00001000
,
00000000
00100000
00100000
00010000
,
00000000
01000000
01000000
00100000
,
00000000
10000000
00010000
00100000
,
00010000
01000000
00001000
00010000
,
00000000
00000100
00000100
00001000
,
00000000
00000010
00000010
00000100
,
00000000
00000101
00000000
00000011
,
00000000
00001001
00000000
00000000
,
00000000
00001100
00000000
00011000
,
00000000
00110000
00000000
00000000
,
00000000
10100000
00000000
11000000
,
00000000
10010000
00000000
00000000
,
00000000
00110000
00000000
00011000
,
00000000
00001100
00000000
00000000
,
00000000
00000001
00000100
00001000
,
00000000
00001000
00000100
00000001
,
00000000
00000001
00000010
00000100
,
00001000
00000100
00010000
00001000
,
00000000
00010000
00100000
10000000
,
00000000
10000000
00100000
00010000
,
00000000
00001000
00010000
00001000
,
01000000
00010000
00100000
01000000
,
00000000
10000000
01000000
00100000
,
00000000
00000000
00000000
00101000
,
00000000
00011000
00000000
00000000
,
00000000
00001000
00010000
00000100
,
00000000
00001000
00000001
00000010
,
00000000
00000001
00000100
00000020
,
00000000
00000000
00000000
00000030
,
00000000
00000000
00000010
00000000
00000000
00001001
00000000
00000000
,
00000000
00000001
00000010
00000100
,
00001000
00000000
00000100
00000000
00000000
00010000
00000000
00000000
,
00002000
00000000
00000000
00000000
,
00003000
00000000
00010000
00000000
00000000
00011000
00000000
00000000
,
00000000
00001000
00100000
00010000
,
01000000
00000000
00100000
00000000
00000000
01100000
00000000
00000000
,
10000000
00000000
00010000
00000000
00000000
10010000
00000000
00000000
,
00000000
00000000
00100000
00000000
00000000
10010000
00000000
00000000
,
00000000
10000000
00100000
01000000
,
00010000
00000000
01000000
00000000
00000000
00001000
00000000
00000000
,
00020000
00000000
00000000
00000000
,
00030000
00000000
00001000
00000000
00000000
00011000
00000000
00000000
,
00000000
00010000
00000010
00001000
,
00000100
00000000
00000010
00000000
00000000
00000001
00000000
00000000
,
00000100
00000000
00000000
00001000
00000000
00000000
00010000
00000000
,
00000000
00000000
00100000
00000000
00000000
10000000
00000000
00000000
,
01000000
00000000
00000000
00010000
00000000
00000000
00001000
00000000
,
00000000
00000020
00000000
00000030
,
00000002
00000000
00000003
00000200
,
00000000
00000000
00000300
00000000
00000010
00000100
00000000
00000000
;

//---------------dance-double - ----------------
#NOTEDATA:;
#STEPSTYPE:dance-double;
#DIFFICULTY:Medium;
#METER:13;
#NOTES:
00000000
00000000
00000000
00000000
,
00000000
00000000
00000000
00000000
,
00000000
00000000
00000000
00000000
,
00000000
00000000
00000000
00000000
,
00000000
00000000
00000000
00000000
,
00000001
00001000
00000001
00000000
00001000
00000100
00001000
00000100
,
00000010
00000000
00000100
00010000
00001000
00000000
00010000
00001000
,
00100000
00001000
00010000
00000000
00100000
01000000
00100000
00000000
,
10000000
00100000
01000000
00100000
10000000
00000000
01000000
00100000
,
00010000
00000000
00000000
10000000
00000000
01000000
00100000
00000000
00000000
01000000
00000000
00100000
,
00001000
00000000
00000000
00100000
00000000
00001000
00010000
00000000
00000000
00011000
00000000
00000000
,
00001000
00000000
00000000
00010000
00000000
00000100
00001000
00000000
00000000
00000100
00000000
00001000
,
00000010
00000000
00000000
00000100
00000000
00000001
00001000
00000000
00000000
00001001
00000000
00000000
,
00001000
00000000
00000000
00000001
00000000
00000100
00000010
00000000
00000000
00000100
00000000
00000010
,
00010000
00000000
00000000
00000010
00000000
00010000
00001000
00000000
00000000
00011000
00000000
00000000
,
00010000
00000000
00000000
00001000
00000000
01000000
00010000
00000000
00000000
01000000
00000000
00010000
,
00100000
00000000
00000000
01000000
00000000
10000000
00010000
00000000
00000000
10010000
00000000
00000000
,
10000000
01000000
10000000
01000000
00100000
00010000
10000000
00010000
,
00100000
00001000
00010000
00001000
01000000
00001000
00010000
00000000
,
00001000
00010000
00001000
00010000
00000100
00001000
00000010
00001000
,
00000100
00000010
00000001
00001000
00000001
00000100
00000010
00000000
,
00001000
00000010
00001000
00000010
00000100
00000001
00000010
00000100
,
00001000
00000100
00010000
00001000
00100000
00001000
00010000
00000000
,
00001000
01000000
00001000
01000000
00010000
00100000
00010000
01000000
,
00100000
10000000
00010000
00100000
01000000
10000000
00010000
00000000
,
10000000
00000000
01000000
00100000
00000000
01000000
00100000
00000000
,
00001000
00010000
00000000
00001000
00010000
00000000
00000010
00000100
,
00000000
00000010
00000100
00000000
00000001
00000010
00000000
00000001
,
00000010
00000000
00000100
00001000
00000100
00010000
00001000
00010000
,
00000000
00000000
00001000
00000000
00011000
00000000
00010000
00100000
,
10000000
00000000
00010000
00000000
01000000
00100000
00000000
00100000
,
01000000
00000000
00100000
00000000
10010000
00000000
10000000
01000000
,
00010000
00000000
00001000
00000000
00010000
00001000
00000000
00001000
,
00010000
00000000
00001000
00000000
00011000
00000000
00001000
00000010
,
00000001
00000000
00001000
00000000
00000010
00000100
00000000
00000100
,
00000010
00000000
00000100
00000000
00001001
00000000
00000001
00000100
,
00001000
00000000
00010000
00000000
00001000
00010000
00000000
00010000
,
00001000
00000000
00010000
00001000
01000000
00001000
00010000
00100000
,
01000000
00100000
00010000
00100000
01000000
00100000
10000000
00010000
,
10000000
00000000
01000000
10000000
01000000
10000000
00010000
00100000
,
00010000
00100000
01000000
00010000
01000000
00100000
00001000
00010000
,
00001000
00000000
00010000
00000100
00001000
00000100
00001000
00000010
,
00000100
00000010
00001000
00000100
00000010
00000100
00000001
00000100
,
00000010
00000000
00000001
00000010
00000001
00000010
00000001
00000100
,
00000010
00000100
00001000
00010000
00000010
00010000
00001000
00010000
,
00001000
00000000
00010000
00001000
01000000
00010000
00000000
00010000
,
00100000
01000000
10000000
00010000
00000000
00010000
10000000
01000000
,
00100000
00000000
00010000
01000000
00010000
00100000
00000000
00100000
,
00001000
00010000
00001000
00000010
00000000
00000010
00000100
00000010
,
00000001
00000000
00001000
00000100
00000010
00000001
00000000
00000001
,
00000100
00000010
00000100
00001000
00000000
00001000
00010000
00001000
,
00010000
00000000
00001000
01000000
00010000
00100000
00000000
00100000
,
00010000
01000000
00100000
10000000
00000000
10000000
00100000
01000000
,
00010000
00000000
10000000
00000000
01000000
00000000
00100000
00010000
,
00100000
00000000
00001000
00010000
00001000
00010000
00000100
00001000
,
00000100
00002000
00000100
00000001
,
00000010
00023000
01000000
10000000
,
00100000
00000000
00031000
00000000
00000100
00000000
00000010
00000001
,
00000010
00000000
00000001
00000100
00000001
00000100
00000010
00001000
,
00000010
00020000
00001000
01000000
,
00031000
00002000
00010000
00000100
,
00013000
00000000
00000000
00002000
00000000
00000000
00023000
00000000
00000000
00130000
01000000
00100000
,
01000000
00000000
00000000
00010000
10000000
00010000
10000000
00000000
00000000
00010000
00000000
10000000
,
00000000
01000000
00000000
01100000
00000000
00000000
00000000
00000000
00000000
00100000
00001000
00010000
,
00001000
00010000
00000100
00001100
,
00000000
00000010
00000001
00000011
,
00000000
00000110
00000000
00001001
,
00000000
00000000
00000000
00000001
00000000
00000001
00000100
00000000
00000100
00000010
00000000
00000010
,
00001000
00000000
00000100
00000000
00010000
00001000
00000000
00001000
,
00010000
00000000
00100000
01000000
00100000
00000000
10000000
00100000
,
10000000
00000000
00010000
00000000
10000000
01000000
00000000
00100000
,
00010000
00000000
00100000
00001000
00010000
00001000
01000000
00001000
,
00010000
00000000
00000100
00000000
00001000
00000010
00000000
00000010
,
00001000
00000000
00000100
00000010
00000100
00000000
00001000
00000001
,
00001000
00000000
00000001
00000100
00000010
00001000
00000000
00010000
,
01000000
00000000
00010000
00100000
01000000
10000000
00000000
01000000
,
00100000
00000000
00010000
00000000
00100000
00001000
00000000
00001000
,
00100000
00000000
00010000
01000000
00100000
00000000
00010000
00001000
,
00000100
00000000
00000010
00000000
00010000
00000100
00000000
00000100
,
00010000
00000000
00001000
00000010
00000100
00000000
00001000
00000010
,
00000100
00000000
00001000
00000000
00010000
00100000
00000000
00100000
,
00010000
00000000
00001000
00000100
00000001
00000000
00001000
00000100
,
00000001
00000000
00000100
00001000
00000000
00000100
00010000
00000000
,
00001000
00010000
00000000
00001000
00100000
00000000
00010000
01000000
,
00000000
00000000
01000000
00010000
00000000
01000000
00001000
00000000
,
00010000
00001000
00000000
00010000
00000010
00000000
00001000
00000010
,
00000000
00000000
00001000
00000001
00001000
00000100
00010000
00000100
,
00010000
00001000
00010000
00001000
00100000
00001000
00100000
00010000
,
00100000
01000000
10000000
01000000
10000000
10010000
00000000
00000000
;

//---------------dance-double - ----------------
#NOTEDATA:;
#STEPSTYPE:dance-double;
#DIFFICULTY:Hard;
#METER:16;
#NOTES:
00000000
00000000
00000000
00000000
,
00000000
00000000
00000000
00000000
,
00000000
00000000
00000000
00000000
,
00000000
00000000
00000000
00000000
,
00000000
00000000
00000000
00000000
,
00000001
00000010
00000001
00000010
00000001
00000100
00000010
00000100
,
00000010
00000100
00001000
00010000
00001000
00010000
00001000
00100000
,
00010000
00100000
00010000
00100000
00010000
01000000
00010000
01000000
,
00010000
10000000
00100000
10000000
00100000
10000000
00100000
10000000
,
00010000
00000000
00000000
10000000
01000000
00100000
01000000
00000000
00000000
10000000
01000000
00100000
,
01000000
00000000
00000000
10000000
01000000
00100000
00010000
00100000
00010000
00100000
00001000
00100000
,
00001000
00000000
00000000
00010000
00000100
00001000
00000100
00000000
00000000
00010000
00000100
00001000
,
00000100
00000000
00000000
00010000
00000100
00001000
00000010
00001000
00000010
00000100
00000001
00000010
,
00000001
00000000
00000000
00000001
00000100
00000010
00000100
00000000
00000000
00000001
00000100
00000010
,
00000100
00000000
00000000
00000001
00000100
00000010
00001000
00000010
00001000
00000010
00010000
00000010
,
00010000
00000000
00000000
00001000
01000000
00010000
01000000
00000000
00000000
00001000
01000000
00010000
,
01000000
00000000
00000000
00001000
01000000
00010000
00100000
00010000
00100000
01000000
10000000
00100000
,
10000000
00100000
01000000
00100000
10000000
01000000
00100000
00001000
,
00010000
00001000
00010000
00000000
00001000
00010000
00001000
00000000
00010000
00000000
00000010
00000000
00001000
00000000
00000100
00000000
,
00000010
00000001
00000100
00000001
00000010
00000100
00001000
00000010
,
00000100
00000001
00000100
00000000
00000001
00000100
00000001
00000000
00001000
00000000
00000010
00000000
00010000
00000000
00001000
00000000
,
01000000
00010000
00100000
01000000
10000000
00100000
10000000
01000000
,
00100000
00010000
00100000
00000000
00001000
00010000
00001000
00000000
00100000
00000000
00001000
00000000
00010000
00000000
00001000
00000000
,
00000010
00000100
00001000
00000001
00000010
00000100
00001000
00000010
,
00001000
00000100
00001000
00000000
00000100
00010000
00000100
00000000
00010000
00000000
00001000
00000000
00010000
00000000
00100000
00000000
,
01000000
00100000
01000000
00100000
01000000
00100000
10000000
00100000
,
10000000
00100000
01000000
00010000
00100000
00001000
00100000
00001000
,
00010000
00001000
00010000
00000100
00010000
00000100
00001000
00000100
,
00000010
00000001
00000010
00000001
00001000
00000100
00000010
00000001
,
00000000
00000000
00000011
00000000
00001001
00000000
00000001
00000100
,
00001000
00000000
00011000
00000000
00001000
00010000
00000000
00010000
,
00001000
00000000
00011000
00000000
01001000
00000000
00010000
01000000
,
00100000
00000000
10100000
00000000
10000000
01000000
00000000
01000000
,
00100000
00000000
00110000
00000000
10010000
00000000
10000000
01000000
,
00010000
00000000
00011000
00000000
00010000
00001000
00000000
00001000
,
00010000
00000000
00011000
00000000
00010100
00000000
00001000
00000100
,
00000010
00000000
00000011
00000000
00000001
00000100
00000000
00000100
,
00000010
00000000
00001000
00000010
00000100
00001000
00010000
00100000
,
01000000
00001000
00010000
01000000
00010000
00001000
00000010
00000100
,
00001000
00000000
00000010
00000100
00001000
00001000
00010000
00100000
,
01000000
01000000
00010000
00100000
10000000
00100000
00001000
00010000
,
00011000
00000000
00001000
00010000
01000000
00100000
00001000
00010000
,
00000100
00000010
00001000
00000010
00000100
00001000
00000010
00000100
,
00001000
00000000
00010000
00100000
01000000
00010000
01000000
00100000
,
00010000
00001000
00010000
01000000
00010000
00001000
00000010
00000001
,
00001001
00000000
00001010
00000010
00000100
00000101
00000001
00000010
,
00000110
00000100
00010000
00001000
00010000
01000000
10000000
00010000
,
00100000
00000000
00110000
00100000
01000000
11000000
10000000
00100000
,
01100000
01000000
00001000
00010000
00001000
00000100
00000001
00001000
,
00000010
00000000
00001010
00001000
00000100
00000110
00000010
00000001
,
00000101
00000100
00001000
00001000
00010000
00010000
00100000
01000000
,
01100000
00000000
10100000
10000000
01000000
01100000
00100000
00010000
,
01010000
01000000
00001000
00001000
00010000
00010000
00000100
00001000
,
00001010
00000000
00000001
00000100
00000010
00001000
00000100
00000010
,
00001000
00010000
00100000
10000000
00100000
00010000
00001000
00010000
,
01000000
00000000
00000000
00000000
10000000
01000000
10000000
01000000
10000000
00000000
00100000
00000000
01000000
00010000
01000000
00010000
,
01000000
00100000
00010000
00001000
00010000
00000010
00001000
00000100
,
00000110
00000000
00000001
00000100
00000010
00001000
00000100
00000001
,
00000100
00010000
00001000
01000000
00100000
00010000
00001000
00010000
,
00000100
00000000
00000000
00000000
00001000
00000010
00001000
00000010
00001000
00000000
00000100
00000000
00000010
00000001
00000010
00000001
,
00000010
00000100
00001000
00000010
00010000
00001000
00100000
01000000
,
01100000
00000000
00000000
10000000
00100000
10000000
00100000
01000000
00100000
02000000
00000000
00000000
,
00010000
00000000
00000000
10000000
00000000
00000000
03010000
00000000
00000000
00110000
00000000
00100000
,
00000000
00001000
00000000
00012000
00000000
00000000
00000010
00000000
00000000
00013000
00000100
00001000
,
00000100
00000010
00000001
00002000
00000000
00000000
00000100
00000000
00000000
00003010
00000100
00001000
,
00000100
00001000
00010000
00002000
00000000
00000000
01000000
00000000
00000000
00013000
00001000
00010000
,
00100000
01000000
00100000
20000000
00000000
00000000
01000000
00000000
00000000
30200000
00000000
00000000
,
00000000
00000000
00000000
00000000
00000000
00000000
00300000
00000000
00000000
10000000
01000000
00100000
,
00001000
00000000
00010000
00000000
00000100
00000000
00000010
00000000
00000000
00000001
00000000
00000000
00000010
00000000
00000000
00000100
00000000
00000000
00001000
00000000
00000000
00000100
00000000
00000000
,
00001000
00000010
00000200
00000000
00010000
00000000
00001000
00000000
,
00000301
00000000
00000010
00000100
00001000
00000010
00000100
00001000
,
01000000
00010000
00100000
00001000
00010000
01000000
00100000
00010000
,
10000000
00010000
10000000
00000000
01000000
00000000
10000000
00000000
01000000
00000000
00100000
00000000
00010000
00000000
00100000
00000000
,
00010000
01000000
00200000
00000000
00001000
00000000
00010000
00000000
,
10300000
00000000
00000000
00000000
01000000
00000000
00100000
00010000
00100000
00000000
01000000
00000000
00010000
00001000
00010000
00000000
,
00001000
00000010
00000100
00001000
00000001
00000010
00000000
00000001
,
00001000
00000000
00000011
00000001
00001000
00001010
00001000
00000001
,
00000011
00000001
00000101
00000100
00000110
00000010
00010010
00010000
,
00011000
00000000
01001000
01000000
00010000
00110000
00100000
00001000
,
01001000
01000000
01010000
00010000
10010000
10000000
10100000
00100000
,
01100000
00000000
10100000
10000000
00010000
00110000
00010000
10000000
,
10100000
10000000
11000000
01000000
01100000
00100000
00101000
00001000
,
00011000
00000000
00001000
00010000
00000000
00100000
01000000
00000000
,
01000000
00100000
00000000
00010000
00001000
00000000
00000010
00000100
,
00000000
00000000
00000001
00001000
00000000
00000010
00000100
00000000
,
00001000
00010000
00000000
00100000
01000000
00000000
00010000
10000000
,
00000000
00000000
10000000
01000000
00100000
01000000
00100000
00010000
,
00100000
00010000
00001000
00010000
00001000
00000100
00001000
00000100
,
00000010
00000100
00000010
00000001
00000011
00001001
00000000
00000000
;

//---------------dance-double - ----------------
#NOTEDATA:;
#STEPSTYPE:dance-double;
#DIFFICULTY:Challenge;
#METER:18;
#BPMS:0=200,36=100,52=200,100=100,101=200;
#NOTES:
00000000
00000000
00000000
00000000
,
00000000
00000000
00000000
00000000
,
00000000
00000000
00000000
00000000
,
00000000
00000000
00000000
00000000
,
00000000
00000000
00000000
00000000
,
00001000
00010000
00001000
00011000
00011000
00010000
00001000
01000000
,
01010000
01010000
00010000
00100000
01000000
01100000
01100000
00100000
,
00001000
00010000
00011000
00011000
00001000
00010000
00000010
00001010
,
00001000
00001000
00000100
00000010
00000011
00000001
00001001
00001000
,
00001100
00000000
00000000
00000100
00000000
00000010
00000011
00000000
00000000
00000001
00000000
00000000
00001001
00000000
00000000
00001000
00000000
00000100
00010100
00000000
00000000
00010000
00001000
00010000
,
00011000
00000000
00000000
00001000
00000000
00100000
00110000
00000000
00000000
00010000
00000000
00000000
01010000
00000000
01000000
00100000
00000000
00000000
10000000
01000000
00100000
00010000
00100000
01000000
,
11000000
00000000
00000000
10000000
00000000
00010000
01010000
00000000
00000000
01000000
00000000
00000000
01100000
00000000
00000000
00100000
00000000
00010000
00011000
00000000
00000000
00001000
00010000
00000010
,
00001010
00000000
00000000
00001000
00000100
00000010
00000110
00000000
00000000
00000001
00000000
00000000
00001001
00000000
00000000
00001000
00000000
00000100
00010100
00000000
00000000
00011000
00000000
00000000
,
00001000
00010000
00001000
00100000
00010000
00100000
00010000
01000000
00010000
10000000
01000000
10000000
,
00100000
01000000
00100000
01000000
00100000
01000000
00001000
00010000
00001000
00010000
00001000
00010000
,
00000100
00001000
00000100
00001000
00000010
00001000
00000001
00000100
00000001
00000010
00000001
00000010
,
00000100
00010000
00000100
00010000
00000100
00010000
00001000
00010000
00001000
00010000
00001000
00010000
,
00001000
00100000
00010000
00100000
01000000
10000000
00010000
01000000
00100000
00010000
00001000
00010000
,
00000100
00001000
00000100
00010000
00000100
00001000
00000100
00000010
00000001
00001000
00000010
00000100
,
00000001
00000010
00000100
00001000
00000100
00000010
00000001
00000100
00000010
00000100
00000010
00001000
,
00000100
00010000
00001000
00010000
00000100
00010000
00001000
00100000
00001000
00010000
00001000
00100000
,
00001000
00010000
00001000
00010000
00100000
10000000
00010000
10000000
,
00010000
00100000
01000000
00010000
01000000
00010000
00001000
00000010
,
00000001
00000010
00000011
00000001
00001000
00000100
00001100
00001000
,
00000100
00010000
00011000
00001000
00100000
00010000
01010000
01000000
,
00000000
00000000
01000000
00100000
10000000
00010000
01000000
00100000
10000000
00000000
00000000
00000000
01000000
00000000
00000000
00000000
11000000
00000000
00000000
00000000
10000000
00000000
00000000
00000000
00010000
00000000
00000000
00000000
00110000
00000000
00000000
00000000
,
00100000
00000000
00001000
00000000
00010000
00000000
00000100
00001000
00000100
00000000
00001000
00000000
00000010
00000100
00000010
00000000
,
00001000
00000001
00001000
00000000
00000001
00000000
00000010
00000000
00000110
00000000
00000100
00000000
00001000
00000000
00001100
00000000
,
00000100
00000000
00010000
00000000
00001000
00000000
01000000
00010000
01000000
00000000
00010000
00000000
00100000
01000000
10000000
00010000
,
10000000
01000000
00100000
00010000
10000000
00000000
00100000
00000000
10100000
00000000
10000000
00000000
00010000
00000000
01010000
00000000
,
01000000
00000000
00001000
00000000
00010000
00000000
00000010
00001000
00000010
00000000
00001000
00000000
00000100
00000010
00000100
00000000
,
00001000
00000001
00001000
00000000
00000001
00000000
00000100
00000000
00000110
00000000
00000010
00000000
00001000
00000000
00001010
00000000
,
00000010
00000000
00010000
00000000
00001000
00000000
00100000
00010000
00100000
00000000
00010000
00000000
01000000
00100000
10000000
00010000
,
10000000
00100000
01000000
00010000
20000000
00000000
01000000
00000000
30010000
00000000
01000000
00000000
00020000
00000000
00100000
00000000
,
00230000
00301000
00012000
00013000
00020100
00030100
00001200
00001300
,
00002010
00000000
00003010
00000000
00000010
00000100
00000010
00000000
00010000
00000000
00001000
00000000
00100000
01000000
00100000
00000000
,
00001000
00010000
00020100
00000100
00001000
00031000
01002000
01000000
,
00100000
00103000
00200000
00010000
00301000
00011000
00020000
00001000
,
00030010
00001010
00001200
00001300
00000021
00000031
00000102
00000103
,
00002010
00000000
00003010
00000000
00000010
00000100
00000010
00000000
00010000
00000000
00001000
00000000
01000000
00100000
01000000
00000000
,
00001000
00010000
00102000
00100000
00010000
00013000
00020100
00000100
,
00001000
00000000
00031000
00000000
00011000
00000000
00001000
00100000
00010000
00000000
01000000
00000000
00100000
10000000
00010000
00100000
,
00010000
00000000
10000000
00000000
01000000
00000000
00010000
00000000
00001000
00000000
00000010
00000000
00000001
00000010
00000100
00001000
,
00000100
00000000
00010000
00000000
00011000
00000000
00010000
00000010
00001000
00000000
00000100
00000000
00000010
00000001
00001000
00000010
,
00001000
00000000
00000001
00000000
00000100
00000000
00001000
00000000
00010000
00000000
00100000
00000000
10000000
00100000
01000000
00010000
,
01000000
00000000
00001000
00000000
00011000
00000000
00010000
00000100
00001000
00000000
00000010
00000000
00000100
00000001
00001000
00000001
,
00000100
00000000
00000010
00000000
00001000
00000000
00000100
00000010
00000100
00000000
00001000
00000000
00000010
00001000
00000100
00000000
,
00010000
00001000
00010000
00000000
00011000
00000000
00001000
00100000
00010000
00000000
01000000
00000000
00100000
10000000
00010000
10000000
,
00100000
00000000
01000000
00000000
00010000
00000000
00100000
01000000
00100000
00000000
00010000
00000000
01000000
00010000
00100000
00000000
,
00001000
00010000
00001000
00000000
00010000
00000000
00001000
00010000
00000010
00000000
00001000
00000010
00000100
00000000
00000001
00000010
,
00000100
00000000
00001000
00000000
00000001
00000100
00000010
00000100
00000001
00000100
00000010
00000000
00001000
00000010
00010000
00001000
,
00010000
00001000
01000000
00000000
00010000
00100000
00010000
00100000
01000000
10000000
01000000
10000000
00010000
01000000
00010000
00100000
,
00001000
00010000
00001000
00000000
00010000
00000100
00001000
00000010
00000100
00000001
00000010
00000001
00001000
00000100
00001000
00000100
,
00010000
00001000
00010000
00000000
00001000
00000000
00010000
00001000
00100000
00000000
00010000
00100000
01000000
00000000
10000000
00100000
,
01000000
00000000
00010000
00000000
10000000
01000000
00100000
01000000
10000000
01000000
00100000
00000000
00010000
00100000
00001000
00010000
,
00001000
00010000
00000100
00000000
00001000
00000010
00001000
00000010
00000100
00000001
00000100
00000001
00001000
00000100
00001000
00000010
,
00010000
00001000
00010000
00000000
00001000
01000000
00010000
00100000
01000000
10000000
00100000
10000000
00010000
01000000
00010000
01000000
,
00001000
00000000
00000000
00010000
00000000
00000000
00001000
00000000
00000000
00000000
00000000
00000000
00010000
00000000
00000000
00000000
00000100
00000000
00000000
00000000
00001000
00000000
00000000
00000000
00000010
00000000
00000000
00000000
00000100
00000000
00000000
00000000
00000001
00000000
00000000
00000000
00000010
00000000
00000000
00000000
00000100
00000000
00000000
00000000
00010000
00000000
00000000
00000000
,
00001000
00100000
01000000
10000000
00010000
01000000
00100000
10000000
01000000
01100000
00000000
00110000
,
00000000
00101000
00000000
00011000
00010000
00001000
00000100
00000001
00001000
00000100
00000010
00000100
,
00000010
00000001
00000010
00000001
00000010
00001000
00010000
01000000
10000000
00010000
10000000
00010000
,
01000000
00100000
01000000
00010000
00100000
01000000
00010000
00001000
00000010
00000100
00010000
00001000
,
01000000
00100000
00010000
00001000
00000100
00000010
00000100
00001000
00010000
00100000
10000000
01000000
,
00100000
00001000
00010000
00000100
00000010
00000001
00000100
00000010
00001000
00000100
00010000
00001000
,
00100000
00000000
00010000
00000000
10000000
00000000
00200000
00000000
00000000
00000000
00000000
00000000
00000000
00000000
00000000
02300000
00000000
00000000
00000000
00000000
00000000
00000000
00000000
00000000
,
03000000
01010000
10010000
00110000
,
00101000
00000000
00022000
00000000
00033000
00020200
00000000
00030300
,
00002100
00000000
00000001
00000000
00003010
00000000
00000010
00010000
,
00001000
00010000
00001000
00010000
00002000
00000000
00000000
00000000
00003000
00000000
00020000
00000000
00000000
00000000
00000000
00000000
,
00030000
00000000
00010000
01000000
10000000
00000000
11000000
00000000
,
00110000
00000000
00000000
00000000
10000000
00000000
01000000
00100000
01000000
00000000
00010000
00000000
00001000
00010000
00001000
00000000
,
00000010
00000001
00000022
00000000
00000033
00002200
00000000
00003300
,
00001000
00000100
00000010
00000000
00000012
00000000
00000010
00000000
00001003
00000000
00002001
00000000
00000001
00000000
00003010
00000000
,
00010020
00010030
00011000
00001000
01001000
01000000
01010000
00010000
,
10010000
00000000
20100000
00100000
30010000
10020000
10000000
00130000
,
00201000
00301000
00011000
00010000
00010100
00000100
00001100
00001000
,
00000100
00001000
00000100
00000010
00000002
00000000
00000100
00000000
00001003
00000000
00000200
00000000
00001000
00000000
00010300
00000000
,
00011000
00000000
00001000
00000000
00101000
00000000
00100000
00000000
00110000
00000000
00010000
00000000
10000000
00000000
00100000
10000000
,
00100000
10000000
01000000
10000000
01000000
00000000
11000000
00000000
00000000
00000000
01000000
00000000
01100000
00000000
00000000
00000000
,
00101000
00101000
00000000
00011000
00010100
00000000
00001100
00000110
,
00000000
00000000
00000001
00000101
00000000
00000100
00000110
00000000
,
00010010
00010010
00000000
00011000
01001000
00000000
01010000
01100000
,
00000000
00000000
10000000
00100000
10100000
10000000
01000000
01100000
,
00100000
00001000
00011000
00010000
00010100
00001100
00001000
00001010
,
00000110
00000100
00000101
00001001
00000110
00000110
00000000
00000000
;
