
//----- song ID: lmsy -----//
#TITLE:Let Me Show You;
#ARTIST:Whac-A-Me;
#BANNER:Let Me Show You.png;
#BACKGROUND:Let Me Show You-bg.png;
#CDTITLE:./CDTitles/DDR A3.png;
#MUSIC:Let Me Show You.ogg;
#SAMPLESTART:33.883;
#SAMPLELENGTH:15;
#BPMS:0=170;
#STAGE:14;
#NOTES:
     dance-single:
     :
     Beginner:
     3:
     :
0000
0000
0000
0000
,
0000
0000
0000
0000
,
0000
0000
0000
0000
,
0000
0000
0000
0000
,
0000
0000
0000
0000
,
0000
0000
0000
0000
,
0000
0000
0000
0000
,
0000
0000
0000
0000
,
0000
0000
0000
0000
,
1001
0000
0000
0000
,
0001
0000
0000
0000
,
1000
0000
0000
0000
,
0010
0000
0000
0000
,
0010
0000
0000
0000
,
0100
0000
0000
0000
,
0001
0000
0000
0000
,
1000
0000
0000
0000
,
0001
0000
0000
0000
,
0010
0000
0000
0000
,
0100
0000
0000
0000
,
1000
0000
0000
0000
,
0001
0000
0001
0000
,
0001
0000
0001
0000
,
1000
0000
1000
0000
,
0010
0000
0000
0000
,
1000
1000
1000
0000
,
0001
0001
0001
0000
,
0100
0000
0100
0000
,
0010
0000
0010
0000
,
1000
1000
1000
0000
,
0010
0010
0010
0000
,
1000
0000
1000
0000
,
0001
0000
0000
0000
,
1000
0000
1000
0000
,
0001
0000
0001
0000
,
0100
0000
0100
0000
,
0010
0000
0010
0000
,
1000
0000
0001
0000
,
1000
0000
0001
0000
,
0100
0000
0010
0000
,
0100
0000
0000
0000
,
0001
0000
0000
0000
,
0000
0000
0000
0000
,
1000
0000
0000
0000
,
0000
0000
0000
0000
,
0010
0000
0000
0000
,
0010
0000
0000
0000
,
0100
0000
0000
0000
,
0100
0000
0000
0000
,
0001
0000
1000
0000
,
0010
0000
0100
0000
,
0010
0000
1000
0000
,
0001
0000
0000
0000
,
1000
0000
0100
0000
,
0010
0000
0001
0000
,
1000
0000
0010
0000
,
0100
0000
0000
0000
,
0001
0001
0001
0000
,
1000
0000
0001
0000
,
0100
0100
0100
0000
,
0001
0000
1000
0000
,
0010
0010
0010
0000
,
1000
0000
0001
0000
,
0100
0100
0100
0000
,
0010
0000
0000
0000
,
1000
0000
0000
0000
,
0001
0000
0000
0000
,
0100
0000
0000
0000
,
0010
0000
0000
0000
,
1000
0000
1000
0000
,
0001
0000
0001
0000
,
0100
0000
0100
0000
,
0010
0000
0000
1001
,
0000
0000
0000
0000
;
#NOTES:
     dance-single:
     :
     Easy:
     7:
     :
0000
0000
0000
0000
,
0000
0000
0000
0000
,
0000
0000
0000
0000
,
0000
0000
0000
0000
,
0000
0000
0000
0000
,
0001
0000
0000
0000
,
1000
0000
0000
0000
,
0010
0000
0000
0000
,
0100
0000
0000
0000
,
0002
0000
0000
0003
0000
0000
0000
0000
,
2000
0000
0000
3000
0000
0000
0000
0000
,
0020
0000
0000
0030
0000
0000
0000
0000
,
0200
0000
0000
0300
0000
0000
0000
0000
,
0001
0000
0000
0001
0000
0000
0000
0000
,
0010
0000
0000
0010
0000
0000
0000
0000
,
0100
0000
0000
0100
0000
0000
0000
0000
,
1000
0000
0000
1000
0000
0000
0000
0000
,
0001
0100
0020
0030
,
1000
0001
0200
0300
,
0010
1000
0002
0003
,
0010
0100
2000
3000
,
0001
0001
1000
1000
,
0010
0010
0100
0100
,
0001
0011
1000
1100
,
0020
0000
0030
0000
,
0001
1000
0010
0100
,
0010
1000
0001
0010
,
0100
1000
0001
0100
,
0010
0100
0002
0003
,
1000
0100
0010
0100
,
1000
0010
0100
0010
,
1000
0001
0010
0100
,
1000
0000
0000
0000
,
0010
1001
1000
0100
,
0010
0001
0001
1000
,
0010
0100
0001
0010
,
0001
1000
0020
0030
,
0110
0001
1000
0010
,
0100
0001
0010
0100
,
1000
1010
0001
0101
,
0020
0000
0030
0000
,
2000
0100
0000
3100
,
0002
0010
0000
0013
,
2000
0100
0000
3100
,
0002
0010
0000
0013
,
1000
1000
0001
0001
,
0100
0100
0010
0010
,
1000
0001
0100
0001
,
2002
0000
3003
0000
,
0001
0100
0001
0010
,
0100
1000
0010
1000
,
0001
0010
0001
0100
,
0010
1000
0200
0300
,
0010
0011
1000
0001
,
0100
0110
0001
1000
,
0100
1100
0001
0100
,
0020
0000
0000
0030
,
1000
1000
1000
0000
0001
0000
0100
0000
,
0001
0011
1000
0010
,
0100
0101
1000
0100
,
1000
1010
0001
0100
,
0010
1001
1000
0001
,
0100
0110
0001
1000
,
0001
0101
0100
0010
,
2000
0000
3000
0000
,
0002
0100
0103
0000
,
2000
0010
3010
0000
,
0002
0010
0013
0000
,
2000
0100
3100
0000
,
1001
0100
1001
0100
,
1001
0010
1001
0100
,
1001
0001
0010
0100
,
2000
0000
3000
1002
,
0003
0000
0000
0000
,
0000
0000
0000
0000
;
#NOTES:
     dance-single:
     :
     Medium:
     11:
     :
0000
0000
0000
0000
,
0000
0000
0000
0000
,
0000
0000
0000
0000
,
0000
0000
0000
0000
,
0000
0000
0000
0000
,
0001
0001
0100
0000
0000
0001
0000
0000
,
1000
1000
0010
0000
0000
1000
0000
0000
,
0001
0001
0010
0000
0000
0001
0000
0000
,
1000
1000
0100
0000
0000
1000
0000
0000
,
0001
0000
0000
1000
0000
0001
0100
0001
,
0010
0000
0000
0001
0000
1000
0100
1000
,
0010
0000
0000
1000
0000
0001
0100
0001
,
0010
0000
0000
0001
0000
1000
0100
1000
,
0010
0000
0000
0100
0000
0001
1000
0001
,
0010
0000
0000
0100
0000
1000
0001
1000
,
0010
0000
0000
0100
0000
0001
1000
0001
,
0010
0000
0000
0100
0000
1000
0001
1000
,
0010
0100
0001
0020
,
0130
1000
0001
0200
,
0310
1000
0100
0020
,
0031
1000
0010
0200
,
0301
0011
1000
1100
,
0001
0101
1000
1100
,
0001
0010
0001
0010
0100
1000
0001
0100
,
0020
0000
0030
0000
,
1000
0001
1000
0010
0100
0010
1000
0000
,
0001
0010
0100
1000
0100
0010
0001
0000
,
1000
0010
0100
0010
1000
0001
0010
0000
,
0100
1000
0100
1000
0001
0100
0020
0000
,
1030
0001
1000
0001
0010
0100
1000
0000
,
0001
0100
0001
1000
0100
1000
0001
0000
,
1000
0010
0100
0001
0010
0100
1000
0000
,
0020
0000
0000
0030
,
0100
0000
1001
0000
0001
0010
0100
0000
,
1000
0010
0001
0000
0010
1000
0100
0000
,
0010
0001
0100
0000
1000
0100
0001
0000
,
0010
0100
1000
0000
0001
0100
0020
0000
,
1030
0000
1001
0000
0001
0100
0010
0000
,
1000
0100
0001
0000
0100
1000
0010
0000
,
0100
0001
0010
0001
1000
0010
0100
0001
,
0020
0000
0000
0030
,
0001
0001
1000
1000
,
0010
0010
1000
1000
,
0001
0001
0100
0100
,
0001
0010
0100
1000
,
0001
0100
0001
0100
0001
0100
0001
0010
,
0100
1000
0100
1000
0100
1000
0100
0010
,
0001
1000
0010
1000
0001
0010
0100
1000
,
0020
0000
0030
0000
,
0100
0001
1000
0001
0100
0010
1000
0000
,
0001
0010
0100
1000
0100
0010
0001
0000
,
1000
0010
0100
0010
1000
0001
0010
0000
,
0100
1000
0001
0100
0010
1000
0001
0000
,
0001
0010
0100
1000
0100
1000
0010
0000
,
0100
0001
1000
0100
1000
0001
0100
0000
,
0010
1000
0100
0010
0001
1000
0010
0000
,
0200
0000
0000
0300
,
0001
0001
0001
0000
1000
0100
0010
0000
,
0100
1000
0010
0100
0001
0010
0001
0000
,
1000
0010
0100
0001
1000
0100
0010
0000
,
0001
0100
0010
1000
0010
0100
0001
0000
,
0001
1000
0001
1000
0010
0100
0010
0000
,
1000
0100
0010
0100
0010
0100
1000
0000
,
0010
0100
0010
0100
0001
0010
0100
0000
,
1000
0010
0001
0010
1000
0100
0010
0000
,
0001
0000
0000
0000
1000
0000
0000
0000
0010
0000
0000
0100
0000
0000
0001
0000
,
1000
0000
0000
0000
0100
0000
0000
0000
0010
0000
0000
0001
0000
0000
0100
0000
,
0001
0000
0000
0000
1000
0000
0000
0000
0100
0000
0000
1000
0000
0000
0010
0000
,
0100
0000
0001
0000
2002
0000
0003
3000
,
0001
0000
0000
0100
0000
0000
0001
0000
1000
0000
0000
0100
0000
0000
1000
0000
,
0001
0000
0000
0010
0000
0000
0001
0000
1000
0000
0000
0010
0000
0000
1000
0000
,
0001
0010
0001
0010
0100
1000
0010
0100
,
0002
0000
0003
2001
,
3000
0000
0000
0000
,
0000
0000
0000
0000
;
#NOTES:
     dance-single:
     :
     Hard:
     15:
     :
0000
0000
0000
0000
,
0000
0000
0000
0000
,
0000
0000
0000
0000
,
0000
0000
0000
0000
,
0000
0000
0000
0000
,
0001
0001
0100
0001
0001
0010
0100
0100
,
1000
1000
0100
1000
1000
0010
0100
0100
,
0001
0001
0100
0001
0001
0010
0100
0100
,
1000
1000
0100
1000
1000
0001
0100
0010
,
1010
0000
0000
1001
0000
0001
0010
0100
,
1100
0000
0000
1010
0000
0010
0100
0001
,
0011
0000
0000
1001
0000
1000
0010
0100
,
0110
0000
0000
1010
0000
1000
0001
0010
,
0110
0000
0000
1100
0000
1000
0010
0100
,
0101
0000
0000
0011
0000
0010
0100
1000
,
1010
0000
0000
0110
0000
0100
0001
0010
,
0011
0000
0000
1100
0000
1000
0010
0100
,
0001
0000
1000
0100
1000
0000
0001
0000
0100
0000
0000
0000
0020
0000
0030
0000
,
1000
0000
0100
1000
0100
0000
0010
0000
0001
0000
0000
0000
0200
0000
0300
0000
,
0001
0000
0010
0100
0010
0000
0001
0000
1000
0000
0000
0000
0020
0000
0030
0000
,
0100
0000
0001
1000
0001
0000
0010
0000
0100
0000
0000
0000
2000
0000
3000
0000
,
0001
0100
0001
0010
0100
1000
0010
1000
,
0001
0100
0001
0010
0100
1000
0010
1000
,
0001
0011
1000
1100
0001
0011
1000
1100
,
0002
0000
0003
1001
,
1000
0000
0001
0100
0001
0000
1000
0100
0010
0000
0001
1000
0010
0000
0000
0000
,
0100
0000
0001
1000
0001
0000
1000
0100
0010
0000
0001
1000
0010
0000
0000
0000
,
1000
0000
0001
0010
0001
0000
0010
0100
1000
0000
0001
0100
0010
0000
0000
0000
,
1000
0001
0000
0100
0000
0001
1000
0000
0100
0000
0010
0000
0002
0000
0003
0000
,
1000
0000
0010
0100
0010
0000
0100
0001
1000
0000
0001
0010
0100
0000
0000
0000
,
1000
0000
0100
0010
0100
0000
1000
0001
0100
0000
0010
1000
0001
0000
0000
0000
,
0010
0000
0100
1000
0100
0000
0010
0001
1000
0000
0010
0100
0001
0000
0000
0000
,
1000
1000
0100
1000
1000
0010
0100
0001
,
1000
0000
0000
0000
0100
0000
0000
0000
0010
0000
0000
0000
0001
0000
0000
0000
0000
0000
1000
0000
0000
0010
0000
0000
0100
0000
0000
0000
0000
0000
0001
0000
0000
1000
0000
0000
0100
0000
0000
0000
0000
0000
0010
0000
0000
0001
0000
0000
,
1000
0000
0010
0100
0010
0000
1000
0001
0010
0000
0100
1000
0001
0000
1000
0010
,
0100
0000
0001
1000
0001
0000
0010
0001
0010
0000
0100
1000
0100
0000
1000
0001
,
1000
0000
0010
0100
0010
0000
1000
0100
1000
0000
0001
0010
0002
0000
0000
0000
,
1003
0000
0010
0100
0001
0000
1000
0001
0010
0000
0100
0000
1000
0000
0000
0000
,
0001
0000
0100
0010
1000
0000
0001
1000
0100
0000
0010
0000
0001
0000
0000
0000
,
1000
0000
0100
1000
0010
0000
1000
0000
0001
0000
0100
0001
0010
0000
0001
0000
,
1000
1000
0100
1000
1000
0010
0100
0001
,
2000
3200
2300
3020
,
0230
0302
0023
0032
,
2003
3200
0320
0032
,
0203
0302
0023
0230
,
1300
0010
1000
0010
0100
0001
0100
0001
,
1000
0100
1000
0100
0010
0001
0010
0001
,
1000
0000
0010
0000
0100
0000
0001
0000
1000
0000
0100
0000
0010
0000
0001
1000
,
0001
0000
0000
1001
,
1000
0100
1000
0000
0100
0010
0001
0000
1000
0010
0100
0000
0001
1000
0001
0000
,
1000
0100
0010
0000
0100
1000
0001
0000
0100
0010
0100
0000
0001
1000
0100
0000
,
0010
0001
1000
0000
0010
0100
0010
0000
1000
0001
0010
0000
0100
1000
0001
0000
,
0100
0010
0100
0000
0001
0010
0001
0000
1000
0100
1000
0000
0010
0100
0010
0000
,
1000
0001
0010
0000
0100
1000
0001
0000
0100
0010
0100
0000
0001
0010
0100
0000
,
1000
0100
0010
0000
0001
1000
0001
0000
1000
0010
0100
0000
0001
0100
0010
0000
,
1000
0001
0100
0000
0001
0010
0100
0000
1000
0010
0100
0000
0001
1000
0010
0000
,
0200
0302
0023
0230
2300
3002
0203
0320
,
1030
0001
1001
0000
0001
0010
0100
1000
,
0001
1000
0001
1000
0100
0010
0001
1000
0010
0000
0100
0000
0001
0000
1000
0000
,
0100
1000
0100
1000
0100
0010
0001
1000
0001
0000
0100
0000
0010
0000
1000
0000
,
0001
0010
0100
0010
0001
0100
0010
1000
,
0001
0010
0001
0010
0100
1000
0001
0100
0010
0000
1000
0000
0001
0000
1000
0000
,
0100
0010
0001
0010
0100
1000
0001
1000
0010
0000
0100
0000
0001
0000
1000
0000
,
0001
0100
0001
0100
0001
0010
0100
1000
0001
0000
0100
0000
0010
0000
1000
0000
,
0001
0001
0010
0001
0001
0100
0010
0000
,
1000
0000
0100
0000
0010
0000
0001
0000
0100
0000
0000
0010
0000
0000
0100
0000
,
0001
0000
1000
0000
0100
0000
0010
0000
0001
0000
0000
0100
0000
0000
0010
0000
,
1000
0000
0001
0000
0010
0000
0001
0000
0100
0000
0000
0010
0000
0000
1000
0000
,
0100
0010
0001
1000
2002
0000
3000
0003
,
0100
0000
0000
0001
0000
0000
0011
0000
1000
0000
0000
0100
0000
0000
1100
0000
,
0001
0000
0000
0100
0000
0000
0101
0000
1000
0000
0000
0010
0000
0000
1010
0000
,
1000
0000
0001
0000
0100
0000
0010
0000
1000
0001
0010
0100
1000
0010
0100
0001
,
2000
0000
3000
1002
,
0003
0000
0000
0000
,
0000
0000
0000
0000
;
#NOTES:
     dance-double:
     :
     Easy:
     7:
     :
00000000
00000000
00000000
00000000
,
00000000
00000000
00000000
00000000
,
00000000
00000000
00000000
00000000
,
00000000
00000000
00000000
00000000
,
00000000
00000000
00000000
00000000
,
00001000
00000000
00000000
00000000
,
00010000
00000000
00000000
00000000
,
00000010
00000000
00000000
00000000
,
00001000
00000000
00000000
00000000
,
00000002
00000000
00000000
00000003
00000000
00000000
00000000
00000000
,
00000020
00000000
00000000
00000030
00000000
00000000
00000000
00000000
,
00000200
00000000
00000000
00000300
00000000
00000000
00000000
00000000
,
00020000
00000000
00000000
00030000
00000000
00000000
00000000
00000000
,
00001000
00000000
00000000
00001000
00000000
00000000
00000000
00000000
,
00100000
00000000
00000000
00100000
00000000
00000000
00000000
00000000
,
00010000
00000000
00000000
00010000
00000000
00000000
00000000
00000000
,
10000000
00000000
00000000
10000000
00000000
00000000
00000000
00000000
,
00010000
00100000
02000000
03000000
,
10000000
00010000
00200000
00300000
,
00001000
00010000
00000200
00000300
,
00001000
00000010
00000200
00000300
,
00000001
00000001
00000100
00000100
,
00001000
00001000
00010000
00010000
,
00011000
00000100
00011000
00100000
,
00022000
00000000
00033000
00000000
,
00010000
00001000
00100000
00010000
,
01000000
00100000
10000000
00010000
,
00100000
00010000
01000000
00100000
,
01000000
00001000
00020000
00030000
,
00001000
00010000
00000100
00001000
,
00000010
00000100
00000001
00001000
,
00000100
00001000
00000001
00000100
,
00000020
00000000
00000000
00000030
,
00010000
00011000
00001000
01000000
,
00010000
00100000
00010000
10000000
,
00100000
01000000
00010000
00100000
,
00001000
00001000
00010000
00010000
,
00000010
00001000
00000001
00000010
,
00000010
00000001
00000100
00000010
,
00000010
00001000
00000100
00010000
,
00002000
00000000
00000000
00003000
,
00200000
00010000
00000000
00310000
,
00002000
00010000
00000000
00013000
,
02000000
00010000
00000000
03010000
,
00002000
00010000
00000000
00013000
,
00100000
00110000
10000000
11000000
,
00100000
00001000
00010000
00000100
,
00001000
00001100
00000010
00000011
,
00000200
00000000
00000300
00000000
,
00001001
00000001
00000010
00000100
,
00010000
00001000
01000000
00100000
,
10000000
01000000
00100000
00001000
,
00010000
00000010
00000100
00000001
,
00000001
00000010
00000100
00001000
,
00000010
00010000
00001000
01000000
,
00010000
00100000
01000000
10000000
,
00200000
00000000
00300000
00000000
,
10000000
10000000
10000000
00000000
00010000
00000000
01000000
00000000
,
00100000
10000000
01000000
00010000
,
00001000
00000010
00000100
00010000
,
00001000
00000100
00000001
00000010
,
00000100
00000010
00000001
00000100
,
00001000
00010000
00100000
01000000
,
00001000
00010000
01000000
10000000
,
00200000
00000000
00300000
00000000
,
20000000
01000000
31000000
00000000
,
00020000
00100000
00130000
00000000
,
00002000
00010000
00013000
00000000
,
02000000
00100000
03100000
00000000
,
01010000
00001000
01010000
10000000
,
01010000
00001000
01010000
10000000
,
01000000
00100000
00110000
11000000
,
00200000
00000000
00300000
00012000
,
00003000
00000000
00000000
00000000
,
00000000
00000000
00000000
00000000
;
#NOTES:
     dance-double:
     :
     Medium:
     11:
     :
00000000
00000000
00000000
00000000
,
00000000
00000000
00000000
00000000
,
00000000
00000000
00000000
00000000
,
00000000
00000000
00000000
00000000
,
00000000
00000000
00000000
00000000
,
00001000
00001000
00010000
00000000
00000000
00001000
00000000
00000000
,
00100000
00100000
00010000
00000000
00000000
01000000
00000000
00000000
,
00001000
00001000
00010000
00000000
00000000
00000100
00000000
00000000
,
00001000
00001000
00000010
00000000
00000000
00010000
00000000
00000000
,
00001000
00000000
00000000
00011000
00000000
00000000
00000000
00000000
,
01000000
00000000
00000000
01100000
00000000
00000000
00000000
00000000
,
00100000
00000000
00000000
10000000
00000000
00010000
01000000
00010000
,
00100000
00000000
00000000
00001000
00000000
00010000
00001000
00010000
,
00000100
00000000
00000000
00001000
00000000
00000010
00001000
00000100
,
00001000
00000000
00000000
00000001
00000000
00000100
00000001
00000010
,
00000100
00000000
00000000
00001000
00000000
00000010
00010000
00001000
,
00010000
00000000
00000000
00001000
00000000
01000000
00010000
00100000
,
00010000
00010000
10000000
20000000
,
30100000
00100000
01000000
02000000
,
03010000
00010000
00100000
00200000
,
00301000
00001000
00010000
02000000
,
13000000
01000000
00100000
00000000
00010000
00100000
00001000
00000000
,
00010000
00000100
00001000
00000000
00000100
00000010
00000001
00000000
,
00001000
00000010
00001000
00000010
00000100
00000001
00001000
00000100
,
00000020
00000000
00000030
00001001
,
00000001
00000010
00000001
00000010
00000100
00001000
00000010
00000000
,
00010000
00001000
00010000
00001000
01000000
00010000
00100000
00000000
,
01000000
10000000
01000000
10000000
00010000
01000000
00100000
00000000
,
10000000
10000000
01000000
00100000
00010000
10000000
00100000
00000000
,
01000000
00010000
01000000
00010000
00100000
00001000
00010000
00000000
,
00000010
00001000
00000010
00001000
00000100
00000010
00000001
00000000
,
00001000
00000010
00000100
00000010
00001000
00000001
00000010
00000000
,
00000200
00000000
00000000
00000300
,
00010000
00000000
00011000
00000000
01000000
00010000
00100000
00000000
,
01000000
10000000
00100000
10000000
01000000
00100000
00010000
00000000
,
10000000
01000000
00010000
00001000
00010000
00001000
00000010
00000000
,
00000001
00000100
00000010
00001000
00000100
00000010
00001000
00000000
,
00010000
00001000
01000000
00010000
00100000
01000000
10000000
00000000
,
00010000
01000000
00100000
10000000
01000000
00010000
00001000
00000000
,
00010000
00001000
00000010
00000001
00000100
00000010
00001000
00000001
,
00000020
00000000
00000000
00000030
,
00000001
00000001
00000100
00001000
,
00010000
00010000
00001000
01000000
,
00010000
00010000
10000000
00100000
,
10000000
10000000
01000000
00010000
,
00001000
00010000
00001000
00010000
00001000
00010000
00000010
00000100
,
00001000
00010000
00001000
00010000
00001000
00010000
00000100
00000010
,
00001000
00010000
00001000
00010000
00001000
00010000
00001000
00000000
,
00022000
00000000
00033000
00011000
,
00010000
00001000
01000000
00010000
00100000
01000000
10000000
00000000
,
00100000
01000000
00010000
00100000
00001000
00010000
00000010
00000000
,
00000100
00000001
00000010
00000100
00001000
00000100
00010000
00000000
,
00000010
00000100
00000010
00010000
00001000
00100000
01000000
00000000
,
00100000
00010000
01000000
00100000
10000000
00010000
00100000
00000000
,
00001000
00010000
00000100
00001000
00000010
00010000
00001000
00000000
,
00001000
00100000
00010000
00100000
01000000
10000000
00010000
00000000
,
01000000
00100000
01000000
00001000
00010000
00000100
00000010
00000000
,
00000001
00000001
00000001
00000000
00001000
00000010
00000100
00000000
,
00000001
00000100
00001000
00010000
00001000
00010000
01000000
00000000
,
10000000
00100000
10000000
00100000
00010000
00001000
00010000
00000000
,
00001000
00000010
00000001
00000100
00000010
00001000
00000001
00000000
,
00000010
00000100
00001000
00000001
00000100
00001000
00010000
00001000
,
00010000
01000000
10000000
00100000
10000000
01000000
00100000
00010000
,
10000000
00100000
00010000
00001000
00010000
00001000
00000010
00000001
,
00002000
00000000
00000000
00003000
,
00000001
00000000
00000000
00000000
00000100
00000000
00000000
00000000
00000001
00000000
00000000
00000010
00000000
00000000
00000100
00000000
,
00001000
00000000
00000000
00000000
00000010
00000000
00000000
00000000
00010000
00000000
00000000
00001000
00000000
00000000
01000000
00000000
,
00010000
00000000
00000000
00000000
10000000
00000000
00000000
00000000
01000000
00000000
00000000
00100000
00000000
00000000
00010000
00000000
,
01000000
00000000
00100000
00000000
00010000
00001000
00020000
00030000
,
00001000
00000000
00000000
00000010
00000000
00000000
00000001
00000000
00000001
00000000
00000000
00000100
00000000
00000000
00001000
00000000
,
00010000
00000000
00000000
00100000
00000000
00000000
10000000
00000000
10000000
00000000
00000000
01000000
00000000
00000000
00010000
00000000
,
00001000
00010000
00000010
00001000
00000100
00001000
00000001
00000100
,
00000020
00000000
00000030
00002001
,
00003000
00000000
00000000
00000000
,
00000000
00000000
00000000
00000000
;
#NOTES:
     dance-double:
     :
     Hard:
     15:
     :
00000000
00000000
00000000
00000000
,
00000000
00000000
00000000
00000000
,
00000000
00000000
00000000
00000000
,
00000000
00000000
00000000
00000000
,
00000000
00000000
00000000
00000000
,
00001000
00001000
00010000
00001000
00001000
00100000
00010000
01000000
,
00100000
00100000
10000000
00100000
00100000
01000000
00010000
00100000
,
00001000
00001000
00010000
00001000
00001000
00010000
00000010
00001000
,
00000100
00000100
00000010
00000100
00000100
00001000
00000001
00000100
,
00000110
00000000
00000000
00001010
00000000
00001000
00000100
00010000
,
00011000
00000000
00000000
01001000
00000000
01000000
00010000
00100000
,
00110000
00000000
00000000
10010000
00000000
10000000
01000000
00100000
,
00110000
00000000
00000000
00101000
00000000
00001000
00010000
00001000
,
00000100
00000000
00000000
00000110
00000000
00000100
00000001
00000010
,
00000011
00000000
00000000
00001100
00000000
00010000
00001000
00010000
,
00110000
00000000
00000000
01100000
00000000
01000000
00001000
00010000
,
01000000
00000000
00000000
11000000
00000000
10000000
01000000
00100000
,
00010000
00000000
10000000
00010000
10000000
00000000
00100000
00000000
01000000
00000000
00000000
00000000
00020000
00000000
00000000
00000000
,
00130000
00000000
01000000
10000000
01000000
00000000
00010000
00000000
00001000
00000000
00000000
00000000
00020000
00000000
00000000
00000000
,
00031000
00000000
00000010
00000001
00000010
00000000
00000100
00000000
00001000
00000000
00000000
00000000
00000020
00000000
00000000
00000000
,
00010030
00000000
00001000
00010000
00001000
00000000
00010000
00000000
00100000
00000000
00000000
00000000
02000000
00000000
00000000
00000000
,
03010000
00100000
00010000
00100000
01000000
10000000
01000000
10000000
,
00100000
00010000
00100000
00010000
00001000
00000010
00001000
00000010
,
00000001
00000100
00001000
00010000
00000100
00000010
00001000
00010000
,
00022000
00000000
00033000
00011000
,
00001000
00000000
00010000
00001000
01000000
00000000
00010000
00100000
01000000
00000000
10000000
00000000
00010000
00000000
01000000
00000000
,
00100000
00000000
10000000
00010000
10000000
00000000
01000000
00100000
00010000
00000000
00100000
00000000
00001000
00000000
00010000
00000000
,
00001000
00000000
00000010
00000001
00000010
00000000
00000100
00001000
00000001
00000000
00000100
00000000
00000010
00000000
00001000
00000000
,
00000100
00010000
00000000
00001000
00000000
00010000
00000100
00000000
00001000
00000000
00000010
00000000
00020000
00000000
00030000
00000000
,
01000000
00000000
00100000
00010000
00100000
00000000
01000000
10000000
01000000
00000000
00100000
00000000
00010000
00000000
10000000
00000000
,
00010000
00000000
10000000
00100000
10000000
00000000
00010000
01000000
00010000
00000000
00100000
00000000
01000000
00000000
00010000
00000000
,
00001000
00000000
00010000
00001000
00010000
00000000
00000010
00001000
00000010
00000000
00010000
00000000
00001000
00000000
00000010
00000000
,
00000001
00000001
00000100
00000001
00000001
00000010
00000001
00001000
,
00000001
00000000
00000000
00000000
00000100
00000000
00000000
00000000
00000010
00000000
00000000
00000000
00001000
00000000
00000000
00000000
00000000
00000000
00000001
00000000
00000000
00000010
00000000
00000000
00000001
00000000
00000000
00000000
00000000
00000000
00000010
00000000
00000000
00000100
00000000
00000000
00000010
00000000
00000000
00000000
00000000
00000000
00000100
00000000
00000000
00001000
00000000
00000000
,
00000100
00000000
00010000
00001000
00010000
00000000
00001000
00010000
00001000
00000000
00100000
00010000
00100000
00000000
00001000
00010000
,
00001000
00000000
01000000
00010000
01000000
00000000
00010000
00100000
00010000
00000000
00100000
01000000
00100000
00000000
01000000
10000000
,
01000000
00000000
10000000
00100000
10000000
00000000
00010000
01000000
00010000
00000000
10000000
01000000
00200000
00000000
00300000
00000000
,
00001000
00000000
00010000
00000000
00001000
00000000
00000010
00000001
00000010
00000000
00000100
00000000
00010000
00000000
00000000
00000000
,
00010000
00000000
00001000
00000000
00000100
00000000
00000001
00000010
00000100
00000000
00001000
00000000
00000001
00000000
00000000
00000000
,
00001000
00000100
00001000
00000100
00000010
00000000
00000000
00000000
00000001
00000100
00000001
00000100
00000010
00000000
00000000
00000000
,
00010000
00010000
00001000
00010000
00010000
00000100
00010000
01000000
,
20000000
30200000
02300000
03020000
,
00230000
00302000
00023000
00030020
,
00002030
00003200
00000320
00002030
,
00023000
02030000
03200000
00302000
,
00013000
00001000
00010000
00001000
00000010
00000001
00000010
00000001
,
00000100
00001000
00000100
00001000
00010000
00100000
00010000
00100000
,
10000000
00000000
00010000
00000000
10000000
00000000
00010000
00000000
10000000
01000000
10000000
01000000
00100000
00010000
10000000
00100000
,
02000000
00000000
03000000
10010000
,
10000000
01000000
00100000
00000000
00001000
00000000
00010000
00000000
00001000
00010000
00000100
00000000
00000010
00000000
00000001
00000000
,
00001000
00000010
00000100
00000000
00000001
00000000
00000100
00000000
00001000
00010000
00001000
00000000
00010000
00000000
00100000
00000000
,
10000000
00010000
10000000
00000000
01000000
00000000
00100000
00000000
00010000
00100000
00001000
00000000
00010000
00000000
00001000
00000000
,
00010000
00000100
00001000
00000000
00000100
00000010
00000001
00000000
00001000
00000001
00000100
00000000
00000010
00000000
00000000
00000000
,
00000100
00000001
00001000
00000000
00000001
00000000
00000010
00000000
00000100
00001000
00000001
00000000
00000010
00000000
00001000
00000000
,
00010000
00001000
00010000
00000000
00001000
00000000
01000000
00000000
00100000
10000000
00010000
00000000
10000000
00000000
01000000
00000000
,
00100000
00010000
10000000
00000000
00100000
00000000
00010000
00000000
00001000
00010000
00001000
00000000
00010000
00000000
01000000
00000000
,
10000000
01000000
00010000
00001000
00000100
00000001
00000010
00000100
,
00001000
00000000
00001000
00000000
00001010
00000000
00000000
00000000
00000001
00000100
00000010
00000000
00010000
00000000
00001000
00000000
,
01000000
00010000
00100000
00000000
00001000
00000000
00010000
00000000
00001000
00100000
00010000
00000000
10000000
00000000
00100000
00000000
,
01000000
00010000
10000000
00000000
01000000
00000000
00100000
00000000
00001000
00010000
00001000
00000000
00000010
00000000
00000100
00000000
,
00001000
00000001
00000100
00000000
00000001
00000000
00000001
00000000
00000010
00000000
00001000
00000000
00010000
00000000
01000000
00000000
,
00100000
00010000
00100000
00000000
01000000
00000000
10000000
00000000
00010000
01000000
00100000
00000000
10000000
00000000
01000000
00000000
,
00100000
00010000
00100000
00000000
00001000
00000000
00010000
00000000
00000100
00000010
00000001
00000000
00001000
00000000
00000010
00000000
,
00000100
00000001
00000100
00000000
00000010
00000000
00010000
00000000
00001000
00010000
00100000
00000000
10000000
00000000
00010000
00000000
,
00100000
00100000
00001000
00100000
00100000
00010000
00100000
01000000
,
10000000
00000000
00010000
00000000
01000000
00000000
00100000
00000000
10000000
00000000
00000000
01000000
00000000
00000000
00100000
00000000
,
00001000
00000000
00010000
00000000
00001000
00000000
00000100
00000000
00000001
00000000
00000000
00000010
00000000
00000000
00000100
00000000
,
00010000
00000000
00001000
00000000
00010000
00000000
00100000
00000000
01000000
00000000
00000000
00001000
00000000
00000000
00010000
00000000
,
01000000
00100000
00001000
00010000
00022000
00000000
00030000
00003000
,
00010000
00000000
00000000
00000100
00000000
00000000
00001000
00000000
00000010
00000000
00000000
00010000
00000000
00000000
00001000
00000000
,
01000000
00000000
00000000
00010000
00000000
00000000
00100000
00000000
00001000
00000000
00000000
00010000
00000000
00000000
01000000
00000000
,
10000000
00000000
00100000
00000000
01000000
00000000
00010000
00000000
10000000
01000000
10000000
01000000
00100000
00010000
10000000
00100000
,
02000000
00000000
03000000
10020000
,
00030000
00000000
00000000
00000000
,
00000000
00000000
00000000
00000000
;
