
//----- song ID: lmkn -----//
#TITLE:Let Me Know;
#ARTIST:ZEOL;
#BANNER:Let Me Know.png;
#BACKGROUND:Let Me Know-bg.png;
#CDTITLE:./CDTitles/DDR A3.png;
#MUSIC:Let Me Know.ogg;
#SAMPLESTART:27.2;
#SAMPLELENGTH:15;
#BPMS:0=150,38.5=75,39=150,69=75,70=150,100=75,102=150,158=75,159=150,190=75,191=150,221=75,222=150,250=75,252=150;
#STOPS:38=0.05,38.125=0.05,38.25=0.05,38.375=0.05,150.75=0.4,153.75=0.4,158=0.4;
#STAGE:30;
#NOTES:
     dance-single:
     :
     Beginner:
     4:
     :
0000
0000
0000
0000
,
0000
0000
0000
0000
,
0000
0000
0000
0000
,
0000
0000
0000
0000
,
0000
0000
0000
0000
,
0000
0000
0000
0000
,
0001
0000
0000
0000
,
0001
0000
0000
0000
,
0001
0000
0000
0000
,
0001
0000
0000
0000
,
0000
0100
0000
0100
,
0000
0010
0000
1000
,
0000
0001
0000
0010
,
0000
0100
0000
1000
,
0000
1000
0000
1000
,
0000
1000
0000
1000
,
1000
1000
0000
1000
,
1000
2000
3000
0000
,
0010
0000
0100
0000
,
0100
0000
0001
0001
,
0001
0000
1000
1000
,
1000
0000
0100
0000
,
0100
0000
0010
0000
,
0010
0000
0001
0001
,
0001
0000
0100
0100
,
0010
0000
0000
0000
,
1000
1000
1000
0000
,
0010
0000
0010
0000
,
0100
0100
0100
0000
,
0001
0000
0001
0000
,
1000
1000
1000
0000
,
0001
0000
0001
0000
,
0100
0100
0100
0000
,
0020
0000
0030
0000
,
2000
0000
3000
0000
,
0002
0000
0003
0000
,
0200
0000
0300
0000
,
0001
0001
0001
0000
,
0000
0000
0000
0000
,
0000
0000
1001
0000
,
0000
0000
0001
0000
,
0100
0100
0100
0000
,
0001
0000
1000
0000
,
0010
0010
0010
0000
,
1000
0000
0001
0000
,
0100
0100
0100
0000
,
0001
0000
1000
0000
,
0010
0010
0010
0000
,
0000
0000
0100
0010
,
0000
0010
0000
1001
,
1000
0000
0010
0100
,
0000
0100
0000
0110
,
0010
0000
1000
0001
,
0000
0001
0000
0110
,
0100
0000
0001
1000
,
0000
0001
0000
0000
,
0000
0000
0010
0000
,
0010
0000
0100
0000
,
0100
0000
1000
0000
,
1000
0000
0001
0001
,
0001
0000
1000
1000
,
1000
0000
0010
0010
,
0010
0000
0200
0000
,
0300
0000
0000
0000
,
0000
0000
0000
0000
;
#NOTES:
     dance-single:
     :
     Easy:
     7:
     :
0000
0000
0000
0000
,
0000
0000
0000
0000
,
0000
0000
0000
0000
,
0000
0000
0000
0000
,
0000
0000
0000
0000
,
0000
0000
0000
0000
,
0001
0000
0001
0000
,
0100
0000
0100
0000
,
0010
0000
0010
0000
,
1000
0000
2000
3001
,
0100
0001
0010
0100
,
1000
0001
0100
0100
,
0001
0010
0100
1000
,
0001
0100
0010
0110
,
0001
0001
0000
0110
,
1000
1000
0000
0110
,
0001
0000
0110
0000
1000
0000
0010
0100
,
0100
0002
1003
0000
,
0001
0000
0010
0010
,
0100
1000
0010
1001
,
1000
0000
0100
0000
,
0010
0000
0021
0100
,
0031
0000
1000
1000
,
0010
0100
0002
0003
,
1000
0000
0020
0000
,
0200
0330
0000
0000
,
1100
0010
0011
0000
,
0001
1000
1100
0000
,
0020
0001
0100
0031
,
0011
1000
1010
0000
,
1000
0001
0011
0000
,
1000
0001
0100
0010
,
0200
0000
0300
0000
,
0001
0001
1000
1000
,
0001
0001
0100
0100
,
0010
0010
1000
1000
,
0001
0100
0010
0000
,
1000
0000
1000
0000
2000
3000
0001
0000
,
0001
0000
0002
0003
0200
0000
0000
0000
,
0000
0000
0300
0000
,
0001
1000
0010
0100
,
0010
1000
0001
0010
,
0100
0010
0001
1000
,
0010
0010
0010
0100
,
0001
1000
0100
1000
,
0100
0010
0001
1000
,
0010
0010
0100
0001
,
1000
0100
0020
0030
,
0000
0000
0010
0001
,
1001
0000
1000
0000
0100
0000
0010
0001
,
0001
1000
0010
0100
,
1001
0001
0000
1200
,
0310
0001
0200
0010
,
0010
0000
0001
0000
0301
0000
1000
1000
,
1000
0001
0002
0100
,
0100
1003
0000
0000
,
0010
0000
0010
0000
0100
0100
0100
0000
,
0010
0000
0010
0000
1000
1000
1000
0000
,
0001
0000
0001
0000
0010
0010
0010
0000
,
0001
0001
1000
1100
,
0001
0101
1000
1100
,
0010
0000
0110
0000
0001
0100
0100
0000
,
0010
1000
1000
0000
2002
0000
0000
0000
,
3003
0000
0000
0000
,
0000
0000
0000
0000
;
#NOTES:
     dance-single:
     :
     Medium:
     11:
     :
0000
0000
0000
0000
,
0000
0000
0000
0000
,
0000
0000
0000
0000
,
0000
0000
0000
0000
,
0000
0000
0000
0000
,
0000
0000
0000
0000
,
1000
0001
0100
0000
0100
0000
0000
0000
,
0001
1000
0010
0000
0010
0000
0000
0000
,
0100
0001
1000
0000
1000
0000
0000
0000
,
0001
0100
0010
0000
0020
0000
0130
0000
,
0001
0000
1000
0000
0100
0010
0001
0000
,
1000
0000
0010
0000
1000
0100
0001
0000
,
0100
0000
1000
0000
0001
0100
0010
0000
,
1000
0100
1000
0101
,
0011
0100
1001
1100
,
1010
0000
0100
0000
1001
0000
0001
0010
,
0001
0010
0100
1000
0001
0100
0010
0010
,
1000
1000
0002
0000
0013
0000
1100
0000
,
0000
0001
0100
1000
0000
0100
0001
0010
,
0000
0100
1000
0000
0010
0000
0101
0000
,
1000
0010
0010
0010
0100
0001
0001
0001
,
0010
0001
1010
0101
,
0000
1000
0010
0001
0000
0010
1000
0100
,
0000
0010
0001
0000
0100
0000
1010
0000
,
0001
1000
1000
1000
0020
0000
0000
0000
,
0200
0330
1001
0000
,
1000
0001
0100
0010
0000
1000
0001
0000
,
0011
0000
0100
0000
1000
0010
0010
0010
,
0100
0001
0001
0001
0010
0000
0100
0000
,
1100
0000
0101
0000
0000
1000
0010
0001
,
0000
0010
0100
0001
0000
1000
0100
0000
,
0011
0000
0100
0000
0001
0010
0100
1000
,
0010
0000
0000
0000
,
0001
0010
0001
0000
0010
0100
0010
0000
,
0100
1000
0100
0000
0010
0001
0010
0000
,
0001
1000
0001
0000
0100
0010
0100
0000
,
0001
0010
0100
0000
1000
0010
0100
0000
,
0001
0000
0001
0000
0010
0000
0010
0000
0100
0000
0200
0300
1000
0000
1000
0000
,
0001
0000
0001
0000
0100
0000
0200
0300
0010
0000
1000
0000
0001
0000
0010
0000
,
0100
0000
0000
0000
0000
0000
0000
0000
1000
0000
0000
0000
0000
0000
0000
0000
0010
0000
0000
0000
0000
0000
0000
0000
0200
0000
0000
0000
0000
0000
0000
0000
0000
0300
0000
0000
0000
0000
0000
0000
0000
0000
0000
0000
0000
0000
0000
0000
0000
0000
0000
0000
0000
0000
0000
0000
0000
0000
0000
0000
0000
0000
0000
0000
,
0001
0100
1000
0000
0100
0001
0010
0000
,
0100
1000
0010
0000
0100
0001
1000
0000
,
0001
0010
0100
0000
1000
0010
0001
0000
,
0010
0100
0001
0000
1000
0100
0010
0000
,
0001
0100
0010
0000
0001
0010
1000
0000
,
1100
0001
1010
0001
,
1000
0100
0010
0000
1000
0010
0001
0000
,
1001
0000
0001
0000
0020
0000
0031
0001
,
1100
0000
1000
0001
0100
0000
0010
1000
,
0001
0010
0100
1000
0001
0000
0100
0100
,
0011
0000
1000
0100
0010
0000
0001
1000
,
0010
0100
0010
1000
0001
0000
0010
0010
,
1001
0000
1000
0100
0001
0000
0100
1000
,
0010
0001
0010
1000
0100
0000
0010
0001
,
1100
0000
0001
0100
0010
0000
1000
0100
,
1000
0001
2000
0000
3001
0100
0001
0100
,
0001
0010
0001
0010
0100
1000
0100
1000
,
0010
1000
0010
0010
0100
0001
0010
0001
,
0100
0001
0010
0100
1000
0010
1000
0100
,
1000
0010
0100
0000
0001
0001
0010
0010
,
0100
0100
1000
1000
0100
0100
0001
0001
,
0100
0100
0010
0010
0001
0001
1000
1000
,
0010
0010
0100
0100
2002
0000
0000
0000
,
3003
0000
0000
0000
,
0000
0000
0000
0000
;
#NOTES:
     dance-single:
     :
     Hard:
     15:
     :
0000
0000
0000
0000
,
0000
0000
0000
0000
,
0000
0000
0000
0000
,
0000
0000
0000
0000
,
0000
0000
0000
0000
,
0000
0000
0000
0000
,
0001
0100
0010
0000
0010
0100
0001
0000
,
1000
0100
0010
0000
0010
0100
1000
0000
,
0010
0100
0001
0000
0001
0100
0010
0000
,
1000
0000
0001
0000
0010
0000
0100
0000
2000
0000
3000
0000
0001
1000
0001
0000
,
1000
0010
0000
0100
0001
0000
1000
0100
0000
0010
0001
0000
0100
0010
0100
0000
,
0001
0010
0000
0100
1000
0000
0001
0100
0000
0010
1000
0000
0001
0010
0001
0000
,
0100
0010
0000
1000
0100
0000
1000
0010
0000
0100
0001
0000
1000
0100
1000
0000
,
0010
0100
0000
0001
0010
0000
0001
0100
0010
0000
0000
0000
1000
0000
0001
0000
,
1000
0001
0100
0010
0100
0010
1000
0100
,
1000
0001
0100
0010
1000
0001
0100
0100
,
0010
0000
0010
0000
0100
0001
1000
0100
0010
0001
0010
0100
1000
0001
0100
0010
,
0100
0001
0010
0001
2000
0000
3000
0000
0010
0000
0000
0000
1001
0000
0000
0000
,
0001
0000
1000
0100
1000
0100
0010
0001
1000
0000
0001
0100
0001
0100
0010
1000
,
0001
0000
1000
0100
0010
0000
0000
0000
0001
0000
0000
0000
1001
0000
0000
0000
,
1000
0000
0100
0000
0010
0000
0001
0010
0000
0000
0100
0000
1000
0001
0000
0001
,
0100
0010
1000
0000
1100
0000
1010
0000
,
1000
0000
0001
0010
0001
0010
0100
1000
0001
0000
1000
0010
1000
0010
0100
0001
,
1000
0000
0001
0010
0100
0000
0000
0000
1000
0000
0000
0000
1001
0000
0000
0000
,
0001
0000
0010
0000
0100
0000
1000
0001
0200
0000
0000
0000
0000
0000
0000
0000
,
0020
0000
0000
0000
0330
0000
0000
0000
0001
0000
1000
0100
1000
0100
0010
0000
,
0001
0000
1000
0001
1000
0001
0100
0000
0010
0000
1000
0001
1000
0001
1000
0000
,
0010
0000
0000
0000
0110
0000
0000
0000
0001
0000
1000
0000
0001
0100
0000
0100
,
0010
0000
1000
0000
0100
1000
0000
1000
0010
0000
0100
0000
0001
0000
0000
0000
,
0011
0000
0000
0000
1100
0000
0000
0000
0001
0000
1000
0100
0010
0001
0010
0100
,
1000
0000
0001
0100
0010
1000
0010
0100
0001
0000
1000
0100
0010
0000
0000
0000
,
0001
0000
0000
0000
1001
0000
0000
0000
1000
0000
0010
0000
0100
0001
0000
0001
,
2000
0000
3000
0000
,
0001
0010
0001
1000
0001
0100
0001
1000
,
0001
0010
0001
1000
0001
0100
0001
0010
,
0100
1000
0010
1000
0001
1000
0100
1000
,
0001
1000
0010
1000
0001
1000
0100
0000
,
1000
0000
1000
0000
0010
0000
0010
0000
0100
0001
2000
3000
0001
0000
0001
0000
,
0100
0000
0100
0000
0010
1000
0002
0003
1000
0100
1000
0010
0100
0001
0010
0001
,
1000
0000
0000
0000
0100
0000
0000
0000
1000
0000
0000
0000
0010
0000
0000
0000
0100
0000
0000
0000
0001
0000
0000
0000
0010
0000
0000
0000
0001
0000
0000
0000
2000
3000
0000
0000
0000
0000
0000
0000
0000
0000
0000
0000
0000
0000
0000
0000
0000
0000
0000
0000
0000
0000
0000
0000
0000
0000
0000
0000
0000
0000
0000
0000
,
0001
0000
1000
0100
1000
0000
0001
0100
0001
0000
1000
0100
1000
0000
0001
0100
,
0001
0000
1000
0010
0100
0000
0001
0010
0100
0000
1000
0010
0100
0000
0001
0010
,
0100
0000
1000
0010
1000
0000
0001
0010
0001
0000
1000
0010
1000
0000
0001
0010
,
0001
0000
1000
0100
0010
0000
0001
0100
0010
0000
1000
0100
0010
0000
0001
0100
,
0010
0000
1000
0100
1000
0000
0010
0100
0010
0000
1000
0100
1000
0000
0010
0100
,
0010
0000
1000
0001
0010
0000
0100
0010
0001
0000
1000
0010
0100
0000
0010
1000
,
0001
0000
0100
0010
0100
0000
0001
0010
0001
0000
0100
0010
0100
0000
0001
0010
,
0001
0000
1000
0001
0100
0000
0010
1000
0002
0000
0003
0000
1000
0000
0100
0000
,
0110
0000
0000
0000
0001
0000
0010
0100
1000
0000
0001
0100
0010
0000
1000
0100
,
0001
0000
0100
1000
0010
0000
1000
0100
0001
0000
0100
1000
0010
0000
0100
0000
,
0101
0000
0000
0000
1000
0000
0100
0010
0001
0000
1000
0010
0100
0000
0001
0010
,
1000
0000
0010
0001
0100
0000
0001
0010
1000
0000
0000
0000
0010
0000
0110
0000
,
0011
0000
0000
0000
0001
0000
0100
0001
0010
0000
0100
1000
0010
0000
0100
0001
,
0010
0000
0100
1000
0010
0000
0100
0001
0010
0000
0100
1000
0010
0000
1000
0000
,
1001
0000
0000
0000
0001
0000
0010
0001
0100
0000
0010
1000
0100
0000
0010
0001
,
0100
0000
0010
1000
0002
0000
0003
0000
0100
0000
0001
0000
0010
0000
0010
0000
,
0100
0000
1000
0000
0010
0000
0010
0100
0010
0000
0010
0000
1000
0000
1000
0000
,
0001
0000
0001
0000
0010
0000
0010
0100
0010
0000
0010
0000
0001
0000
0001
0000
,
1000
0000
1000
0000
0010
0000
0010
0100
0010
0000
0010
0000
1000
0000
1000
0000
,
0001
0010
0100
0000
1000
0000
0000
0000
0001
0100
0001
1000
0001
0010
0001
1000
,
0001
0100
0001
0010
0100
0000
0000
0000
1000
0010
1000
0001
1000
0100
1000
0001
,
1000
0010
1000
0100
0010
0000
0000
0000
0001
1000
0001
1000
0010
0100
0010
0100
,
0001
0010
0001
0010
0100
1000
0001
0100
0020
0000
0000
0000
0000
0000
0030
0000
,
1001
0000
0000
0000
,
0000
0000
0000
0000
;
#NOTES:
     dance-double:
     :
     Easy:
     7:
     :
00000000
00000000
00000000
00000000
,
00000000
00000000
00000000
00000000
,
00000000
00000000
00000000
00000000
,
00000000
00000000
00000000
00000000
,
00000000
00000000
00000000
00000000
,
00000000
00000000
00000000
00000000
,
00010000
00000000
00010000
00000000
,
00001000
00000000
00001000
00000000
,
00000100
00000000
00000010
00000000
,
00001000
00000000
00002000
00003001
,
00000001
00000100
00001000
00010000
,
00011000
00001000
01000000
00010000
,
00100000
00010000
00010000
01000000
,
00001000
00010000
00000000
00011000
,
00000010
00000010
00000000
00011000
,
00100000
00100000
00000000
00011000
,
00000100
00000000
00011000
00000000
01000000
00000000
00001000
00010000
,
00010000
00002000
00013000
00000000
,
01000000
00000000
10000000
00100000
,
01000000
10010000
00010000
00000000
,
00100000
00000000
00001000
00000000
,
00010000
00000000
00011000
00010000
,
00000100
00000000
00000010
00000001
,
00000001
00000100
00001001
00000001
,
00000000
00001000
00000020
00000000
,
00000200
00000330
00000000
00000000
,
00000001
00000010
00000100
00001001
,
00001000
00000000
00000010
00000000
,
00010000
00000000
00001000
00000000
,
00011000
00001000
01000000
00000000
,
00100000
10000000
10000000
01000000
,
10010000
10000000
00000000
01000000
,
00100000
00000000
00000000
00000000
,
00010000
00010000
10000000
10000000
,
01000000
01000000
00010000
00010000
,
00001000
00001000
00000100
00000100
,
00000010
00010000
00001000
00000000
,
00010000
00000000
00010000
00000000
00020000
00030000
00001000
00000000
,
00001000
00000000
00002000
00003000
00022000
00000000
00000000
00000000
,
00000000
00000000
00033000
00000000
,
00010000
00001000
00000010
00000100
,
00010000
00001000
00000100
00000010
,
00010000
00001000
00000010
00000001
,
00000100
00001000
00010000
00011000
,
00001000
00010000
00100000
01000000
,
00001000
00010000
01000000
00100000
,
00001000
00010000
00100000
10000000
,
01000000
00010000
00002000
00013000
,
00000000
00010000
00000000
00001000
,
00010000
00000000
01000000
00000000
10000000
00000000
00100000
00100000
,
00100000
10000000
01000000
00010000
,
00001000
00000000
00100000
00000000
00001000
00000000
00010000
00010000
,
00010000
00001000
00000100
00000001
,
00000010
00000000
00001000
00000000
00010000
00000000
00001000
00001000
,
00001000
01000000
00010000
00100000
,
01000000
20000000
30010000
10000000
,
01000000
00000000
00100000
00100000
00100000
00000000
00001000
00000000
,
00010000
00000000
00001000
00001000
00001000
00000000
00010000
00000000
,
00000010
00000000
00001000
00001000
00001000
00000000
00000100
00000000
,
00010000
00001000
00100000
00110000
,
00001000
00011000
00000010
00001010
,
00010000
00000000
00011000
00000000
00001000
00001000
00001000
00000000
,
00010000
00010000
00010000
00000000
00022000
00000000
00000000
00000000
,
00033000
00000000
00000000
00000000
,
00000000
00000000
00000000
00000000
;
#NOTES:
     dance-double:
     :
     Medium:
     11:
     :
00000000
00000000
00000000
00000000
,
00000000
00000000
00000000
00000000
,
00000000
00000000
00000000
00000000
,
00000000
00000000
00000000
00000000
,
00000000
00000000
00000000
00000000
,
00000000
00000000
00000000
00000000
,
00001000
00010000
00001000
00000000
00100000
00000000
00000000
00000000
,
00001000
00010000
00001000
00000000
00000010
00000000
00000000
00000000
,
00001000
00010000
00001000
00000000
00100000
00000000
00000000
00000000
,
00001000
00010000
00001000
00000000
00020000
00000000
00031000
00000000
,
00100000
00000000
00010000
00000000
01000000
00010000
00100000
00000000
,
01000000
00000000
10000000
00000000
00010000
01000000
00100000
00000000
,
00010000
00000000
00001000
00000000
00010000
00000100
00001000
00000000
,
00001000
00000010
00000001
00000010
,
00000011
00000010
00000110
00000010
,
00001010
00000000
00000010
00000000
00010010
00000000
00010000
00001000
,
00010000
00001000
01000000
00100000
01000000
00010000
00100000
01000000
,
10000000
10000000
00200000
00000000
01300000
00000000
01010000
00000000
,
00000000
00001000
00010000
01000000
00000000
00100000
00001000
00010000
,
00000000
00100000
01000000
00000000
00010000
00000000
00110000
00000000
,
00001000
00010000
00010000
00010000
00000100
00001000
00001000
00001000
,
00000010
00000100
00001010
00000101
,
00000000
00000001
00000010
00000100
00000000
00010000
00001000
00000100
,
00000000
00000001
00000010
00000000
00000001
00000000
00000101
00000000
,
00001000
00001100
00020000
00000000
,
00002000
00033000
00001000
00000000
,
00001000
00000000
00010000
00001000
00000000
00000100
00000010
00000000
,
00001000
00000000
00001100
00000000
00010000
00001000
00001000
00001000
,
00100000
00010000
00010000
00010000
01000000
00000000
00100000
00000000
,
01010000
00000000
10100000
00000000
00000000
10000000
01000000
00100000
,
00000000
00001000
00010000
00100000
00000000
10000000
01000000
00000000
,
00100000
00110000
00001000
00011000
,
00000010
00000000
00000100
00000000
,
00000001
00000000
00000100
00000010
00001000
00000000
00000100
00000000
,
00010000
00000000
00001000
01000000
00010000
00000000
00100000
00000000
,
01000000
00000000
10000000
00100000
01000000
00000000
00010000
00000000
,
10000000
00000000
01000000
00100000
00001000
00000000
00011000
00000000
,
00010000
00000000
00010000
00000000
00001000
00000000
00001000
00000000
00010000
00000000
00020000
00030000
00001000
00000000
00001000
00000000
,
00010000
00000000
00010000
00000000
00001000
00000000
00002000
00003000
00010000
00000000
00000010
00000000
00001000
00000000
00000100
00000000
,
00010000
00001000
00000100
00000010
00000000
00000000
00000000
00000000
,
00010000
00001000
00100000
00000000
01000000
00010000
00001000
00000000
,
00010000
00000010
00000100
00000000
00001000
00000000
00010000
00000000
,
00001000
00010000
01000000
00000000
00100000
00001000
00010000
00000000
,
00001000
00000100
00000010
00000000
00010000
00000000
00001000
00000000
,
00001000
00010000
00000100
00000000
00000010
00001000
00010000
00000000
,
00001000
01000000
00100000
00000000
00010000
00000000
00001000
00000000
,
00010000
00001000
00000010
00000000
00000100
00010000
00001000
00000000
,
00010000
00100000
01000000
00000000
00002000
00000000
00013000
00000100
,
00000010
00000000
00001000
00010000
00000010
00000000
00000100
00001000
,
00010000
00000000
00000100
00000000
00010000
00000000
00001000
00100000
,
01000000
00000000
00010000
00001000
01000000
00000000
00100000
00010000
,
00001000
00000000
00100000
00000000
00001000
00000000
00010000
00000010
,
00000100
00000000
00001000
00010000
00000100
00000000
00000010
00001000
,
00010000
00000000
00000010
00000000
00010000
00000000
00001000
01000000
,
00100000
00000000
00010000
00001000
00100000
00000000
01000000
00010000
,
00001000
00000000
00020000
00000000
00031000
00010000
00001000
00010000
,
00000100
00001000
00000100
00001000
00000010
00000100
00000010
00000100
,
00001000
00010000
00001000
00010000
01000000
00100000
01000000
00100000
,
00001000
00010000
00001000
00010000
00000100
00000010
00000100
00000010
,
00001000
00000000
00010000
00000000
00001000
00001000
00010000
00010000
,
00100000
00100000
01000000
00000000
00001000
00001000
00010000
00010000
,
01000000
01000000
00100000
00000000
00010000
00010000
01000000
01000000
,
00001000
00001000
00010000
00010000
00022000
00000000
00000000
00000000
,
00033000
00000000
00000000
00000000
,
00000000
00000000
00000000
00000000
;
#NOTES:
     dance-double:
     :
     Hard:
     15:
     :
00000000
00000000
00000000
00000000
,
00000000
00000000
00000000
00000000
,
00000000
00000000
00000000
00000000
,
00000000
00000000
00000000
00000000
,
00000000
00000000
00000000
00000000
,
00000000
00000000
00000000
00000000
,
00010000
00001000
00100000
00000000
00010000
01000000
00100000
00000000
,
00010000
00001000
01000000
00000000
00010000
00100000
00001000
00000000
,
00010000
01000000
00100000
00000000
00010000
01000000
00100000
00000000
,
00010000
00000000
00001000
00000000
00100000
00000000
00010000
00000000
02000000
00000000
03000000
00000000
00010000
00100000
00010000
00000000
,
00100000
01000000
00000000
10000000
01000000
00000000
00100000
00010000
00000000
01000000
00100000
00000000
00010000
00001000
00100000
00000000
,
00001000
00010000
00000000
00000100
00000010
00000000
00000001
00001000
00000000
00000010
00000100
00000000
00000001
00000100
00000001
00000000
,
00000100
00001000
00000000
00010000
00100000
00000000
10000000
00100000
00000000
01000000
00010000
00000000
10000000
01000000
00100000
00000000
,
00010000
00100000
00000000
00001000
00010000
00000000
00000100
00000010
00000001
00000000
00000000
00000000
00000100
00000000
00000001
00000000
,
00000100
00000010
00000100
00001000
00000100
00010000
00000100
00000010
,
00000100
00000001
00000010
00000100
00001000
00000010
00001000
00001000
,
00000001
00000000
00000001
00000000
00001000
00000001
00000010
00000000
00000100
00001000
00000010
00000000
00010000
00001000
00010000
00001000
,
01000000
00010000
00100000
01000000
20000000
00000000
30000000
00000000
00100000
00000000
00000000
00000000
10010000
00000000
00000000
00000000
,
10000000
00000000
01000000
10000000
01000000
00100000
00010000
00100000
00001000
00000000
00010000
00001000
00010000
00001000
00010000
00000010
,
00001000
00000000
00000100
00000010
00000001
00000000
00000000
00000000
00001000
00000000
00000000
00000000
00001001
00000000
00000000
00000000
,
00000001
00000000
00000010
00000000
00000100
00000000
00001000
00000010
00000000
00000000
00010000
00000000
00001000
00010000
00000000
00010000
,
00001000
00000100
00000001
00000000
00000011
00000000
00001100
00000000
,
00000001
00000000
00000100
00000001
00000100
00000010
00001000
00000010
00010000
00000000
00001000
00010000
00001000
00010000
00001000
00100000
,
00010000
00000000
01000000
00100000
10000000
00000000
00000000
00000000
00010000
00000000
00000000
00000000
10010000
00000000
00000000
00000000
,
10000000
00000000
01000000
00000000
00100000
00000000
00010000
01000000
00200000
00000000
00000000
00000000
00000000
00000000
00000000
00000000
,
02000000
00000000
00000000
00000000
03300000
00000000
00000000
00000000
00010000
00000000
10000000
01000000
10000000
01000000
00100000
00000000
,
00001000
00000000
00010000
00001000
00010000
00001000
00010000
00000000
00000100
00000000
00001000
00000010
00001000
00000010
00001000
00000000
,
00000001
00000000
00000000
00000000
00000011
00000000
00000000
00000000
00000100
00000000
00001000
00000000
00000001
00000100
00000000
00000100
,
00000010
00000000
00010000
00000000
00001000
00100000
00000000
00100000
00010000
00000000
01000000
00000000
00100000
00000000
00000000
00000000
,
10100000
00000000
00000000
00000000
10010000
00000000
00000000
00000000
00010000
00000000
10000000
01000000
00100000
00010000
00100000
00010000
,
00100000
00000000
00001000
00010000
00001000
00010000
00000100
00001000
00000100
00000000
00001000
00000010
00000100
00000000
00000000
00000000
,
00000001
00000000
00000000
00000000
00001001
00000000
00000000
00000000
00001000
00000000
00000100
00000000
00000010
00000001
00000000
00000001
,
00000200
00000000
00000300
00000000
,
00000010
00000100
00000010
00000001
00000010
00000100
00000010
00001000
,
00000010
00010000
00000010
00100000
00001000
00100000
00010000
00100000
,
01000000
00100000
10000000
00100000
01000000
00100000
00010000
00100000
,
00001000
00100000
00000010
00010000
00000010
00001000
00000100
00000000
,
00010000
00000000
00010000
00000000
00001000
00000000
00001000
00000000
00100000
00010000
00200000
00300000
00001000
00000000
00001000
00000000
,
00010000
00000000
00010000
00000000
00000010
00001000
00000020
00000030
00010000
00000000
00001000
00100000
00010000
00000000
01000000
00010000
,
00100000
00000000
00000000
00000000
00000000
00000000
00000000
00000000
00001000
00000000
00000000
00000000
00010000
00000000
00000000
00000000
00000100
00000000
00000000
00000000
00000000
00000000
00000000
00000000
00001000
00000000
00000000
00000000
00000010
00000000
00000000
00000000
00000200
00000300
00000000
00000000
00000000
00000000
00000000
00000000
00000000
00000000
00000000
00000000
00000000
00000000
00000000
00000000
00000000
00000000
00000000
00000000
00000000
00000000
00000000
00000000
00000000
00000000
00000000
00000000
00000000
00000000
00000000
00000000
,
00000001
00000000
00001000
00000001
00001000
00000000
00000001
00000100
00000001
00000000
00000100
00001000
00000100
00000000
00001000
00010000
,
00001000
00000000
00010000
00100000
00010000
00000000
00100000
10000000
00100000
00000000
10000000
00010000
10000000
00000000
01000000
10000000
,
01000000
00000000
00010000
01000000
00010000
00000000
00001000
00010000
00001000
00000000
00000010
00001000
00000010
00000000
00000001
00001000
,
00000001
00000000
00000100
00000001
00000100
00000000
00001000
00000100
00001000
00000000
00010000
00001000
00010000
00000000
00001000
00000000
,
00100000
00000000
00010000
01000000
00010000
00000000
10000000
01000000
10000000
00000000
00100000
01000000
00100000
00000000
10000000
01000000
,
10000000
00000000
00010000
00100000
00010000
00000000
01000000
00100000
01000000
00000000
00001000
00010000
00001000
00000000
00100000
00010000
,
00100000
00000000
00001000
00010000
00001000
00000000
00010000
00000100
00010000
00000000
00001000
00000010
00001000
00000000
00000010
00000001
,
00000010
00000000
00000001
00001000
00000001
00000000
00001000
00000100
00000020
00000000
00000030
00000000
00000001
00000000
00000001
00000000
,
00000101
00000000
00000000
00000000
00000100
00000000
00000001
00000010
00000100
00000000
00000010
00000100
00001000
00000000
00000100
00010000
,
00001000
00000000
00010000
00001000
00100000
00000000
00001000
00100000
00010000
00000000
01000000
00100000
10000000
00000000
10000000
00000000
,
10010000
00000000
00000000
00000000
00010000
00000000
10000000
00100000
01000000
00000000
00100000
01000000
00010000
00000000
10000000
00100000
,
01000000
00000000
00010000
00100000
00001000
00000000
00010000
00000100
00001000
00000000
00000000
00000000
00000010
00000000
00000010
00000000
,
00000110
00000000
00000000
00000000
00000100
00000000
00000001
00000100
00001000
00000000
00000100
00001000
00010000
00000000
00001000
00010000
,
00100000
00000000
00010000
00100000
01000000
00000000
00100000
01000000
00010000
00000000
01000000
00010000
10000000
00000000
01000000
00000000
,
11000000
00000000
00000000
00000000
01000000
00000000
10000000
01000000
00010000
00000000
01000000
00010000
00001000
00000000
00010000
00001000
,
00000010
00000000
00001000
00000010
00000002
00000000
00000003
00000000
00001000
00000000
00000010
00000000
00000100
00000000
00000010
00000000
,
00001000
00000000
00000010
00000000
00010000
00000000
00010000
00001000
00010000
00000000
00010000
00000000
01000000
00000000
00100000
00000000
,
00010000
00000000
00100000
00000000
00001000
00000000
00001000
00010000
00001000
00000000
00001000
00000000
00000100
00000000
00000010
00000000
,
00001000
00000000
00000010
00000000
00010000
00000000
00010000
00001000
00010000
00000000
00010000
00000000
00001000
00000000
01000000
00000000
,
00010000
00100000
01000000
00000000
10000000
00000000
00000000
00000000
00010000
00000000
10000000
00100000
01000000
00000000
00001000
00010000
,
00000100
00000000
00010000
00001000
00000010
00000000
00000000
00000000
00000001
00000000
00000001
00000010
00000100
00000000
00010000
00001000
,
01000000
00000000
00001000
00010000
00100000
00000000
00000000
00000000
10000000
00010000
10000000
00100000
01000000
00010000
00100000
00001000
,
00010000
00001000
00010000
00000010
00001000
00000010
00000100
00000001
00000020
00000000
00000000
00000000
00000000
00000000
00000030
00000000
,
00001001
00000000
00000000
00000000
,
00000000
00000000
00000000
00000000
;
