
//----- song ID: lasu -----//
#TITLE:Last Summer;
#ARTIST:BEMANI Sound Team "Monolith vs. Nautilus";
#BANNER:Last Summer.png;
#BACKGROUND:Last Summer-bg.png;
#CDTITLE:./CDTitles/DDR A3.png;
#MUSIC:Last Summer.ogg;
#SAMPLESTART:16.364;
#SAMPLELENGTH:15;
#BPMS:0=132;
#STAGE:2;
#NOTES:
     dance-single:
     :
     Beginner:
     2:
     :
0000
0000
0000
0000
,
0000
0000
0000
0000
,
0000
0000
0000
0000
,
0000
0000
0000
0000
,
0000
0000
0000
0000
,
0001
0000
0000
0000
,
0001
0000
0000
0000
,
1000
0000
0000
0000
,
1000
0000
0000
0000
,
0010
0000
1000
0000
,
0100
0000
0000
0000
,
1000
0000
0000
0000
,
0000
0000
0000
0000
,
0010
0000
0001
0000
,
0100
0000
0000
0000
,
0001
0000
0000
0000
,
0000
0000
0000
0000
,
1000
0000
0100
0000
,
1000
0000
0010
0000
,
0100
0000
0000
0000
,
0000
0000
0000
0000
,
0001
0000
0100
0000
,
0001
0000
0010
0000
,
0100
0000
0000
0000
,
0000
0000
0000
0000
,
0002
0000
0000
0000
,
0003
0000
0000
0000
,
0200
0000
0000
0000
,
0300
0000
0000
0000
,
2000
0000
0000
0000
,
3000
0000
0000
0000
,
0020
0000
0000
0000
,
0030
0000
0000
0000
,
1001
0000
0000
0000
,
0000
0000
0000
0000
,
1001
0000
0000
0000
,
0000
0000
0000
0000
,
0001
0000
0010
0000
,
0001
0000
0000
0000
,
1000
0000
0010
0000
,
1000
0000
0000
0000
,
1001
0000
0000
0000
,
1000
1000
0100
0000
,
0010
0000
0000
0000
,
1001
0000
0000
0000
,
0000
0000
0000
0000
,
0001
0001
0100
0000
,
0010
0000
0000
0000
,
1001
0000
0000
0000
,
0000
0000
0000
0000
,
1000
0000
0100
0000
,
0001
0000
0000
0000
,
0010
0000
0000
0000
,
0000
0000
0000
0000
,
0001
0000
0100
0000
,
1000
0000
0000
0000
,
0010
0000
0000
0000
,
0000
0000
0000
0000
,
1001
0000
0000
0000
,
1000
0000
1000
0000
,
0100
0000
0000
0000
,
0001
0000
0001
0000
,
0010
0000
0010
0010
,
0000
0000
0000
0000
;
#NOTES:
     dance-single:
     :
     Easy:
     5:
     :
0000
0000
0000
0000
,
0000
0000
0000
0000
,
0000
0000
0000
0000
,
0000
0000
0000
0000
,
0000
0000
0000
0000
,
1000
1000
0100
0000
,
1000
1000
0010
0000
,
1000
0100
1000
0100
,
1000
0010
1000
1001
,
0001
0100
0001
0100
,
0010
1000
0100
0010
,
0100
1000
0100
1000
,
0001
0010
0001
0000
,
1000
0010
0100
0010
,
1000
0001
1000
0100
,
0010
0001
0100
0001
,
1000
0001
1000
1001
,
0010
0010
0010
0000
,
1000
0100
1000
0001
,
0010
0010
0010
0000
,
0001
0100
0001
1000
,
0100
0100
0100
0000
,
1000
0010
0100
0001
,
0100
0100
0100
0000
,
0220
0000
0000
0330
,
0002
0000
1003
0000
,
0010
0100
0010
0000
,
2000
0000
3001
0000
,
0010
0100
0010
0000
,
0001
0000
0100
0000
,
0001
0100
0010
0000
,
1000
0000
0100
0000
,
1000
0100
0010
0000
,
0002
0000
0000
0003
,
2000
0000
0000
3000
,
0020
0000
0000
0030
,
0200
0000
0000
0300
,
0001
0001
0100
0000
,
1000
1000
0100
0000
,
0001
0001
0010
0000
,
1000
1000
0010
0000
,
1000
0001
1000
0001
,
1000
0100
0010
0001
,
1000
0100
0010
0000
,
0001
0100
0010
1000
,
0001
0100
0010
0000
,
0000
1000
0010
0100
,
0001
1000
0010
0100
,
0001
0010
0100
1000
,
0001
0010
0100
0000
,
1000
1000
0001
0001
,
0100
0010
1000
0000
,
0001
0001
1000
1000
,
0100
0010
0001
0000
,
0000
0001
0100
0001
,
0010
0100
1000
0000
,
0001
1000
0010
1000
,
0100
0100
0010
0110
,
0000
0000
0000
0000
,
0001
0100
0010
1000
,
0100
0010
0001
1000
,
0100
0100
0010
0010
,
0100
0010
0110
1001
,
0000
0000
0000
0000
;
#NOTES:
     dance-single:
     :
     Medium:
     10:
     :
0000
0000
0000
0000
,
0000
0000
0000
0000
,
0000
0000
0000
0000
,
0000
0000
0000
0000
,
0000
0000
0000
0000
,
0001
0100
0001
0100
,
0010
1000
0010
1000
,
0100
1000
0100
0000
0010
0001
0010
0000
,
2002
0000
0000
3003
,
1000
0100
0010
0001
1000
0100
0010
0100
,
1000
0010
0100
0001
1000
0001
0100
0000
,
0001
0010
0100
1000
0001
0100
0010
0100
,
0001
1000
0010
0100
0010
1000
0100
0010
,
0000
0000
0010
0001
0100
0010
1000
0010
,
0100
0001
0010
0100
1000
0001
1000
0000
,
0001
0100
0010
1000
0001
0010
0100
1000
,
0002
0103
0110
1001
,
0010
1100
0010
0101
,
0001
0010
0100
1000
0010
0100
0001
0000
,
0100
1010
0100
0011
,
1000
0100
0010
0001
0100
0010
1000
0000
,
0001
0110
1000
0110
,
0001
0010
0100
1000
0001
1000
0100
0000
,
1000
0110
0001
0110
,
1000
0010
0100
0001
1000
0001
0100
0000
,
0002
0010
0100
0103
,
0001
0100
1000
0000
0100
0000
0001
0000
,
2000
0010
0100
3100
,
1000
0100
0001
0000
0100
0000
1000
0000
,
0020
1000
0001
1030
,
1000
0010
0001
0000
0010
0000
1000
0000
,
0001
0100
0001
0000
1000
0100
1000
0000
,
0220
0000
0000
0330
,
0002
0100
0103
0000
,
2000
0100
3100
0000
,
0002
0013
2000
3010
,
0002
2003
3001
1001
,
1000
0100
1000
0000
0010
1000
0010
0000
,
1000
0100
0010
0001
0010
0100
1000
0000
,
0001
0100
0001
0000
0010
0001
0010
0000
,
0001
0100
0010
1000
0010
0100
0001
0000
,
0200
0320
0230
0310
,
0110
0000
0001
0100
0010
1000
0010
1000
,
0100
0010
0001
0010
0100
1000
0001
0000
,
0100
0001
0100
0001
1000
0010
1000
0010
,
0100
0001
0010
0000
0100
1000
0010
0000
,
0000
0000
1000
0010
0100
0001
0100
0001
,
0010
0100
1000
0100
0010
0001
1000
0000
,
0010
1000
0010
1000
0001
0100
0001
0100
,
0010
1000
0100
0000
0010
0001
0100
0000
,
0001
1000
0100
1000
0010
0100
0001
0010
,
0100
1000
0100
0001
0100
1000
0100
0000
,
1000
0010
1000
0010
0100
0001
0100
0001
,
0010
0100
0010
0000
0001
1000
0001
0000
,
0000
0000
0001
0100
0010
1000
0100
0000
,
0010
0001
0100
0000
0001
0100
0010
0000
,
1000
0100
1000
0100
1000
0010
1000
0000
,
1010
0100
0011
0100
,
2002
0000
0000
3003
,
1000
0010
0100
0001
0010
0001
0100
0000
,
0010
1000
0100
0000
0010
0001
0100
0000
,
0001
0010
0001
0000
1000
0010
1000
0000
,
0001
0100
0010
0000
0110
0000
1001
0000
,
0000
0000
0000
0000
;
#NOTES:
     dance-single:
     :
     Hard:
     12:
     :
0000
0000
0000
0000
,
0000
0000
0000
0000
,
0000
0000
0000
0000
,
0000
0000
0000
0000
,
0000
0000
0000
0000
,
0001
0100
0001
0000
0010
0100
1000
0000
,
0010
0100
0010
0000
1000
0001
0010
0000
,
0100
1000
0100
1000
0001
0010
0001
0000
,
2002
0000
0000
3003
,
1000
0000
0001
0000
1000
0000
0010
0100
0000
0100
0010
0000
1000
0000
0100
0010
,
0000
0010
0100
0000
1000
0000
0001
0000
0010
0000
0001
1000
0000
0000
1000
0000
,
0001
0000
1000
0000
0001
0000
0100
0010
0000
0010
0100
0000
0001
0000
0010
0100
,
0000
0100
0010
0000
0001
0000
1000
0000
0010
0000
1000
0001
0000
0000
0001
0000
,
0000
0000
0000
0000
1001
0000
1000
0010
0000
0000
1000
0000
0001
0000
0001
0010
,
0000
0000
0010
0000
0000
0000
0001
0000
0100
0000
0010
1000
0000
0000
0010
0000
,
1000
0100
0010
0001
1000
0100
0010
0001
,
1000
0100
0110
1001
,
1001
0000
0000
0000
1000
0000
0100
0010
0000
0000
0001
0010
0000
0000
0001
0000
,
0000
1000
0000
0000
1000
0000
0010
0100
0000
0001
0100
0000
0010
0000
1000
0000
,
0001
0000
0000
0000
1000
0000
0100
0001
0000
0000
0100
1000
0000
0000
0001
0000
,
0000
1000
0000
0000
1000
0000
0010
1000
0000
0100
0010
0000
0001
0000
0001
0000
,
0000
0000
0000
0000
0001
0000
0010
0100
0000
0000
1000
0100
0000
0000
1000
0000
,
0000
0001
0000
0000
0001
0000
0100
0010
0000
1000
0010
0000
0100
0000
0001
0000
,
1000
0000
0000
0000
0001
0000
0010
1000
0000
0000
0010
0001
0000
0000
1000
0000
,
0000
0001
0000
0000
0001
0000
0100
0001
0000
0010
0100
0000
1000
0000
1000
0000
,
0001
0000
0000
0001
0100
0000
0010
0000
1000
0000
1000
0000
1000
0000
0000
0000
,
1000
0010
0001
0010
1000
0100
0010
0001
,
1000
0000
0000
1000
0100
0000
0010
0000
0001
0000
0001
0000
0001
0000
0000
0000
,
1000
0100
1000
0100
0001
0100
1000
0000
,
0001
0000
0000
0001
1000
0000
0100
0000
0010
0000
0010
0000
0010
0000
0000
0000
,
0001
0100
0010
1000
0100
0010
0001
0000
,
1000
0000
0000
1000
0001
0000
0010
0000
0100
0000
0100
0000
0100
0000
0000
0000
,
2002
0000
0000
3003
,
1000
0000
0100
0000
0010
0001
0010
0000
,
0001
0000
0100
0000
0010
1000
0010
0000
,
1000
0100
0010
0000
0001
0100
0010
0000
,
1000
0100
0010
0001
0100
0010
1000
0000
,
0001
0000
0100
0000
0001
0000
0000
0010
0000
0001
0000
0010
0000
0000
0100
0000
,
1000
0000
0010
0000
1000
0000
0000
0010
0000
1000
0000
0001
0000
0000
0100
0000
,
0001
0010
0001
0010
0100
1000
0100
1000
,
0010
0100
0001
1000
0100
0010
0001
1000
,
0020
1000
0001
1030
,
1001
0000
0000
0000
0001
0000
0100
0010
0000
0000
1000
0000
0100
0000
0010
0001
,
0000
0000
1000
0000
0100
0000
0001
0000
0200
0000
0000
2300
0000
0000
3001
0000
,
1001
0000
0000
0000
0110
0000
0001
0100
0000
0000
2000
0000
3200
0000
0302
0000
,
1003
1000
0100
1000
0001
0010
0100
1000
,
0000
0000
0000
0000
0010
0000
1000
0001
0000
0000
0100
0000
0001
0000
1000
0000
,
0000
0000
1100
0000
0010
0000
0001
0000
2000
0000
0000
3020
0000
0000
0031
0000
,
0010
0000
0000
0000
1000
0000
0001
0100
0000
0000
0001
0000
0010
0000
0001
0000
,
0100
0100
0010
0010
1000
0001
1000
0000
,
1001
0000
0000
0000
1000
0000
0010
0100
0000
0000
0001
0000
0010
0000
0100
1000
,
0000
0000
0001
0000
0010
0000
1000
0000
0020
0000
0000
0032
0000
0000
1003
0000
,
1001
0000
0000
0000
0110
0000
1000
0010
0000
0000
0002
0000
0023
0000
2030
0000
,
3001
0001
0010
0001
1000
0100
0010
0001
,
0000
0000
0000
0000
0100
0000
0001
1000
0000
0000
0010
0000
1000
0000
0001
0000
,
0000
0000
0011
0000
0100
0000
1000
0000
0002
0000
0000
0203
0000
0000
1300
0000
,
0100
0000
0000
0000
0001
0000
1000
0010
0000
0000
1000
0000
0100
0000
1000
0000
,
0010
0010
0100
0100
0001
1000
0002
0000
,
0000
0000
0000
0003
,
0001
0000
0010
0000
0100
0000
1000
0010
0000
0010
1000
0000
0001
0000
0100
0001
,
0000
0001
0010
0000
0001
0000
0100
0000
0010
0000
1000
0001
0000
0000
0001
0000
,
1000
0000
0100
0000
0010
0000
0001
1000
0000
1000
0001
0000
0100
0000
0010
1000
,
0010
0100
0001
0010
0011
0100
1001
0000
,
0000
0000
0000
0000
;
#NOTES:
     dance-double:
     :
     Easy:
     5:
     :
00000000
00000000
00000000
00000000
,
00000000
00000000
00000000
00000000
,
00000000
00000000
00000000
00000000
,
00000000
00000000
00000000
00000000
,
00000000
00000000
00000000
00000000
,
00000001
00000010
00000001
00000000
,
00000100
00000010
00001000
00000000
,
00000100
00010000
00000100
00010000
,
00001000
00010000
00001000
00011000
,
00010000
00001000
01000000
00010000
,
00100000
00010000
01000000
00000000
,
00100000
10000000
01000000
00100000
,
01000000
00100000
00010000
00000000
,
00100000
00001000
00010000
00001000
,
00010000
00000010
00001000
00000000
,
00000001
00000100
00001000
00000100
,
00000001
00000010
00000100
00000110
,
00000001
00000001
00000001
00000000
,
00001000
00000100
00010000
00001000
,
00010000
00010000
00010000
00000000
,
00001000
00100000
00010000
01000000
,
00100000
00100000
00100000
00000000
,
10000000
01000000
00100000
00010000
,
01000000
01000000
01000000
00000000
,
02200000
00000000
00000000
03300000
,
10000000
00000000
00010000
00000000
,
00100000
00001000
00100000
00000000
,
00001000
00000000
00010000
00000000
,
00000100
00001000
00000100
00000000
,
00000010
00000000
00000001
00000000
,
00000100
00000010
00000100
00000000
,
00001000
00000000
00010000
00000000
,
00001000
00010000
00001000
00000000
,
00022000
00000000
00000000
00000000
,
00000000
00000000
00000000
00033000
,
00100000
00010000
01000000
00000000
,
00100000
10000000
01000000
00000000
,
00100000
00010000
00100000
00100000
,
00001000
00010000
00001000
00000000
,
00010000
00000010
00010000
00010000
,
00000100
00001000
00000100
00000000
,
00001000
00000001
00001000
00000001
,
00000100
00000010
00001000
00000010
,
00010000
00001000
00010000
00000000
,
00001000
01000000
00010000
01000000
,
00010000
00100000
01000000
00000000
,
00000000
01000000
10000000
00100000
,
01000000
00010000
00100000
00100000
,
00001000
00010000
00001000
00010000
,
00000100
00001000
00000010
00000000
,
00000100
00000001
00000100
00000001
,
00000010
00000001
00000010
00000000
,
00000100
00010000
00000100
00010000
,
00001000
00010000
00001000
00001000
,
00000000
00001000
00010000
00100000
,
01000000
00010000
00100000
01000000
,
10000000
10000000
00100000
00000000
,
01000000
00010000
00100000
00001000
,
00000000
00000000
00000000
00000000
,
00010000
00001000
00000010
00000001
,
00001000
00000100
00000010
00000001
,
00000100
00000100
00001000
00001000
,
00010000
00100000
01100000
10010000
,
00000000
00000000
00000000
00000000
;
#NOTES:
     dance-double:
     :
     Medium:
     10:
     :
00000000
00000000
00000000
00000000
,
00000000
00000000
00000000
00000000
,
00000000
00000000
00000000
00000000
,
00000000
00000000
00000000
00000000
,
00000000
00000000
00000000
00000000
,
00010000
00001000
00010000
00001000
,
01000000
00010000
01000000
00100000
,
10000000
01000000
10000000
00000000
00010000
00100000
00010000
00100000
,
00002000
00000000
00000000
00003000
,
00010000
00001000
00010000
00001000
00000010
00000100
00000010
00000001
,
00000100
00000010
00001000
00000010
00000100
00000001
00001000
00000000
,
00000001
00000100
00000001
00000010
00000100
00001000
00000010
00000100
,
00001000
00000100
00001000
00010000
00001000
00100000
00010000
00000000
,
00000000
00000000
01000000
00010000
00100000
00010000
10000000
01000000
,
00100000
01000000
00100000
00010000
01000000
00001000
00010000
00000000
,
00001000
00010000
00000010
00001000
00000100
00000010
00000001
00001000
,
00000002
00000003
00001001
00000110
,
00000001
00000100
00000010
00000000
00001000
00000100
00000010
00000000
,
00000001
00000100
00000010
00010000
00001000
00000000
00011000
00000000
,
00010000
00001000
00100000
00000000
00010000
01000000
00100000
00000000
,
10000000
00100000
01000000
00010000
01000000
00100000
10000000
00000000
,
00010000
00000000
01100000
00000000
10000000
00100000
01000000
00000000
,
00010000
00100000
00010000
00100000
00001000
00010000
00001000
00000000
,
00010000
00000010
00001000
00000000
00000100
00000010
00000001
00000000
,
00000100
00000010
00001000
00000010
00000100
00000001
00001000
00000000
,
00000200
00000000
00010000
00010300
,
00010000
00000100
00010000
00000000
00001000
01000000
00001000
00000000
,
00200000
00000000
00001000
00301000
,
00001000
00100000
00001000
00000000
00010000
00000010
00010000
00000000
,
00000020
00000000
00010000
00001030
,
00000010
00000100
00001000
00010000
00100000
01000000
00010000
00000000
,
02000000
00000000
00001000
03010000
,
00010000
00100000
01000000
00010000
00001000
00000010
00000100
00000000
,
00002000
00000000
00000100
00000000
,
00003001
00000100
00002000
00000000
,
00013000
00100000
00010000
00000000
00100000
10000000
00100000
00000000
,
10000000
00010000
20020000
30030000
,
10000000
01000000
00100000
00000000
00010000
01000000
00100000
00000000
,
01000000
00010000
00100000
00000000
00001000
00010000
00000010
00000000
,
00001000
00000100
00000010
00000000
00000001
00000100
00000010
00000000
,
00000100
00000001
00000100
00000010
00001000
00000100
00010000
00000000
,
00002000
00023000
00031000
00011000
,
00001000
00010000
00001000
01000000
00010000
00100000
00010000
00000000
,
01000000
00010000
00100000
00000000
01000000
10000000
00100000
00000000
,
01000000
00100000
10000000
00010000
00100000
00010000
01000000
00000000
,
00010000
00100000
00001000
00000000
00010000
00000100
00001000
00000000
,
00000000
00000000
00000010
00001000
00000100
00000010
00000001
00000000
,
00001000
00000100
00000001
00000000
00000001
00000100
00001000
00000000
,
00000001
00001000
00000100
00000000
00000010
00000100
00010000
00000000
,
00001000
01000000
00010000
00100000
00010000
01000000
00100000
00000000
,
10000000
01000000
00100000
00010000
01000000
00100000
00010000
00000000
,
00001000
00010000
00001000
00000010
00000100
00001000
00000010
00000000
,
00000100
00000001
00000010
00001000
00000010
00000001
00000100
00000000
,
00000010
00001000
00000100
00001000
00000010
00010000
00001000
00000000
,
00000000
00000000
00010000
00001000
01000000
00010000
00100000
00000000
,
00010000
01000000
10000000
00000000
10000000
01000000
00010000
00000000
,
10000000
00100000
10000000
00100000
01000000
00010000
00100000
00000000
,
00001000
00010000
00001000
00010000
00000100
00001000
00000010
00000000
,
00000220
00000000
00000000
00000330
,
00000001
00000000
00000100
00000000
00001000
00010000
00001000
00000000
,
00010000
00100000
00010000
00000000
00001000
00000010
00001000
00000000
,
00010000
00100000
10000000
01000000
00100000
00001000
00010000
00000100
,
00000010
00000001
00000100
00000000
00000110
00000000
00001001
00000000
,
00000000
00000000
00000000
00000000
;
#NOTES:
     dance-double:
     :
     Hard:
     12:
     :
00000000
00000000
00000000
00000000
,
00000000
00000000
00000000
00000000
,
00000000
00000000
00000000
00000000
,
00000000
00000000
00000000
00000000
,
00000000
00000000
00000000
00000000
,
00000001
00000100
00000001
00000000
00001000
00000100
00001000
00000000
,
00000010
00010000
00001000
00000000
00010000
00001000
00100000
00000000
,
00010000
01000000
00100000
10000000
01000000
00100000
00001000
00000000
,
00022000
00000000
00000000
00033000
,
00010000
00000000
00000010
00000000
00001000
00000000
00000100
00000010
00000000
00000010
00000100
00000000
00001000
00000000
00000001
00001000
,
00000000
00001000
00000001
00000000
00000100
00000000
00000010
00000000
00000100
00000000
00001000
00000000
00010000
00000000
00001000
00000000
,
00100000
00000000
00010000
00000000
10000000
00000000
00100000
01000000
00000000
01000000
00100000
00000000
10000000
00000000
01000000
00100000
,
00000000
00100000
01000000
00000000
10000000
00000000
00010000
00000000
01000000
00000000
00001000
00000000
00010000
00000000
00010000
00000000
,
00000000
00000000
00000000
00000000
00011000
00000000
00010000
00001000
00000000
00000000
00000010
00000000
00000001
00000000
00001000
00000001
,
00000000
00000101
00000000
00000100
00001000
00010000
00100000
01000000
,
00010000
10000000
01000000
00100000
00001000
01000000
00100000
00010000
,
00001000
00010000
00001000
00011000
,
00010000
00000000
00001000
00000000
00000010
00000000
00000001
00001000
00000000
00000000
00000001
00000100
00000000
00000000
00000010
00000000
,
00000000
00001000
00000000
00000000
00001000
00000000
00000001
00000100
00000000
00000010
00000100
00000000
00001000
00000000
00010000
00000000
,
00100000
00000000
00000000
00000000
10000000
00000000
00010000
10000000
00000000
00000000
00010000
01000000
00000000
00000000
00100000
00000000
,
00000000
10000000
00000000
00000000
00010000
00000000
01000000
00100000
00000000
01000000
00100000
00000000
00010000
00000000
00001000
00000000
,
00000000
00000000
00000000
00000000
00010000
00000000
00000100
00001000
00000000
00000000
00000010
00001000
00000000
00000000
00000100
00000000
,
00000000
00000010
00000000
00000000
00000010
00000000
00000001
00000100
00000000
00000010
00001000
00000000
00000001
00000000
00000100
00000000
,
00001000
00000000
00000000
00000000
00010000
00000000
00100000
10000000
00000000
00000000
01000000
00010000
00000000
00000000
01000000
00000000
,
00000000
10000000
00000000
00000000
00010000
00000000
01000000
00100000
00000000
01000000
00100000
00000000
10000000
00000000
10000000
00000000
,
00010000
00000000
00000000
00010000
01000000
00000000
00100000
00000000
10000000
00000000
10000000
00000000
10000000
00000000
00000000
00000000
,
10000000
01000000
00010000
00001000
00000010
00000001
00001000
00000000
,
00000001
00000000
00000000
00000001
00000100
00000000
00000010
00000000
00001000
00000000
00001000
00000000
00001000
00000000
00000000
00000000
,
00000001
00000100
00001000
00010000
00100000
10000000
00010000
00000000
,
10000000
00000000
00000000
10000000
01000000
00000000
00010000
00000000
01000000
00000000
10000000
00000000
00010000
00000000
00000000
00000000
,
10000000
00100000
00010000
00001000
00000010
00000001
00001000
00000000
,
00000001
00000000
00000000
00000001
00000100
00000000
00001000
00000000
00010000
00000000
00010000
00000000
00001000
00000000
00000000
00000000
,
00022000
00000000
00000000
00033000
,
00001000
00000000
00010000
00000000
00100000
10000000
00100000
00000000
,
10000000
01000000
00100000
00001000
00020000
00000000
00030000
00000000
,
00010000
00000000
00001000
00000000
00000010
00000001
00000010
00000000
,
00000001
00000100
00000010
00010000
00002000
00000000
00003000
00000000
,
01000000
00000000
00010000
00000000
01000000
00000000
00000000
00100000
00000000
10000000
00000000
00100000
00000000
00000000
10000000
00000000
,
01000000
00000000
00100000
00000000
00010000
00000000
00000000
00100000
00000000
00001000
00000000
00010000
00000000
00000000
00001000
00000000
,
00010000
00000000
00001000
00000000
00000010
00000000
00000000
00000001
00000000
00001000
00000000
00000001
00000000
00000000
00000100
00000000
,
00000010
00000000
00001000
00000000
00000010
00000000
00000000
00010000
00000000
00001000
00000000
00010000
00000000
00000000
00010000
00000000
,
00002000
01000000
00000100
01003000
,
00011000
00000000
00000000
00000000
00001000
00000000
01000000
00010000
00000000
00000000
01000000
00000000
00100000
00000000
10000000
01000000
,
00000000
00000000
10000000
00000000
01000000
00000000
00010000
00000000
00002000
00000000
00000000
00003020
00000000
00000000
00000031
00000000
,
00001001
00000000
00000000
00000000
00000110
00000000
00000001
00000100
00000000
00000000
00000020
00000000
00020030
00000000
00032000
00000000
,
00013000
00010000
00001000
00010000
01000000
00100000
00001000
00010000
,
00000000
00000000
00000000
00000000
00001000
00000000
01000000
00010000
00000000
00000000
01000000
00000000
00100000
00000000
10000000
00000000
,
00000000
00000000
10100000
00000000
01000000
00000000
00010000
00000000
20000000
00000000
00000000
32000000
00000000
00000000
03010000
00000000
,
00001000
00000000
00000000
00000000
00010000
00000000
00001000
00000010
00000000
00000000
00000001
00000000
00001000
00000000
00000001
00000000
,
00000100
00000100
00000010
00000100
00001000
00010000
00001000
00000000
,
00011000
00000000
00000000
00000000
00010000
00000000
00000010
00001000
00000000
00000000
00000010
00000000
00000100
00000000
00000001
00000010
,
00000000
00000000
00000001
00000000
00000010
00000000
00001000
00000000
00020000
00000000
00000000
02030000
00000000
00000000
13000000
00000000
,
10010000
00000000
00000000
00000000
01100000
00000000
10000000
00100000
00000000
00000000
02000000
00000000
03002000
00000000
00023000
00000000
,
00031000
00001000
00010000
00001000
00000010
00000100
00010000
00001000
,
00000000
00000000
00000000
00000000
00010000
00000000
00000010
00001000
00000000
00000000
00000010
00000000
00000100
00000000
00000001
00000000
,
00000000
00000000
00000101
00000000
00000010
00000000
00001000
00000000
00000002
00000000
00000000
00000023
00000000
00000000
00001030
00000000
,
00010000
00000000
00000000
00000000
00001000
00000000
00010000
01000000
00000000
00000000
10000000
00000000
00010000
00000000
10000000
00000000
,
00100000
00100000
01000000
00100000
00010000
00001000
00020000
00000000
,
00000000
00000000
00000000
00030000
,
00010000
00000000
00000100
00000000
00001000
00000000
00000010
00000100
00000000
00000100
00000010
00000000
00001000
00000000
00000001
00001000
,
00000000
00001000
00000001
00000000
00000010
00000000
00000100
00000000
00000010
00000000
00001000
00000000
00010000
00000000
00001000
00000000
,
00010000
01000000
10000000
00100000
00010000
00001000
00000100
00000001
,
00000010
00000100
00000010
00000000
00000001
00000000
00000100
00000000
00001000
00000000
00010000
00000000
00011000
00000000
00000000
00000000
,
00000000
00000000
00000000
00000000
;
