
//----- song ID: lshi -----//
#TITLE:LOVE SHINE (Body Grooverz 2006 mix);
#ARTIST:W.W.S;
#BANNER:LOVE SHINE (Body Grooverz 2006 mix).png;
#BACKGROUND:LOVE SHINE (Body Grooverz 2006 mix)-bg.png;
#CDTITLE:./CDTitles/DDR HOTTEST PARTY.png;
#MUSIC:LOVE SHINE (Body Grooverz 2006 mix).ogg;
#SAMPLESTART:46.102;
#SAMPLELENGTH:15;
#BPMS:0=177;
#STAGE:5;
#NOTES:
     dance-single:
     :
     Beginner:
     3:
     :
0000
0000
0000
0000
,
0000
0000
0000
0000
,
0000
0000
0000
0000
,
0000
0000
0000
0000
,
0000
0000
0000
0000
,
0000
0000
0000
0000
,
0001
0000
0000
0000
,
0010
0000
0000
0000
,
0100
0000
0000
0000
,
0000
0000
0000
0000
,
1000
0000
0000
0000
,
1000
0000
0000
0000
,
0010
0000
0000
0000
,
0010
0000
0000
0000
,
0100
0000
1000
0000
,
0100
0000
0000
0000
,
0100
0000
0000
0000
,
0000
0000
0000
0000
,
0001
0000
0000
0000
,
0001
0000
0000
0000
,
0010
0000
0000
0000
,
0010
0000
0000
0000
,
0100
0000
0001
0000
,
0100
0000
0000
0000
,
0100
0000
0000
0000
,
0000
0000
0000
0000
,
0002
0000
0000
0000
,
0003
0000
0000
0000
,
0010
0000
0010
0000
,
0100
0000
0000
0000
,
2000
0000
0000
0000
,
3000
0000
0000
0000
,
1001
0000
0000
0000
,
0000
0000
0000
0000
,
1000
0000
0100
0000
,
1000
0000
0000
0000
,
0100
0000
0000
0000
,
0010
0000
0000
0000
,
0001
0000
0100
0000
,
0001
0000
0000
0000
,
1001
0000
0000
0000
,
0000
0000
0000
0000
,
0001
0000
0000
0000
,
0001
0000
0000
0000
,
0010
0000
0001
0000
,
0100
0000
0000
0000
,
0010
0000
0000
0000
,
0010
0000
0000
0000
,
1000
0000
0000
0000
,
0000
0000
0000
0000
,
1001
0000
0000
0000
,
0000
0000
0000
0000
,
1000
0000
0100
0000
,
0001
0000
0000
0000
,
1001
0000
0000
0000
,
0000
0000
0000
0000
,
0001
0000
0010
0000
,
1000
0000
0000
0000
,
1000
0000
1000
0000
,
0010
0000
0000
0000
,
0100
0000
0000
0000
,
0100
0000
0000
0000
,
0001
0000
0001
0000
,
0100
0000
0000
0000
,
0010
0000
0000
0000
,
0000
0000
0000
0000
,
0001
0000
0001
0000
,
0010
0000
0000
0000
,
1001
0000
0000
0000
,
0000
0000
0000
0000
,
1000
0000
1000
0000
,
0100
0000
0000
0000
,
0010
0000
0000
0000
,
1001
0000
0000
1001
,
0000
0000
0000
0000
;
#NOTES:
     dance-single:
     :
     Easy:
     7:
     :
0000
0000
0000
0000
,
0000
0000
0000
0000
,
0000
0000
0000
0000
,
0000
0000
0000
0000
,
0000
0000
0000
0000
,
0000
0000
0000
0000
,
0001
0001
0100
0000
,
1000
1000
0100
0000
,
0001
0001
0100
0000
,
1000
1000
0100
0000
,
0001
0010
0001
0100
,
0001
1000
0001
0001
,
1000
0010
1000
0100
,
1000
0001
1000
1000
,
0001
0100
0101
0000
,
1000
0100
1100
0000
,
0011
0000
1010
0000
,
0001
1000
1001
0000
,
1000
0100
0010
0100
,
1000
0010
0100
0100
,
0001
0010
0100
0010
,
0001
0100
0010
0010
,
1000
0100
0110
0000
,
0001
0100
0110
0000
,
1001
0000
0110
0000
,
1000
0001
1001
0000
,
1001
0000
0000
0001
0010
0000
0000
0000
,
1001
0000
0000
1000
0100
0000
0000
0000
,
1000
0100
1000
0100
,
0010
0001
1000
0000
,
1001
0000
0000
0001
0100
0000
0000
0000
,
1001
1000
0010
0000
,
1000
0100
0010
0001
,
1000
0001
1000
0000
0001
0000
0000
0000
,
1000
0100
0001
0100
,
1000
0001
1000
1001
,
0001
0100
1000
0100
,
0001
0001
0010
0010
,
0001
0010
1000
0010
,
0001
1000
0001
1001
,
0220
0000
0000
0330
,
0000
0100
0010
0000
1001
0000
0000
0000
,
1000
0000
0100
0000
0010
0001
0010
0000
,
0001
0100
1000
0100
,
0001
0000
0010
0000
0100
1000
0100
0000
,
1000
1000
1000
0000
,
0001
0010
0001
0010
,
1000
0010
1000
0010
,
0011
0000
1010
0000
,
0011
1010
0011
0000
,
0002
0000
0103
0000
,
2000
0000
3100
0000
,
0001
0010
0100
1000
,
0001
0010
0100
0000
,
2000
0000
3010
0000
,
0002
0000
0013
0000
,
1000
0100
0010
0001
,
1000
0100
0010
0000
,
0002
0010
1003
0000
,
2000
0010
3001
0000
,
0001
0100
0001
1000
,
0100
0010
0110
0000
,
2000
0100
3001
0000
,
0002
0100
1003
0000
,
1000
0010
1000
0001
,
0010
0100
0110
0000
,
1000
0000
0100
0010
0100
0000
0000
0000
,
1000
0010
0100
0001
,
0011
0000
1010
0000
,
0000
0001
1001
0000
,
1000
0000
0001
0000
0100
0010
0100
0000
,
0001
0000
1000
0000
0100
0010
0100
0000
,
0010
0110
0100
0110
,
0001
1000
0001
1001
,
0000
0000
0000
0000
;
#NOTES:
     dance-single:
     :
     Medium:
     12:
     :
0000
0000
0000
0000
,
0000
0000
0000
0000
,
0000
0000
0000
0000
,
0000
0000
0000
0000
,
0000
0000
0000
0000
,
0000
0000
0000
0000
,
0001
0100
1000
1000
,
1000
0100
0001
1001
,
0000
0100
0000
0100
,
2000
0100
0002
3003
,
0001
0100
0001
0100
0010
1000
0010
1000
,
0100
0010
0001
0100
0001
0010
0100
0000
,
1000
0100
1000
0100
0010
0001
0010
0001
,
0100
0010
1000
0100
1000
0010
0100
0000
,
0101
0000
0001
0010
0100
0000
1100
0000
,
1010
0000
0010
0100
0001
0000
0011
0000
,
1001
0000
1000
0100
0001
0000
0001
0100
,
1000
0001
0010
0200
0000
1000
1000
1300
,
0001
0010
0001
0100
0010
1000
0100
1000
,
0010
0100
0001
0010
1000
0010
0001
0000
,
1000
0010
1000
0100
0010
0001
0100
0001
,
0010
0100
1000
0010
0001
0010
1000
0000
,
0011
0000
0001
0100
0010
0000
1010
0000
,
1100
0000
0100
0010
0001
0000
0101
0000
,
0001
0100
1000
0000
0001
0010
1000
0010
,
0000
0100
0100
0010
0110
0000
0000
0000
,
1001
0000
0000
0001
0010
0000
0000
0010
,
1000
0000
0000
1000
0100
0000
0000
0100
,
0001
0000
0010
0001
0100
0000
0010
1000
,
0100
0000
0010
0100
0000
0100
0010
0000
,
0001
0000
0000
0001
0100
0000
0000
0100
,
1000
0000
0010
1000
0010
0000
0100
0001
,
0010
0100
0010
0000
0001
1000
0001
0000
,
1000
0010
0100
0010
1000
0100
0010
0001
,
1000
0100
1000
0100
0000
0001
0100
1000
,
0000
0001
0100
1000
0100
0000
1001
0000
,
0001
0100
0001
0100
0000
1000
0100
0001
,
0100
0110
1010
1001
,
1000
0010
1000
0010
0000
0001
0010
1000
,
0000
0001
0010
1000
0010
0000
1001
0000
,
0000
1000
0100
1000
0001
0000
0100
0020
,
0000
0100
0100
0100
0130
0000
1001
0000
,
0002
0100
0000
1003
0100
1000
0100
0010
,
0002
0010
0000
1003
0010
1000
0010
0100
,
0002
0010
0000
1003
0100
1000
0100
0010
,
0011
0101
1100
1010
,
0010
1000
0100
0010
0000
0010
0001
0100
,
0001
0010
0100
1000
0010
0000
0010
1000
,
0100
0010
0100
0010
0001
1000
0001
1000
,
1100
0011
2002
3003
,
1000
0100
0001
0100
1000
0000
1001
0000
,
0001
0100
1000
0100
0001
0000
1001
0000
,
1000
0010
0100
0000
0010
0100
0001
0000
,
1000
0000
0000
1000
0000
0000
0001
0000
0100
0000
0000
0000
0110
0000
0010
0000
,
1000
0000
1000
0100
0010
0000
0010
0001
,
0100
0000
0100
0010
1000
0000
1000
0001
,
0010
0001
0100
0000
0010
1000
0100
0000
,
0010
0010
0001
0001
1000
0001
1001
0000
,
0001
0010
1000
0010
0001
0000
1001
0000
,
1000
0010
0001
0010
1000
0000
1001
0000
,
0001
0100
0010
0000
0100
0010
1000
0000
,
0001
0000
0001
1000
0000
0010
0100
0000
,
0001
0000
0001
0010
0100
0000
0100
1000
,
0010
0000
0010
0100
0001
0000
0001
1000
,
0100
1000
0010
0000
0100
0001
0010
0000
,
0100
0100
1000
1000
0001
1000
1001
0000
,
0011
0000
0001
0100
0110
0000
0000
0000
,
1010
0000
1000
0100
0110
0000
0010
0000
,
1001
0000
0001
0010
1000
0000
0001
0100
,
1000
0000
0001
0010
1000
0000
0001
0100
,
1000
0010
0100
0010
1000
0100
0010
0001
,
0100
0010
0100
0001
0010
0100
1000
0010
,
0110
0000
1001
0000
1000
0100
1000
0000
,
0001
0100
0001
1000
0000
0001
1001
0000
,
0000
0000
0000
0000
;
#NOTES:
     dance-single:
     :
     Hard:
     16:
     :
0000
0000
0000
0000
,
0000
0000
0000
0000
,
0000
0000
0000
0000
,
0000
0000
0000
0000
,
0000
0000
0000
0000
,
0000
0000
0000
0000
,
0120
1000
0100
1030
,
0201
0010
0001
0310
,
0100
0001
0100
0000
1001
0000
1010
0000
,
1100
0101
2002
3003
,
1000
0000
0100
0010
0100
0000
0010
0000
0001
0000
0100
0010
0100
0000
0010
0000
,
1000
0000
0001
0100
0010
0000
1000
0000
0001
1000
0001
1000
0001
0000
0000
0000
,
0100
0000
0001
0010
0001
0000
0100
0000
0010
0000
1000
0100
1000
0000
0001
0000
,
0100
0000
0010
1000
0100
0000
0010
0000
0001
0010
0001
1000
0100
0000
0000
0000
,
0011
1100
0011
1100
,
1010
0101
1010
0101
,
1001
0000
0000
0000
0001
0010
0100
1000
0010
0000
0000
0000
1000
0100
0010
0001
,
0100
0100
0010
0010
0000
0100
0010
0110
,
0001
0000
0010
0100
0010
0000
0100
0000
1000
0000
0010
0100
0010
0000
0100
0000
,
0001
0000
1000
0010
0100
0000
0001
0000
1000
0001
1000
0001
1000
0000
0000
0000
,
0010
0000
1000
0100
1000
0000
0010
0000
0100
0000
0001
0010
0001
0000
1000
0000
,
0010
0000
0100
0001
0010
0000
0100
0000
1000
0100
1000
0001
0010
0000
0000
0000
,
1100
0011
1100
0011
,
0101
1010
0101
1010
,
1000
0000
1000
0100
0010
0000
0001
0000
0100
0010
1000
0010
0100
0000
0001
0000
,
0000
0110
1000
0001
1000
0000
1001
0000
,
1000
0100
1000
0100
1000
0000
0001
0000
0010
0000
0001
0000
0011
0000
0000
0000
,
0001
0100
0001
0100
0001
0000
1000
0000
0010
0000
1000
0000
1010
0000
0000
0000
,
0101
0000
0100
0001
1000
0000
0100
1000
0001
0000
0100
0001
1000
0000
0100
0000
,
1010
0000
0010
1000
0001
0000
0010
0001
1000
0000
0010
1000
0001
0000
0000
0000
,
1000
0010
1000
0010
1000
0000
0001
0000
0100
0000
0001
0000
0101
0000
0000
0000
,
0001
0010
0001
0010
0001
0000
1000
0000
0100
0000
1000
0000
1100
0000
0000
0000
,
0011
0001
0101
0000
1100
1000
1010
0000
,
1100
0100
0101
0000
0011
0010
1010
0000
,
1000
0100
1000
0100
0010
0000
0001
0000
0000
0000
1000
0100
0001
0000
0100
0000
,
0000
0000
1000
0010
0001
0000
0010
0000
1000
0000
0001
0000
1001
0000
0000
0000
,
1000
0010
1000
0010
0100
0000
0001
0000
0010
0100
0010
0100
1000
0000
0001
0000
,
1001
0000
1000
0010
0100
0000
0010
0100
0001
0000
0100
0001
1000
0000
0000
0000
,
0001
0010
0001
0010
0100
0000
1000
0000
0000
0000
0001
0010
1000
0000
0010
0000
,
0000
0000
0001
0100
1000
0000
0100
0000
0001
0000
1000
0000
1001
0000
0000
0000
,
0001
0010
0001
0010
0100
1000
0100
1000
0010
1000
0010
1000
0001
0100
0001
0100
,
0000
0010
0010
0010
0010
0000
1001
0000
,
1000
0000
0010
0100
0010
0000
1000
0000
0100
0010
0001
0100
0010
0000
1000
0000
,
0001
0000
0010
0100
0010
0000
0001
0000
0100
0010
1000
0100
0010
0000
0001
0000
,
1000
0000
0010
0100
0010
0000
1000
0000
0100
0010
0001
1000
0100
0000
0010
0000
,
0011
0000
0000
0001
0100
0000
0000
0100
0010
0000
0000
0010
1000
0000
0000
0000
,
0001
0100
0010
0100
0001
0000
1000
0000
0000
0000
0001
0010
0100
0000
1000
0010
,
0100
0000
0001
0010
0100
0000
1000
0010
0100
0000
0001
0010
0100
0000
1000
0000
,
1010
0000
0100
0001
0100
0000
0100
0000
0011
0000
0100
1000
0100
0000
0100
0000
,
1010
0010
0011
0010
0220
0000
0330
0000
,
1000
0000
0001
0100
0001
0000
0010
0000
0100
0000
1000
0001
1000
0000
0010
0000
,
0100
0000
0001
0010
0000
0001
0100
0000
0110
0000
0000
0000
0010
1000
0100
0010
,
0001
0000
0100
0001
0100
0000
0010
0100
0010
0000
1000
0010
1000
0000
0001
1000
,
0001
0000
0000
0001
0000
0000
0001
0000
0100
0000
0000
0000
1001
0000
0000
0000
,
0001
0000
1000
0010
1000
0000
0100
0000
0010
0000
0001
1000
0001
0000
0100
0000
,
0010
0000
1000
0010
0100
0000
0001
0010
0100
0000
0010
0001
1000
0000
0001
0100
,
0010
1000
0010
1000
0100
0010
0100
0010
,
0001
0100
0010
0001
1000
0100
0010
1000
,
0001
0010
0001
0100
0001
0000
0010
0000
0100
0000
1000
0000
1001
0000
0000
0000
,
1000
0010
1000
0100
1000
0000
0010
0000
0100
0000
0001
0000
1001
0000
0000
0000
,
1000
0000
0100
0001
0100
0000
1000
0100
1000
0000
0010
1000
0010
0000
0001
0010
,
0001
0000
0010
1000
0010
0000
1000
0000
0000
0000
0010
1000
0001
0100
0010
0000
,
1000
0100
1000
0010
1000
0000
0100
0000
0010
0000
0001
0000
1001
0000
0000
0000
,
0001
0100
0001
0010
0001
0000
0100
0000
0010
0000
1000
0000
1001
0000
0000
0000
,
0001
0000
0010
1000
0010
0000
0001
0010
0001
0000
1000
0100
1000
0000
0100
0001
,
0100
1100
1000
0001
1001
0100
0010
0110
,
1001
0000
0001
0010
0100
0000
1000
0000
1001
0000
0001
0100
0010
0000
1000
0000
,
0001
0100
0001
0000
1000
0010
1000
0000
0001
0010
0001
0000
1000
0100
1000
0000
,
1001
0000
0000
0000
0001
0010
0100
1000
0010
0000
0000
0000
0100
0010
1000
0001
,
0010
0000
0000
0000
0100
1000
0001
0100
0010
0000
1000
0001
1000
0000
0010
0000
,
0100
0001
0100
0001
0010
0000
0100
0000
1000
0010
1000
0010
0100
0000
0001
0000
,
1000
0100
0010
0001
1000
0001
0010
0100
1000
0001
0100
0001
1000
0010
1000
0001
,
0100
0000
0000
0000
1001
0000
0000
0000
1000
0100
1000
0100
1000
0000
0000
0000
,
0001
0000
0001
0100
0001
0000
1000
0000
0000
0000
0001
0000
1001
0000
0000
0000
,
0000
0000
0000
0000
;
#NOTES:
     dance-double:
     :
     Easy:
     5:
     :
00000000
00000000
00000000
00000000
,
00000000
00000000
00000000
00000000
,
00000000
00000000
00000000
00000000
,
00000000
00000000
00000000
00000000
,
00000000
00000000
00000000
00000000
,
00000000
00000000
00000000
00000000
,
00001000
00000000
00010000
00000000
,
01000000
01000000
01000000
01000000
,
00010000
00000000
00001000
00000000
,
00022000
00000000
00033000
00000000
,
00001000
00000000
00100000
00000000
,
00010000
01000000
00010000
00000000
,
00100000
00000000
01000000
00000000
,
10000000
00000000
00000000
00000000
,
00100000
00000000
10000000
00000000
,
00010000
00000000
01000000
00000000
,
00010000
00000000
00100000
00000000
,
00001000
00010000
00001000
00000000
,
00010000
00000000
00000010
00000000
,
00001000
00000100
00000010
00000000
,
00000001
00000000
00001000
00000000
,
00000010
00000000
00000000
00000000
,
00001000
00000000
00000100
00000000
,
00010000
00000000
00001000
00000000
,
00100000
00000000
00010000
00000000
,
10000000
00010000
10000000
00000000
,
10000000
10000000
01000000
00000000
,
00100000
00100000
00010000
00000000
,
01000000
00000000
00001000
00000000
,
00011000
00000000
00000000
00000000
,
00000100
00000100
00001000
00000000
,
00000010
00000010
00000100
00000000
,
00000001
00000000
00001000
00000000
,
00001001
00000000
00000000
00000000
,
00000001
00000100
00000001
00000000
,
00001000
00000000
00000000
00000000
,
00000010
00010000
00000010
00000000
,
00010000
00000000
00000000
00000000
,
00001000
01000000
00010000
00000000
,
01000000
00000000
00000000
00000000
,
02200000
00000000
00000000
03300000
,
00000000
00100000
00100000
00000000
,
10000000
01000000
10000000
00000000
,
00010000
00100000
00010000
00000000
,
01000000
00010000
01000000
00000000
,
00001000
00000000
00001000
00000000
,
00020000
00000000
00030000
00000000
,
00000020
00000000
00000030
00000000
,
00001000
00000000
00000100
00000000
,
00000010
00000001
00000010
00000000
,
00000002
00000000
00000000
00000003
,
00000200
00000000
00000000
00000300
,
00000010
00000000
00001000
00000000
,
00000010
00010000
00001000
00000000
,
00020000
00000000
00000000
00030000
,
00002000
00000000
00000000
00003000
,
01000000
00000000
00010000
00000000
,
00100000
01000000
00100000
00000000
,
00020000
00000000
10030000
00000000
,
20000000
00000000
30010000
00000000
,
10000000
00000000
01000000
00000000
,
00100000
00001000
00010000
00000000
,
00002000
00000000
00013000
00000000
,
00020000
00000000
00031000
00000000
,
00010000
00000000
00000010
00000000
,
00000100
00000010
00000100
00000000
,
00000002
00000000
00001003
00000000
,
00000200
00000000
00000310
00000000
,
00001001
00000000
00000000
00000000
,
00000110
00000000
00000000
00000000
,
00000001
00000100
00001000
00000000
,
00010000
00001000
00010000
00000000
,
00001000
00000000
01000000
00000000
,
00100000
01000000
00100000
01100000
,
00000000
00000000
00000000
00000000
;
#NOTES:
     dance-double:
     :
     Medium:
     11:
     :
00000000
00000000
00000000
00000000
,
00000000
00000000
00000000
00000000
,
00000000
00000000
00000000
00000000
,
00000000
00000000
00000000
00000000
,
00000000
00000000
00000000
00000000
,
00000000
00000000
00000000
00000000
,
00011000
00010000
01000000
10000000
,
01000000
00010000
00001000
00000100
,
00000001
00000101
00001000
00001100
,
00000001
00000100
00001000
00010000
,
01000000
10000000
01000000
00000000
00100000
00010000
00100000
00000000
,
00010000
10000000
00100000
01000000
00001000
00010000
00000100
00000000
,
00001000
00000100
00001000
00000000
00000001
00000010
00000001
00000000
,
00000100
00000010
00001000
00000100
00001000
00000010
00000100
00000000
,
00001000
00000000
00001000
00010000
00100000
00000000
00100000
10000000
,
00010000
00000000
00010000
10000000
01000000
00100000
00010000
00000000
,
01000000
00000000
01000000
00001000
00010000
00000000
00010000
00000010
,
00001000
00000100
00001000
00000010
00000100
00000001
00001000
00000000
,
00000001
00000010
00000100
00000000
00001000
00000010
00000100
00000000
,
00000001
00000100
00001000
00010000
00100000
01000000
00100000
00000000
,
10000000
01000000
00100000
00000000
00010000
00100000
01000000
00000000
,
10000000
01000000
00010000
00001000
00000010
00000100
00000010
00000000
,
00000001
00000000
00000100
00000000
00001000
00000100
00000001
00000000
,
00000010
00000000
00001000
00000000
00000010
00000001
00001000
00000000
,
00000100
00010000
00001000
00000000
00010000
00000010
00000100
00001000
,
00000000
00010000
00010000
00001000
00011000
00000000
00000000
00000000
,
00001000
00000000
00000000
00001000
00100000
00000000
00000000
00100000
,
00010000
00000000
00000000
00010000
01000000
00000000
00000000
01000000
,
00100000
10000000
00100000
00010000
,
00001000
00000000
00000100
00000001
00000000
00000001
00001000
00000000
,
00000100
00000000
00000000
00000100
00010000
00000000
00000000
00010000
,
00001000
00000000
01000000
00010000
01000000
00000000
00010000
00100000
,
00010000
01000000
10000000
01000000
,
00100000
01000000
00100000
01000000
00100000
01000000
00100000
00000000
,
10000000
00000000
01000000
00100000
00000000
00001000
00010000
00001000
,
00000000
00010000
00000010
00000000
00000100
00000000
00000110
00000000
,
00000001
00000000
00000100
00000010
00000000
00010000
00001000
00010000
,
00000000
00001000
01000000
00000000
01100000
00000000
10010000
00000000
,
10000000
00000000
00100000
00010000
00000000
00010000
00001000
00010000
,
00000000
00001000
00000010
00000000
00000002
00000000
00000000
00000000
,
00000003
00001000
00000001
00000100
00001000
00000000
00001000
00010000
,
00000000
00010000
00001000
00010000
00001000
00000000
00011000
00000000
,
00010000
00100000
00000000
00010000
00100000
00000000
10000000
00000000
,
01000000
00100000
00000000
01000000
00100000
00000000
00001000
00000000
,
00010000
00000100
00000000
00010000
00000100
00000000
00001000
00000000
,
00000020
00000032
00000023
00002030
,
00003001
00000000
00000100
00000010
00000000
00000010
00010000
00000010
,
00000000
00000010
00010000
00001000
00010000
00000000
00011000
00000000
,
00001000
00100000
00001000
00000000
01000000
00010000
01000000
00000000
,
00100000
10000000
00100000
00000000
20020000
00000000
30030000
00000000
,
10000000
00000000
00100000
01000000
00100000
00000000
00010000
00001000
,
00010000
00000000
00001000
00000010
00001000
00000000
00000010
00000001
,
00002000
00003002
00000203
00002300
,
00013000
00000000
00000000
00010000
00000000
00000000
00010000
00000000
00001000
00000000
00000000
00000000
00011000
00000000
00000000
00000000
,
00010000
00000000
00001000
01000000
00001000
00000000
00100000
00010000
,
00100000
00000000
00010000
01000000
10000000
00000000
01000000
00000000
,
00100000
10000000
01000000
00000000
00100000
00010000
01000000
00000000
,
00100000
00010000
00100000
00010000
00001000
00010000
00001000
00000000
,
00011000
00000000
00010000
00000010
00001000
00000000
00000100
00000010
,
00000001
00000000
00000100
00001000
00000100
00000000
00001000
00010000
,
00002000
00023000
02030000
23000000
,
30010000
00000000
00010000
10000000
00000000
10000000
00100000
00000000
,
10000000
00000000
01000000
00100000
00001000
00000000
01000000
00001000
,
00010000
00000000
00001000
00010000
00000100
00000000
00001000
00000100
,
00000010
00000001
00000010
00000000
00000100
00001000
00000100
00000000
,
00001000
00000010
00000100
00001000
00010000
00100000
10000000
00000000
,
01000000
00000000
00100000
00001000
00010000
00000000
01000000
10000000
,
00010000
00000000
00100000
00001000
00010000
00000000
00000100
00000000
,
00000110
00000000
00001001
00000000
,
00000001
00000100
00000110
00000000
,
00000001
00000000
00000100
00000000
00000001
00000010
00000100
00000000
,
00010000
00000000
00001000
00000000
01000000
00010000
00100000
00000000
,
01000000
00000000
01100000
00000000
10000000
01000000
00010000
00000000
,
00001000
00000010
00000001
00000010
00000000
00001000
00010000
00000000
,
00000000
00000000
00000000
00000000
;
#NOTES:
     dance-double:
     :
     Hard:
     15:
     :
00000000
00000000
00000000
00000000
,
00000000
00000000
00000000
00000000
,
00000000
00000000
00000000
00000000
,
00000000
00000000
00000000
00000000
,
00000000
00000000
00000000
00000000
,
00000000
00000000
00000000
00000000
,
20000000
00000000
00000000
00000000
00000000
01000000
01000000
02000000
,
30000000
00000000
00000000
00020000
00000000
00000000
03030000
00000000
,
00100000
00001000
00010000
00000010
00001000
00000100
00010000
00001000
,
01000000
00010000
00100000
01000000
20000000
00000000
30000000
00000000
,
10000000
00000000
00100000
01000000
00100000
00000000
10000000
00000000
01000000
00000000
00100000
00010000
00100000
00000000
01000000
00000000
,
10000000
00100000
01000000
00001000
00010000
00000010
00001000
00000100
,
00000010
00000000
00000001
00001000
00000001
00000000
00000100
00000000
00000010
00000000
00001000
00000100
00001000
00000000
00000010
00000000
,
00000100
00001000
00010000
00100000
01000000
00010000
00100000
01000000
,
11000000
00110000
11000000
00110000
,
10000000
00000000
00010000
00100000
00010000
00000000
01000000
00000000
00001000
00000000
00010000
00000100
00010000
00000000
00001000
00000000
,
00000010
00000000
00000000
00000000
00000001
00000100
00000001
00000100
00000001
00000000
00000000
00000000
00001000
00000100
00001000
00000100
,
00001000
00000000
00000010
00000000
00000100
00000000
00000010
00000000
00001000
00000000
00000001
00001000
00000001
00000000
00001000
00000000
,
00000001
00000000
00000100
00000010
00000100
00000000
00000001
00000000
00000010
00000000
00000100
00001000
00000100
00000000
00000010
00000000
,
00000001
00000100
00000010
00010000
00001000
01000000
00010000
00100000
,
01000000
00000000
10000000
00010000
10000000
00000000
00100000
00000000
01000000
00000000
00010000
00100000
00010000
00000000
01000000
00000000
,
00100000
00010000
00001000
00000100
00000010
00001000
00000100
00000010
,
00000011
00001100
00000011
00001100
,
00000001
00000000
00001000
00000100
00001000
00000000
00000010
00000000
00010000
00000000
00001000
00100000
00001000
00000000
00010000
00000000
,
01000000
00000000
10000000
00100000
10000000
00000000
01000000
00000000
00100000
00010000
00100000
00000000
00001000
00000000
00010000
00000000
,
00000000
00001000
00001000
00010000
00011000
00000000
00011000
00000000
,
00001000
00010000
00001000
00010000
00000100
00000000
00001000
00000000
00000010
00000000
00000100
00000000
00000110
00000000
00000000
00000000
,
00000001
00000100
00000001
00000100
00000001
00000000
00001000
00000000
00000100
00000000
00010000
00000000
00011000
00000000
00000000
00000000
,
00010000
00000000
00001000
00100000
00010000
00000000
00100000
00010000
01000000
00000000
00100000
01000000
00010000
00000000
10000000
01000000
,
00100000
00000000
00010000
00000000
10000000
00000000
10010000
00000000
00000000
00000000
10000000
01000000
00100000
00000000
00010000
00000000
,
01000000
00100000
01000000
00100000
01000000
00000000
00010000
00000000
00100000
00000000
00001000
00000000
00101000
00000000
00000000
00000000
,
00100000
00001000
00100000
00001000
00010000
00000000
00001000
00000000
00010000
00000000
00000010
00000000
00001010
00000000
00000000
00000000
,
00001000
00000100
00000010
00000000
00000001
00000000
00001000
00000000
00000001
00000100
00000010
00000000
00001000
00000000
00000001
00000000
,
00000100
00000010
00001000
00010000
01000000
00100000
10000000
00010000
,
10000000
00000000
00010000
01000000
00100000
00000000
01000000
00000000
00000000
00000000
00010000
10000000
01000000
00000000
00010000
00000000
,
00000000
00001000
00000010
00000001
00000011
00000000
00001001
00000000
,
00000001
00000000
00001000
00000100
00000010
00000000
00000100
00000000
00000000
00000000
00001000
00000001
00000100
00000000
00001000
00000000
,
00000000
00010000
00100000
10000000
10100000
00000000
01010000
00000000
,
10000000
00000000
00010000
01000000
00010000
00000000
00100000
00000000
01000000
00000000
10000000
01000000
00100000
00000000
00001000
00000000
,
00010000
00000000
00000010
00001000
00000010
00000000
00000100
00000001
00000200
00000000
00000010
00000000
00000310
00000000
00000000
00000000
,
00000000
00000000
00000001
00001000
00000010
00000000
00010000
00001000
00100000
00000000
00010000
01000000
00100000
10000000
00100000
00000000
,
00000000
01000000
01000000
01000000
01000000
00000000
10010000
00000000
,
00010000
00000000
10000000
01000000
10000000
00000000
00100000
00000000
00010000
00001000
00010000
00000000
01000000
00000000
10000000
00000000
,
00000000
00000000
00010000
00100000
00010000
00000000
01000000
00000000
00001000
00010000
00001000
00000000
00100000
00000000
01000000
00000000
,
00000000
00000000
10000000
00010000
10000000
00000000
00100000
00000000
01000000
00001000
01000000
00000000
00010000
00100000
00010000
00000000
,
10000000
00000000
00000000
10000000
01000000
00000000
00000000
01000000
00010000
00000000
00000000
00010000
00001000
00000000
00000000
00001000
,
00000010
00000000
00000001
00000010
00000100
00000000
00001000
00000000
00000000
00000000
00000001
00000010
00000100
00000000
00001000
00000000
,
00000010
00000100
00000001
00000000
00000100
00000000
00000010
00000000
00001000
00000100
00000010
00000000
00000001
00000000
00000100
00000000
,
00001100
00001000
00010000
00100000
10100000
10000000
01000000
00010000
,
00011000
00001000
00011000
00010000
00022000
00000000
00033000
00000000
,
00010000
00000000
00000010
00001000
00000010
00000000
00000100
00000000
00000001
00000000
00000010
00000000
00000100
00000000
00000000
00000000
,
00001000
00000000
00000100
00000001
00000000
00000100
00001000
00000000
00000001
00000000
00000100
00000000
00000010
00000000
00000000
00000000
,
00000010
00000100
00001000
00010000
00100000
01000000
10000000
01000000
,
00010000
00000000
00000000
00010000
00000000
00000000
00010000
00000000
01000000
00000000
00000000
00000000
10010000
00000000
00000000
00000000
,
00010000
00000000
00100000
01000000
10000000
00000000
00100000
00000000
10000000
00000000
01000000
00100000
00010000
00000000
01000000
00000000
,
00001000
00000000
00010000
00001000
00010000
00000000
00000010
00001000
00000010
00000000
00001000
00000100
00001000
00000000
00000001
00000000
,
00000100
00001000
00010000
00000000
00010000
00001000
00000010
00000000
,
00000001
00000010
00001000
00010000
01000000
10000000
00010000
00000000
,
10000000
00000000
00100000
01000000
00010000
00000000
01000000
00000000
00001000
00000000
00010000
00000000
00011000
00000000
00000000
00000000
,
00001000
00000000
00010000
00000010
00000000
00001000
00000100
00000000
00000010
00000000
00000001
00000000
00001001
00000000
00000000
00000000
,
00000001
00000010
00000100
00010000
00000010
00001000
00010000
01000000
,
00100000
00000000
10000000
00100000
01000000
00000000
00010000
00000000
00000000
00000000
00010000
00000000
10000000
01000000
10000000
00000000
,
00100000
00000000
01000000
00001000
01000000
00000000
00010000
00000000
00100000
00000000
01000000
00010000
01000000
00000000
00100000
00000000
,
00101000
00001000
00011000
00000000
00010100
00000100
00001100
00000000
,
00001000
00000010
00000100
00000001
00001000
00000100
00000010
00000001
,
00000200
00000010
00000010
00000010
00000310
00000000
00001001
00000000
,
00000001
00001000
00000010
00000100
00000001
00000010
00000100
00010000
,
00001000
00100000
00010000
01000000
00001000
00010000
00100000
10000000
,
10010000
00000000
00000000
00000000
10000000
01000000
10000000
01000000
00100000
00000000
00000000
00000000
00001000
00010000
00001000
00010000
,
00000100
00000000
00000000
00000000
00000010
00000001
00000010
00000001
00001000
00000000
00000010
00000100
00000010
00000000
00000000
00000000
,
00001000
00000000
00000001
00000010
00000001
00000000
00001000
00000000
00000010
00000000
00000100
00001000
00000100
00000000
00001000
00000000
,
00010000
00000000
00100000
10000000
00100000
00000000
01000000
00000000
00010000
10000000
01000000
00100000
00010000
00000000
00000000
00000000
,
10010000
00000000
01100000
00000000
00010000
10000000
10010000
00000000
,
00100000
00000000
10000000
01000000
00010000
00000000
00001000
00000000
00000000
00000000
00001000
00000000
00011000
00000000
00000000
00000000
,
00000000
00000000
00000000
00000000
;
