
//----- song ID: loea -----//
#TITLE:LOVE EAST;
#ARTIST:㚁Records;
#ARTISTTRANSLIT:Akatsuki Records;
#BANNER:LOVE EAST.png;
#BACKGROUND:LOVE EAST-bg.png;
#CDTITLE:./CDTitles/SDVX HEAVENLY HAVEN.png;
#MUSIC:LOVE EAST.ogg;
#SAMPLESTART:66.787;
#SAMPLELENGTH:15;
#BPMS:0=168;
#NOTES:
     dance-single:
     :
     Beginner:
     3:
     :
0000
0000
0000
0000
,
0000
0000
0000
0000
,
0000
0000
0000
0000
,
0000
0000
0000
0000
,
0000
0000
0000
0000
,
0000
0000
0000
0000
,
0000
0000
0000
0000
,
0000
0000
0000
0000
,
0000
0000
0000
0000
,
1000
0000
0000
0000
,
0001
0000
0000
0000
,
1000
0000
0000
0000
,
0001
0000
0000
0000
,
0010
0000
0000
0000
,
0010
0000
0000
0000
,
0100
0000
0000
0000
,
0100
0000
0000
0000
,
1000
0000
1000
0000
,
1000
0000
0000
0000
,
0001
0000
0001
0000
,
0001
0000
0000
0000
,
0010
0000
0010
0000
,
0010
0000
0000
0000
,
0100
0000
0100
0000
,
0100
0000
0000
0000
,
1001
0000
0000
0000
,
0000
0000
0000
0000
,
1001
0000
0000
0000
,
0000
0000
0000
0000
,
1001
0000
0000
0000
,
0000
0000
0000
0000
,
1001
0000
0000
0000
,
0000
0000
0000
0000
,
0001
0000
0000
0000
,
0000
0000
0000
0000
,
0001
0000
0000
0000
,
0000
0000
0000
0000
,
1000
0000
0000
0000
,
0000
0000
0000
0000
,
1000
0000
0000
0000
,
0000
0000
0000
0000
,
0100
0000
0000
0000
,
0100
0000
0000
0000
,
0010
0000
0000
0000
,
0010
0000
0000
0000
,
0001
0000
0000
0000
,
0001
0000
0000
0000
,
1000
0000
1000
0000
,
0001
0000
0001
0000
,
0010
0000
0010
0000
,
0100
0000
0100
0000
,
1000
1000
0000
0000
,
0000
0000
0000
0000
,
0001
0001
0000
0000
,
0000
0000
0000
0000
,
1000
0000
0001
0000
,
1000
0000
0001
0000
,
0100
0000
0100
0000
,
0010
0000
0010
0000
,
1000
1000
0000
0000
,
0000
0000
0000
0000
,
0001
0001
0000
0000
,
0000
0000
0000
0000
,
1000
1000
0000
0000
,
0000
0000
0000
0000
,
0001
0001
0000
0000
,
0000
0000
0000
0000
,
0010
0000
0000
0000
,
0010
0000
0000
0000
,
0100
0000
0000
0000
,
0100
0000
0000
0000
,
1000
0000
0000
0000
,
1000
0000
0000
0000
,
0001
0000
0000
0000
,
0001
0000
0000
0000
,
0010
0000
0000
0000
,
0010
0000
0000
0000
,
0100
0000
0000
0000
,
0100
0000
0000
0000
,
1000
0000
0000
0000
,
1000
0000
0000
0000
,
0000
0000
0000
0000
;
#NOTES:
     dance-single:
     :
     Easy:
     6:
     :
0000
0000
0000
0000
,
0000
0000
0000
0000
,
0000
0000
0000
0000
,
0000
0000
0000
0000
,
0000
0000
0000
0000
,
0220
0000
0000
0000
,
0000
0000
0000
0330
,
2002
0000
0000
0000
,
0000
0000
0000
3003
,
1000
0000
1000
0000
,
0001
0000
0001
0000
,
0010
0000
0010
0000
,
0001
1000
0001
0000
,
1000
0100
1000
0000
,
0001
0010
0001
0000
,
1000
0001
1000
0001
,
2002
0000
0000
3003
,
0001
0010
0001
1000
,
0001
0010
0001
0000
,
1000
0100
1000
0001
,
1000
0010
1000
0000
,
0001
0100
1000
0100
,
1000
0100
0001
0000
,
1000
0010
0001
0010
,
0001
0010
1000
0000
,
1000
0001
1000
0001
,
0100
0010
0100
0000
,
0010
0100
0010
0100
,
0001
1000
0001
0000
,
0010
0100
0010
0010
,
0001
0001
1000
0000
,
0100
1000
0010
1000
,
0200
0000
0000
0300
,
0020
0000
0000
0000
,
0000
0000
0000
0030
,
0002
0000
0000
0000
,
0000
0000
0000
0003
,
0200
0000
0000
0300
,
0010
0010
0010
0000
,
1000
0100
0010
0000
,
0001
0010
0100
0000
,
1000
0100
0001
0000
,
0110
0000
1001
0000
,
0001
0001
1000
1000
,
0001
0001
1000
1000
,
0010
0010
0010
0010
,
0100
0100
0100
0100
,
1100
0101
1001
0000
,
1000
0100
0010
0100
,
1000
0000
1000
0000
,
0001
0010
0100
1000
,
1100
0101
1001
0000
,
0001
0010
0100
0010
,
0001
0000
0001
0000
,
1000
0100
0010
0001
,
0011
0000
1100
0000
,
0010
0010
1001
0000
,
1010
0000
0101
0000
,
0100
0100
1001
0000
,
1000
0001
1000
0001
,
0010
0010
1001
0000
,
0001
1000
0001
1000
,
0100
0100
1001
0000
,
0010
0100
0010
0100
,
1001
0110
1001
0000
,
0100
0010
0100
0010
,
0110
1001
0110
0000
,
0001
0001
1000
1000
,
1001
0000
1001
0000
,
1000
0100
0010
1000
,
0010
0100
1000
0000
,
0001
0010
0100
0001
,
0100
0010
0001
0000
,
0010
0010
0010
0010
,
0001
1000
0001
0000
,
1000
0000
1000
0000
,
0001
0000
0001
0000
,
0100
0100
0100
0000
,
0010
0000
0010
0000
,
1000
1000
0001
0001
,
0110
0000
0000
0000
,
0000
0000
0000
0000
;
#NOTES:
     dance-single:
     :
     Medium:
     11:
     :
0000
0000
0000
0000
,
0000
0000
0000
0000
,
0000
0000
0000
0000
,
0000
0000
0000
0000
,
0000
0000
0000
0000
,
1000
0100
0000
0010
0001
0010
0000
0001
,
0100
0001
0000
1000
0100
1000
0000
0100
,
0010
0100
0000
0010
0001
0010
0000
1000
,
0010
1000
0000
0010
0100
0010
0000
0001
,
1000
0000
0000
0000
1000
0000
0100
0000
0010
0000
0000
0001
0000
0000
0010
0000
,
0001
0000
0000
0010
0000
0000
0100
0000
1000
0000
0000
0000
0001
0000
0000
0000
,
0100
0000
0000
0000
0001
0000
0100
0000
0010
0000
0000
1000
0000
0000
0010
0000
,
0100
0100
1001
0000
,
0001
0000
0100
0000
0010
1000
0100
0000
,
1000
0100
0001
0100
1000
0000
0100
0010
,
0002
0000
0000
0000
0000
0003
0010
0100
,
2000
0000
0000
0000
0000
0000
0000
3000
,
1100
0000
0100
1000
0100
1000
0010
0001
,
0010
1000
0100
1000
0000
0001
1000
0000
,
0101
0000
0001
0010
0001
0100
1000
0100
,
0001
0000
0010
0010
0000
0100
0100
0000
,
0011
0000
0010
0001
0010
0010
0001
0001
,
1000
0001
0100
0010
0000
1000
0001
0000
,
1001
0000
1100
0000
0100
1000
0000
0001
,
0010
0000
0100
0010
0000
1001
0000
0000
,
1100
0000
0100
1000
0100
0010
0001
0100
,
0010
0001
0010
0100
0000
0001
1000
0000
,
0101
0000
0100
0001
0010
0100
1000
0010
,
0100
1000
0100
0010
0000
1000
0001
0000
,
1100
0000
0011
0000
0010
0001
0100
1000
,
0100
1000
0100
0001
0000
0100
0100
0000
,
1001
0000
1001
0000
0010
0010
0100
0010
,
0200
0000
0000
0300
,
1000
1000
0000
0001
0001
0000
0010
0100
,
0010
0000
0000
0010
0000
0000
0010
0000
0100
0000
0000
0100
0000
0000
0100
0000
,
1000
0001
0010
0001
1000
0000
0010
1000
,
0200
0000
0000
0000
0000
0000
0000
0000
1300
0000
0000
1000
0000
0000
1000
0000
,
0002
0000
0000
0000
0000
0013
0001
0100
,
1000
0100
0001
0010
0100
0000
1000
0010
,
1000
0001
0000
0001
0000
0010
0000
0010
,
0000
0110
0000
0110
0000
1001
0000
1001
,
0000
0011
0000
1100
0000
0101
0000
2020
,
0000
0000
0000
3030
0000
1000
0001
1000
,
0001
0001
0000
1000
0010
0010
0000
1000
,
0100
0100
0000
0010
0100
0100
0000
0010
,
0001
0001
0000
0100
0001
0001
0000
0100
,
0010
0010
1000
1000
0001
0001
0100
0100
,
0001
0100
1000
0100
0001
0000
0000
0100
,
0010
0000
1000
0000
0001
0000
0100
0000
0010
0000
0000
0010
0000
0000
0010
0000
,
2000
0000
3002
0000
,
0103
0000
0000
0100
0000
0000
0100
0000
0010
0000
0010
0000
0010
0000
0000
0000
,
1000
0100
0001
0100
1000
0000
0000
0001
,
1000
0000
0010
0000
0100
0000
0001
0000
1000
0000
0000
1000
0000
0000
1000
0000
,
0020
0000
0230
0000
,
0301
0000
0000
0001
0000
0000
0001
0000
1000
0000
1000
0000
1000
0000
0000
0000
,
0010
0010
0010
0000
0100
0100
0100
0000
,
0101
1100
1001
0000
,
1000
1000
1000
0000
0001
0001
0001
0000
,
0100
0001
0010
0001
0100
0000
0000
0000
,
0011
0101
0011
0101
,
1000
1000
0100
0100
0000
0010
0010
0000
,
1010
1100
1010
1100
,
0001
0001
0010
0010
0000
0100
0100
0000
,
0011
0101
1010
1100
,
1000
0001
0001
1000
0000
0010
0010
0000
,
1010
1100
0011
0101
,
0001
1000
1000
0001
0000
0100
0100
0000
,
0001
0000
0000
0001
0000
0000
0001
0000
1000
0000
0000
1000
0000
0000
1000
0000
,
0020
0000
0030
1001
,
0001
0000
0000
0000
0000
0000
0010
0000
0100
0000
0000
1000
0000
0000
0100
0000
,
0010
0000
0000
0100
0000
0000
1000
0000
0001
0000
0000
0100
0000
0000
0000
0000
,
0010
0000
0000
0000
0000
0000
0100
0000
1000
0000
0000
0100
0000
0000
0001
0000
,
0020
0000
0000
0000
,
0032
0000
0000
0000
0000
0013
1000
0010
,
0001
0100
1000
0100
0001
0000
1000
0100
,
0002
0000
0000
0000
0000
0103
1000
0010
,
0200
0000
0000
0000
0000
0000
0000
0300
,
0001
0001
1000
1000
0010
0000
0000
0100
,
0010
0000
0010
0000
1000
0000
1000
0000
0001
0000
0000
0001
0000
0000
0001
0000
,
2000
0000
0000
0000
0000
3001
0001
0000
,
1001
0000
0000
0000
,
0000
0000
0000
0000
;
#NOTES:
     dance-single:
     :
     Hard:
     15:
     :
0000
0000
0000
0000
,
0000
0000
0000
0000
,
0000
0000
0000
0000
,
0000
0000
0000
0000
,
0000
0000
0000
0000
,
1000
0100
1000
0100
0010
0001
0010
0001
,
1000
0010
1000
0010
0100
0001
0100
0000
,
0001
0100
0001
0100
0010
1000
0010
1000
,
0001
0010
0001
0010
0100
1000
0100
0000
,
1000
0000
0000
0000
1000
0000
0100
0000
0010
0000
0000
0001
0010
0000
0100
0000
,
1000
0000
0000
0100
0010
0000
0001
0000
0010
0000
0100
0000
1000
0000
0000
0000
,
0001
0000
0010
0000
0100
0000
1000
0000
0010
0000
0000
0100
0001
0000
0010
0000
,
0100
0000
1000
0100
1000
0000
0001
0010
0001
0010
0001
0000
0010
0000
0100
0000
,
1000
0100
1000
0010
0001
0010
1000
0100
,
0001
1000
0010
0001
0100
0000
0010
1000
,
0100
0000
0000
0010
0001
0000
0100
0000
0010
0000
0000
1000
0100
0000
0010
0000
,
0001
0010
0001
1000
0100
0100
0100
0000
,
0010
0001
0100
1000
0100
0010
0010
0010
,
0100
0010
1000
0010
0001
0010
0010
0000
,
0100
0001
0010
1000
0010
0100
0100
0100
,
0010
0010
0010
0001
0001
1000
1000
0000
,
1000
0001
0010
0100
0010
0001
1000
1000
,
0001
0001
0100
0001
1000
0001
0100
0000
,
0101
0000
1010
0000
0010
1000
0100
0001
,
0100
0010
0001
1000
0000
1001
0000
0000
,
1010
0000
1001
0001
1000
1000
0010
0100
,
0010
0100
0001
0100
1000
0100
0001
0000
,
0011
0000
1001
1000
0001
0001
0010
0001
,
1000
0100
0001
0100
0010
1000
0010
0001
,
1001
0000
1010
0000
1000
0001
0100
0010
,
1000
0010
0100
0001
0100
0010
0000
0000
,
0110
0000
1001
0000
1000
1000
0001
1000
,
0002
0000
0000
0000
0000
0000
0000
0003
,
1000
0001
1000
0010
0100
0000
0010
1000
,
0100
0000
0000
0000
1000
0000
0100
0000
0011
0000
0000
1001
0000
0000
1001
0000
,
0001
1000
0010
0100
0100
0000
0001
1000
,
0001
0000
0000
0000
0000
0000
0000
0000
0110
0000
0000
1001
0000
0000
0110
0000
,
1001
0000
0001
0000
0001
0100
0001
0010
,
0001
1000
0100
0001
0100
0010
0001
1000
,
0001
0000
1000
0010
1000
0000
0001
0000
1000
0000
0001
0010
0001
0000
1000
0000
,
0001
0000
1000
0100
1000
0000
0001
0000
1000
0000
0001
0100
0001
0000
1000
0000
,
0010
0000
1000
0100
1000
0000
0100
0000
0010
0000
0001
0100
0001
0000
0100
0000
,
1000
0100
0000
0100
0000
0100
1000
0100
,
0001
0000
0100
1000
0100
0000
0010
0000
1000
0000
0010
0001
0010
0000
0100
0000
,
0001
0000
0100
1000
0100
0000
0010
0000
1000
0000
0010
0001
0010
0000
0100
0000
,
0001
0000
0010
0100
1000
0000
0010
0000
0100
0000
0001
0010
0100
0000
1000
0000
,
0010
0000
0100
0001
0010
0000
0100
0000
1000
0000
0010
0000
0010
0000
0010
0000
,
1000
0000
0001
0000
1000
0001
0010
0000
0100
0000
0000
0000
0000
0000
1000
0000
,
0001
0000
1000
0100
1000
0001
0010
0001
0010
0000
0000
0110
0000
0000
0010
0000
,
0002
0000
0000
0000
0000
0000
1003
0000
2000
0000
0000
0000
0000
0000
3001
0010
,
0001
0000
0000
0001
0000
0000
0001
0000
0010
0100
0010
0100
1000
0000
0000
0000
,
0010
0000
1000
0001
0100
0001
1000
0000
0010
0000
0000
0000
0000
0000
1000
0000
,
0001
0000
0010
0100
0010
0001
0010
0001
0010
0000
0000
0110
0000
0000
0010
0000
,
0002
0000
0000
0000
0000
0000
1003
0000
2000
0000
0000
0000
0000
0000
3001
0100
,
0001
0000
0000
0001
0000
0000
0001
0000
1000
0010
1000
0010
0100
0000
0000
0000
,
0001
0010
0100
0010
0001
0000
0000
0000
1000
0100
0010
0100
1000
0000
0000
0000
,
1000
0000
1000
0100
1000
0000
0001
0010
0001
0000
0000
0000
0000
0000
0001
1000
,
0001
0100
0010
0100
0001
0000
0000
0000
1000
0010
0100
0010
1000
0000
0001
0000
,
1000
0000
0010
0100
0010
0000
0100
0010
0100
0000
0000
0000
0110
0000
0000
0000
,
1001
0000
0000
0010
0001
0000
0001
0000
0100
0000
0000
1000
0100
0000
0100
0000
,
0001
0010
0010
0010
0000
0001
0001
0001
,
0001
0000
0000
0100
1000
0000
1000
0000
0100
0000
0000
0001
0010
0000
0010
0000
,
1000
0010
0010
0010
0000
0001
0001
0001
,
0001
0000
0000
0010
0100
0000
0100
0000
1000
0000
0000
0100
0001
0000
0001
0000
,
0100
1000
1000
1000
0000
0011
0010
0010
,
0010
0000
0000
0001
0100
0000
0100
0000
0010
0000
0000
0100
1000
0000
1000
0000
,
0100
0001
0001
0001
0000
0010
0100
0010
,
0010
0000
0000
0010
0000
0000
0010
0000
0100
0000
0000
0100
0000
0000
0100
0000
,
0100
0000
0010
0001
1000
0001
1000
0001
0010
0000
0000
0010
0000
0000
0010
0000
,
2001
0000
0000
0000
0000
0000
3010
0000
0200
0000
0000
0001
0000
0000
0310
0000
,
2000
0000
0000
0001
0000
0000
3100
0000
0020
0000
0000
0031
0000
0000
0000
0000
,
1000
0000
0100
0000
1000
0000
0100
0000
0010
0000
0000
0001
0000
0000
0010
0000
,
0001
0000
1000
0001
1000
0000
0010
0100
0010
0100
0010
0100
0010
0000
0000
0000
,
1001
0000
1100
1000
1000
0100
0100
0100
,
0010
0100
1000
1000
0001
0000
1000
0100
,
0001
0000
0001
0100
1000
0000
0010
1000
,
0100
0000
0100
0100
1001
0000
1001
0000
,
1000
0000
0001
0010
0001
0000
0001
0000
0011
0000
0000
0000
0000
0000
1000
0000
,
0001
0000
0010
0100
1000
0100
0010
0100
1000
0000
0000
1000
0000
0000
1000
0000
,
0010
0100
0000
0100
0000
0100
0100
0100
,
1001
0000
0000
0000
,
0000
0000
0000
0000
;
#NOTES:
     dance-double:
     :
     Easy:
     6:
     :
00000000
00000000
00000000
00000000
,
00000000
00000000
00000000
00000000
,
00000000
00000000
00000000
00000000
,
00000000
00000000
00000000
00000000
,
00000000
00000000
00000000
00000000
,
02200000
00000000
00000000
00000000
,
00000000
00000000
00000000
03300000
,
20020000
00000000
00000000
00000000
,
00000000
00000000
00000000
30030000
,
10000000
00000000
10000000
00000000
,
00010000
00000000
00010000
00000000
,
00100000
00000000
00100000
00000000
,
00001000
00010000
00001000
00000000
,
00000100
00000010
00000100
00000000
,
00000001
00000010
00000001
00000000
,
00001000
00000001
00001000
00000001
,
00002002
00000000
00000000
00003003
,
00000001
00000010
00000001
00001000
,
00000100
00001000
00000100
00000000
,
00010000
00001000
00010000
00100000
,
01000000
00100000
01000000
00000000
,
00010000
01000000
10000000
01000000
,
10000000
01000000
00010000
00000000
,
00100000
01000000
00010000
00001000
,
00000010
00000100
00001000
00000000
,
00000001
00001000
00000001
00000000
,
00000100
00000010
00000100
00000000
,
00000010
00000100
00000010
00000100
,
00001000
00010000
00001000
00000000
,
00010000
00100000
00010000
00010000
,
00001000
00001000
00010000
00000000
,
00001000
00010000
01000000
00010000
,
00002000
00000000
00000000
00003000
,
00020000
00000000
00000000
00000000
,
00000000
00000000
00000000
00030000
,
02000000
00000000
00000000
00000000
,
00000000
00000000
00000000
03000000
,
00020000
00000000
00000000
00030000
,
00001000
00001000
00001000
00000000
,
00010000
00001000
00000100
00000000
,
00000001
00000010
00001000
00000000
,
00010000
01000000
10000000
00000000
,
01100000
00000000
10010000
00000000
,
10000000
10000000
00010000
00010000
,
00100000
00100000
00001000
00001000
,
00010000
00010000
00010000
00010000
,
00001000
00001000
00001000
00001000
,
00011000
00011000
00011000
00000000
,
00001000
00010000
01000000
00010000
,
00001000
00000000
00000100
00000000
,
00000010
00000100
00001000
00010000
,
00011000
00011000
00011000
00000000
,
00010000
00100000
01000000
00100000
,
00010000
00000000
00001000
00000000
,
00000010
00000001
00001000
00000100
,
00001100
00000000
00011000
00000000
,
00001000
00010000
01000000
00000000
,
11000000
00000000
00110000
00000000
,
01000000
01000000
10010000
00000000
,
10000000
00010000
10000000
00010000
,
00100000
00100000
00011000
00000000
,
00010000
00001000
00010000
00001000
,
00000100
00000001
00000011
00000000
,
00000010
00000001
00000100
00001000
,
00010000
01000000
10000000
00000000
,
01000000
10000000
00100000
00010000
,
00001000
00000100
00000001
00000000
,
00000001
00000001
00001000
00001000
,
00000110
00000000
00001001
00000000
,
00000001
00000100
00001000
00010000
,
00100000
10000000
01000000
00000000
,
10000000
01000000
00010000
00001000
,
00000010
00000001
00000100
00000000
,
00001000
00001000
00001000
00001000
,
00010000
00001000
00010000
00000000
,
00100000
00000000
00100000
00000000
,
01000000
00000000
01000000
00000000
,
00010000
00010000
00010000
00000000
,
00100000
00000000
00100000
00000000
,
00001000
00001000
00010000
00010000
,
00011000
00000000
00000000
00000000
,
00000000
00000000
00000000
00000000
;
#NOTES:
     dance-double:
     :
     Medium:
     11:
     :
00000000
00000000
00000000
00000000
,
00000000
00000000
00000000
00000000
,
00000000
00000000
00000000
00000000
,
00000000
00000000
00000000
00000000
,
00000000
00000000
00000000
00000000
,
10000000
01000000
00000000
00100000
00010000
00100000
00000000
00001000
,
00010000
00001000
00000000
00000010
00000001
00000010
00000000
00000001
,
00000100
00000001
00000000
00001000
00000010
00001000
00000000
00000100
,
00010000
00000100
00000000
00100000
00001000
00100000
00000000
00010000
,
01000000
00000000
00000000
00000000
00001000
00000000
00010000
00000000
00001000
00000000
00000000
00000010
00000000
00000000
00000100
00000000
,
00001000
00000000
00000000
00000001
00000000
00000000
00000010
00000000
00000100
00000000
00000000
00000000
00000010
00000000
00000000
00000000
,
00001000
00000000
00000000
00000000
00010000
00000000
00001000
00000000
00100000
00000000
00000000
00010000
00000000
00000000
00100000
00000000
,
01000000
01000000
10010000
00000000
,
10000000
00000000
01000000
00000000
00010000
00001000
00000100
00000000
,
00000001
00000010
00001000
00010000
01000000
00000000
00100000
00001000
,
00020000
00000000
00000000
00000000
00000000
00030000
00000010
00010000
,
00002000
00000000
00000000
00000000
00000000
00000000
00000000
00003000
,
00011000
00000000
00010000
00001000
00010000
00001000
00000100
00000001
,
00000100
00001000
00010000
00001000
00000000
00100000
01000000
00000000
,
11000000
00000000
01000000
10000000
01000000
00010000
00001000
00000010
,
00001000
00000000
00010000
00010000
00000000
00001000
00001000
00000000
,
00010100
00000000
00000100
00000010
00000001
00000001
00001000
00001000
,
00000100
00010000
00001000
00100000
00000000
00010000
10000000
00000000
,
10010000
00000000
11000000
00000000
01000000
00010000
00000000
00001000
,
00000010
00000000
00000001
00000100
00000000
00011000
00000000
00000000
,
00101000
00000000
00001000
00010000
01000000
00010000
00001000
00000010
,
00000001
00000100
00001000
00010000
00000000
00001000
00010000
00000000
,
00010010
00000000
00010000
00001000
00000100
00000010
00000100
00001000
,
00000100
00000001
00000100
00001000
00000000
00010000
00100000
00000000
,
01100000
00000000
10010000
00000000
10000000
00010000
10000000
00100000
,
01000000
00100000
00010000
00001000
00000000
00000100
00000100
00000000
,
00000110
00000000
00001001
00000000
00000001
00000001
00001000
00000001
,
00002000
00000000
00000000
00003000
,
00001000
00001000
00000000
00000100
00000100
00000000
00010000
00001000
,
00010000
00000000
00000000
00010000
00000000
00000000
00010000
00000000
00001000
00000000
00000000
00001000
00000000
00000000
00001000
00000000
,
00010000
01000000
10000000
00100000
00010000
00000000
00001000
00010000
,
00002000
00000000
00000000
00000000
00000000
00000000
00000000
00000000
00013000
00000000
00000000
00010000
00000000
00000000
00010000
00000000
,
00000200
00000000
00000000
00000000
00000000
00000310
00000001
00001000
,
00000001
00000100
00000010
00000100
00001000
00000000
00010000
00001000
,
00010000
00100000
00000000
00100000
00000000
10000000
00000000
10000000
,
00000000
01000000
00000000
01000000
00000000
00010000
00000000
00010000
,
00000000
00001000
00000000
00001000
00000000
00000100
00000000
00000220
,
00000000
00000000
00000000
00000330
00000000
00000010
00000100
00000010
,
00000100
00000100
00000000
00001000
00010000
00010000
00000000
00100000
,
10000000
10000000
00000000
01000000
00010000
00010000
00000000
00001000
,
00000010
00000010
00000000
00000001
00000100
00000100
00000000
00001000
,
00010000
00100000
10000000
01000000
00100000
00010000
00100000
01000000
,
10000000
01000000
00010000
00001000
00000010
00000000
00000000
00000001
,
00000100
00000000
00000010
00000000
00000100
00000000
00001000
00000000
00010000
00000000
00000000
00010000
00000000
00000000
00010000
00000000
,
00200000
00000000
02300000
00000000
,
03001000
00000000
00000000
00001000
00000000
00000000
00001000
00000000
00010000
00000000
00010000
00000000
00010000
00000000
00000000
00000000
,
00001000
00010000
00000100
00010000
00001000
00000000
00000000
00010000
,
00000010
00000000
00001000
00000000
00000100
00000000
00010000
00000000
00001000
00000000
00000000
00001000
00000000
00000000
00001000
00000000
,
00020000
00000000
00032000
00000000
,
00003010
00000000
00000000
00000010
00000000
00000000
00000010
00000000
00000001
00000000
00000001
00000000
00000001
00000000
00000000
00000000
,
00000100
00001000
00010000
00000000
00010000
00001000
00000100
00000000
,
00000101
00001100
00001001
00000000
,
00000001
00000100
00001000
00000000
00010000
00100000
10000000
00000000
,
01000000
00100000
00010000
00100000
01000000
00000000
00000000
00000000
,
10000000
00100000
00010000
00001000
,
00010000
00010000
00001000
00001000
00000000
00010000
00010000
00000000
,
00001000
00000010
00000001
00000100
,
00001000
00001000
00010000
00010000
00000000
00001000
00001000
00000000
,
00010000
00000100
00001000
00000010
,
00001000
00000001
00000001
00001000
00000000
00000100
00000100
00000000
,
00010000
00001000
00100000
00010000
,
10000000
00010000
00010000
10000000
00000000
01000000
01000000
00000000
,
00100000
00000000
00000000
00100000
00000000
00000000
00100000
00000000
00001000
00000000
00000000
00001000
00000000
00000000
00001000
00000000
,
00020000
00000000
00030000
00011000
,
00001000
00000000
00000000
00000000
00000000
00000000
00000010
00000000
00000100
00000000
00000000
00001000
00000000
00000000
00000001
00000000
,
00000100
00000000
00000000
00001000
00000000
00000000
00010000
00000000
00100000
00000000
00000000
00010000
00000000
00000000
00000000
00000000
,
00001000
00000000
00000000
00000000
00000000
00000000
00000100
00000000
00000001
00000000
00000000
00000010
00000000
00000000
00001000
00000000
,
00020000
00000000
00000000
00000000
,
00032000
00000000
00000000
00000000
00000000
00013000
00100000
10000000
,
00100000
00010000
00001000
00000100
00000001
00000000
00000100
00001000
,
00020000
00000000
00000000
00000000
00000000
00130000
10000000
01000000
,
00020000
00000000
00000000
00000000
00000000
00000000
00000000
00030000
,
00001000
00000100
00000001
00000100
00001000
00000000
00000000
00010000
,
00100000
00000000
00100000
00000000
10000000
00000000
10000000
00000000
00010000
00000000
00000000
00010000
00000000
00000000
00010000
00000000
,
20000000
00000000
00000000
00000000
00000000
30100000
00100000
00000000
,
01100000
00000000
00000000
00000000
,
00000000
00000000
00000000
00000000
;
#NOTES:
     dance-double:
     :
     Hard:
     15:
     :
00000000
00000000
00000000
00000000
,
00000000
00000000
00000000
00000000
,
00000000
00000000
00000000
00000000
,
00000000
00000000
00000000
00000000
,
00000000
00000000
00000000
00000000
,
10000000
00010000
10000000
00100000
01000000
00100000
00010000
00001000
,
00010000
00001000
00000010
00001000
00000010
00000100
00000010
00000000
,
00000100
00000010
00000100
00000010
00001000
00000010
00001000
00010000
,
00001000
00010000
00100000
00010000
00100000
01000000
00100000
00000000
,
10000000
00000000
10000000
00100000
00010000
00100000
01000000
00100000
,
10000000
00100000
00010000
00001000
00000100
00000001
00000010
00000000
,
00000010
00000001
00000100
00001000
00000100
00000001
00000100
00001000
,
00010000
00000000
00100000
01000000
00100000
00000000
00010000
00001000
00010000
00001000
00010000
00000000
00001000
00000000
00010000
00000000
,
01000000
10000000
01000000
00010000
01000000
00100000
00010000
00001000
,
00000100
00010000
00001000
00000100
00000001
00000000
00000010
00000001
,
00000100
00000000
00000000
00001000
00010000
00000000
00100000
00000000
10000000
00000000
00000000
01000000
00010000
00000000
00001000
00000000
,
00000010
00000001
00000100
00001000
00010000
00010000
00010000
00000000
,
00001000
00010000
00001000
01000000
00100000
00010000
00010000
00010000
,
00001000
00000010
00000001
00000100
00001000
00000100
00000100
00000000
,
00000010
00000100
00001000
00010000
00100000
01000000
01000000
01000000
,
00100000
00010000
00001000
00000100
00000100
00000010
00000010
00000000
,
00001000
00000001
00000010
00000100
00000010
00000001
00000100
00000100
,
00001000
00001000
00010000
01000000
00010000
00001000
00000010
00000000
,
00000110
00000000
00001001
00000000
00000001
00000100
00001000
00010000
,
00100000
00010000
00001000
00010000
00000000
00011000
00000000
00000000
,
00010100
00000000
00001010
00000010
00000100
00000100
00001000
00010000
,
00001000
00010000
01000000
10000000
01000000
00010000
01000000
00000000
,
01100000
00000000
10010000
10000000
00100000
00100000
00010000
00001000
,
00000100
00000001
00000100
00001000
00010000
00001000
00000100
00000010
,
00000110
00000000
00001010
00000000
00001000
00000100
00010000
00001000
,
00100000
00010000
00001000
00000100
00000010
00000100
00000000
00000000
,
00000110
00000000
00001001
00000000
00001000
00001000
00000001
00001000
,
00000002
00000000
00000000
00000000
00000000
00000000
00000000
00000003
,
00000001
00000010
00001000
00010000
01000000
00000000
10000000
01000000
,
00010000
00000000
00000000
00000000
00001000
00000000
00000010
00000000
00000001
00000000
00000000
00000010
00000000
00000000
00001000
00000000
,
00100000
00001000
00010000
00000100
00000100
00000000
00010000
00001000
,
00010000
00000000
00000000
00000000
00000000
00000000
00000000
00000000
00010000
00000000
00000000
00010000
00000000
00000000
00010000
00000000
,
00100000
00000000
00100000
00000000
00100000
00010000
00001000
00000010
,
00001000
00010000
00100000
00010000
00001000
00000100
00001000
00010000
,
00001000
00000000
00010000
00001000
00010000
00000000
00000010
00000000
00010000
00000000
00001000
00010000
00001000
00000000
00100000
00000000
,
00001000
00000000
00010000
00001000
00010000
00000000
00000100
00000000
00010000
00000000
00001000
00010000
00001000
00000000
01000000
00000000
,
00001000
00000000
00010000
00001000
00010000
00000000
00001000
00000000
00000000
00000000
00001000
00000000
00000000
00000000
00000100
00000000
,
00000000
00000010
00000000
00000001
00000000
00000010
00000100
00001000
,
00010000
00000000
00100000
01000000
00100000
00000000
00010000
00000000
00001000
00000000
00000100
00000010
00000100
00000000
00001000
00000000
,
00010000
00000000
00100000
01000000
00100000
00000000
00010000
00000000
00001000
00000000
00000100
00000010
00000100
00000000
00000001
00000000
,
00000010
00001000
00010000
00100000
10000000
01000000
00010000
00001000
,
00000100
00000001
00000010
00001000
00010000
00001000
00001000
00001000
,
00100000
00000000
00001000
00000000
00010000
00000100
00001000
00000000
00000010
00000000
00000000
00000000
00000000
00000000
00001000
00000000
,
00000001
00000000
00000010
00000000
00000100
00000010
00000000
00000001
00000010
00000000
00000000
00000010
00000000
00000000
00000010
00000000
,
00002000
00000000
00000000
00003000
00020000
00000000
00000000
00030000
,
00001000
00000000
00000000
00001000
00000000
00000000
00001000
00000000
00010000
00001000
00010000
00001000
00010000
00000000
00000000
00000000
,
00001000
00000000
00010000
00001000
00000000
00100000
00010000
00000000
01000000
00000000
00000000
00000000
00000000
00000000
00010000
00000000
,
10000000
00000000
00100000
00000000
01000000
00100000
00000000
00100000
01000000
00000000
00000000
01000000
00000000
00000000
01000000
00000000
,
00002000
00000000
00000000
00003000
00020000
00000000
00000000
00030000
,
00000010
00000000
00000000
00000010
00000000
00000000
00000010
00000000
00000100
00000010
00000100
00000010
00000100
00000000
00000000
00000000
,
00000001
00000000
00001000
00000010
00001000
00000000
00000000
00000000
00000100
00000000
00010000
00001000
00010000
00000000
00000000
00000000
,
00100000
00000000
01000000
00100000
01000000
00000000
00010000
01000000
00010000
00000000
00000000
00000000
00000000
00000000
10000000
01000000
,
10000000
00000000
00100000
01000000
00100000
00000000
00000000
00000000
00010000
00000000
00001000
00010000
00000010
00000000
00001000
00000000
,
00000001
00000000
00000100
00001000
00010000
00000000
00001000
00010000
00200000
00000000
00000000
00000000
00300000
00000000
00000000
00000000
,
10010000
00000000
00000000
10000000
00010000
00000000
00000000
01000000
00100000
00000000
00000000
10000000
00010000
00000000
00000000
01000000
,
00100000
01000000
01000000
01000000
00000000
00001000
00010000
00001000
,
00010000
00000000
00000000
00000100
00000010
00000000
00000000
00000001
00001000
00000000
00000000
00000100
00000010
00000000
00000000
00000010
,
00000001
00001000
00000001
00000001
00000000
00000010
00000010
00000010
,
00000010
00000000
00000000
00000001
00000010
00000000
00000000
00000100
00001000
00000000
00000000
00010000
00100000
00000000
00000000
01000000
,
10000000
00100000
00100000
00100000
00000000
10000000
01000000
00100000
,
00010000
00000000
00000000
10000000
01000000
00000000
00000000
00100000
00010000
00000000
00000000
00001000
00000100
00000000
00000000
00000010
,
00000001
00000100
00000100
00000100
00000000
00001000
00010000
00001000
,
00001000
00000000
00000000
00001000
00000000
00000000
00001000
00000000
00010000
00000000
00000000
00010000
00000000
00000000
00010000
00000000
,
00011000
00000000
00010000
00001000
00100000
00001000
00010000
00000010
00001000
00000000
00000000
00001000
00000000
00000000
00001000
00000000
,
00000002
00000000
00000000
00000000
00000000
00000000
00000103
00000000
00002000
00000000
00000000
00010000
00000000
00000000
00003100
00000000
,
00000020
00000000
00000000
00001000
00000000
00000000
00010030
00000000
00002000
00000000
00000000
00013000
00000000
00000000
00000000
00000000
,
00011000
00000000
00000000
00000000
00001000
00000000
00010000
00000000
00100000
00000000
00000000
10000000
00000000
00000000
00100000
00000000
,
00010000
00001000
00000100
00010000
00001000
00010000
01000000
00000000
,
01100000
00000000
01010000
01000000
01000000
00100000
00010000
00001000
,
00000100
00000001
00000010
00001000
00010000
00000000
00100000
00010000
,
00001000
00000000
00001000
00010000
01000000
00000000
10000000
01000000
,
00100000
00010000
01000000
00100000
00010000
00001000
00100000
00010000
,
00001000
00000000
00000100
00000010
00000100
00000000
00000100
00000000
00000110
00000000
00000000
00000000
00000000
00000000
00000010
00000000
,
00001000
00000000
00010000
00001000
00010000
00001000
00010000
00001000
00010000
00000000
00000000
00010000
00000000
00000000
00010000
00000000
,
00000010
00010000
00001000
00100000
00001000
00010000
00000100
00010000
,
00011000
00000000
00000000
00000000
,
00000000
00000000
00000000
00000000
;
