
//----- song ID: kyou -----//
#TITLE:鏡花水月楼 (DDR EDITION);
#ARTIST:TЁЯRA feat.宇宙戦隊NOIZ;
#TITLETRANSLIT:Kyoka suigetsurou (DDR EDITION);
#ARTISTTRANSLIT:TЁЯRA feat.Uchuusentai NOIZ;
#BANNER:Kyoka suigetsurou (DDR EDITION).png;
#BACKGROUND:Kyoka suigetsurou (DDR EDITION)-bg.png;
#CDTITLE:./CDTitles/DDR Furu Furu Party.png;
#MUSIC:Kyoka suigetsurou (DDR EDITION).ogg;
#SAMPLESTART:61.029;
#SAMPLELENGTH:15;
#BPMS:0=175;
#STAGE:27;
#NOTES:
     dance-single:
     :
     Beginner:
     2:
     :
0000
0000
0000
0000
,
0000
0000
0000
0000
,
0000
0000
0000
0000
,
0000
0000
0000
0000
,
0000
0000
0000
0000
,
0000
0000
0000
0000
,
0000
0000
0000
0000
,
0001
0000
0000
0000
,
0100
0000
0000
0000
,
0010
0000
0000
0000
,
0010
0000
0000
0000
,
0000
0000
0000
0000
,
1000
0000
0000
0000
,
1000
0000
0000
0000
,
0100
0000
0000
0000
,
0000
0000
0000
0000
,
0010
0000
0000
0000
,
0100
0000
0000
0000
,
0010
0000
0000
0000
,
0000
0000
0000
0000
,
0001
0000
0000
0000
,
0001
0000
0000
0000
,
0100
0000
0000
0000
,
0000
0000
0000
0000
,
0001
0000
0000
0000
,
0001
0000
0000
0000
,
0010
0000
0000
0000
,
0010
0000
0000
0000
,
0100
0000
0000
0000
,
0010
0000
0000
0000
,
0100
0000
0000
0000
,
0000
0000
0000
0000
,
1000
0000
0000
0000
,
1000
0000
0000
0000
,
0100
0000
0000
0000
,
0100
0000
0000
0000
,
0010
0000
0000
0000
,
0100
0000
0000
0000
,
0010
0000
0000
0000
,
0000
0000
0000
0000
,
1001
0000
0000
0000
,
0000
0000
0000
0000
,
1001
0000
0000
0000
,
0000
0000
0000
0000
,
0000
0000
0000
0000
,
0001
0000
0100
0000
,
0001
0000
0000
0000
,
0010
0000
0000
0000
,
0000
0000
0000
0000
,
0010
0000
0010
0000
,
0001
0000
0000
0000
,
0100
0000
0000
0000
,
0000
0000
0000
0000
,
1000
0000
0010
0000
,
1000
0000
0000
0000
,
1000
0000
0000
0000
,
0000
0000
0000
0000
,
1000
0000
1000
0000
,
0100
0000
0000
0000
,
0010
0000
0000
0000
,
0000
0000
0000
0000
,
1001
0000
0000
0000
,
0000
0000
0000
0000
,
1001
0000
0000
0000
,
0000
0000
0000
0000
,
0001
0000
0000
0000
,
0010
0000
0000
0000
,
0100
0000
0000
0000
,
0000
0000
0000
0000
,
2000
0000
0000
0000
,
3000
0000
0000
0000
,
0002
0000
0000
0000
,
0003
0000
0000
0000
,
1001
0000
0000
0000
,
0000
0000
0000
0000
;
#NOTES:
     dance-single:
     :
     Easy:
     6:
     :
0000
0000
0000
0000
,
0000
0000
0000
0000
,
0000
0000
0000
0000
,
0000
0000
0000
0000
,
0000
0000
0000
0000
,
0000
0000
0000
0000
,
0000
0000
0000
0000
,
1000
0010
0100
0000
,
0010
0100
0001
0000
,
1000
0100
0010
0001
,
2000
0000
0000
0000
,
3000
0000
0000
0000
,
1000
1000
0010
1000
,
0100
0010
0001
0000
,
0001
0001
0010
0001
,
0100
0010
1000
0000
,
1000
0100
0010
0100
,
1000
0100
0010
0000
,
0001
0100
0010
0100
,
0001
0100
0010
0000
,
1000
0010
0100
0001
,
0010
0100
1000
0000
,
0001
0100
0010
1000
,
0100
0100
0100
0000
,
1000
0000
0000
0001
0000
0000
1000
0000
,
0000
0001
0000
0000
1000
0000
0100
0000
,
0010
0001
0100
0001
,
0010
0010
0010
0000
,
0001
0000
0000
1000
0000
0000
0001
0000
,
0000
1000
0000
0000
0001
0000
0100
0000
,
0010
1000
0100
1000
,
0010
0010
0010
0000
,
1000
0000
0000
0100
0000
0000
0010
0000
,
0000
0001
0000
0000
1000
0000
0001
0000
,
0100
0010
1000
0001
,
1000
0010
0100
0000
,
0001
0000
0000
0010
0000
0000
0100
0000
,
0000
1000
0000
0000
0001
0000
1000
0000
,
0010
0100
0001
0010
,
0100
1000
0001
0000
,
1000
0000
0000
1001
0000
0000
0000
0000
,
0001
0000
0000
1001
0000
0000
0000
0000
,
0001
0100
0001
0100
,
0010
0000
0000
0010
1000
0000
0000
0000
,
0000
0000
0000
0000
,
1000
0100
1000
0100
,
0010
0001
1000
0001
,
0100
0001
0100
0001
,
0010
0100
0010
0001
,
1000
0100
0010
0001
,
0100
0010
0100
0010
,
0220
0000
0000
0330
,
2002
0000
0000
3003
,
0001
0010
0001
0010
,
0100
1000
0001
1000
,
0010
1000
0010
1000
,
0100
0010
0100
1000
,
0001
0010
0100
1000
,
0010
0100
0010
0100
,
0220
0000
0000
0330
,
2002
0000
0000
3003
,
1000
0000
0100
0000
,
0001
0100
1000
0000
,
0001
0000
0100
0000
,
1000
0100
0001
0000
,
1000
0000
0010
0000
,
0001
0010
1000
0000
,
0001
0000
0010
0000
,
1000
0010
0001
0000
,
1000
0100
0010
0001
,
1000
0010
0100
0001
,
1000
0001
1000
0000
,
1001
0000
0110
0000
,
1001
0000
0000
0000
,
0000
0000
0000
0000
;
#NOTES:
     dance-single:
     :
     Medium:
     11:
     :
0000
0000
0000
0000
,
0000
0000
0000
0000
,
0000
0000
0000
0000
,
0000
0000
0000
0000
,
0000
0000
0000
0000
,
0000
0000
0000
0000
,
0000
0000
0000
0000
,
0002
0000
0003
0000
,
2000
0000
3000
0000
,
0001
0100
0010
1000
,
0100
0010
0100
0010
0000
0110
0000
2002
,
0000
0000
0000
3003
,
0001
0100
0100
0001
0010
0010
0000
0000
,
0001
0100
0101
0000
1000
0100
1100
0000
,
1000
0010
0010
1000
0100
0100
0000
0000
,
1000
0100
1100
0000
0001
0101
0000
0000
,
0001
0010
0010
0001
0100
0100
0000
0000
,
0001
0010
0011
0000
1000
0010
1010
0000
,
1000
0100
0100
1000
0010
0010
0000
0000
,
1000
0010
1010
0000
0001
0010
0001
0010
,
0001
0100
0100
0010
1000
1000
0000
0000
,
1000
0010
0110
0000
0001
0010
0110
0000
,
1000
0010
0010
0100
0001
0001
1000
0000
,
0010
0000
0000
0100
0000
0000
0010
0000
1001
0000
0000
0000
0000
0000
0000
0000
,
1000
0000
0100
0010
0000
0001
0010
0000
,
0001
1000
0000
0010
1000
0100
1000
0000
,
0001
0000
0100
0010
0000
1000
0010
0000
,
1000
0001
0000
1000
0100
0010
0100
0010
,
0001
0000
1000
0010
0000
0100
0001
0000
,
1000
0001
0000
0100
0010
1000
0010
0000
,
1000
0000
0100
0010
0000
0001
1000
0000
,
0001
0010
0100
0000
1000
0001
1000
0001
,
1000
0000
0001
0010
0000
1000
0010
0000
,
0001
1000
0000
0001
0010
0000
0100
1000
,
0001
0000
1000
0100
0000
0001
0100
0000
,
1000
0001
0000
0100
0010
1000
0010
0100
,
0010
0000
1000
0001
0000
0010
1000
0000
,
0010
0001
0000
1000
0100
0000
1000
0010
,
0100
0010
1000
0000
0100
0010
0001
0000
,
1001
0000
0000
1000
0002
0000
0003
0000
,
0001
0010
0100
1000
0000
1000
0001
0000
,
1000
0100
0010
0001
0000
0001
1000
0001
,
1000
0000
0000
1000
0010
0000
0100
0000
,
0110
0000
0000
0001
2000
0000
0000
0000
,
3000
0000
0001
1000
,
0001
0000
0100
0010
0000
0100
0010
0000
,
1000
0100
0010
0001
0000
1000
0000
0001
,
1000
0000
0010
0100
0000
0010
0100
0000
,
0001
0100
0010
1000
0000
0100
0000
1000
,
0010
0000
0100
0010
0000
0100
0010
0000
,
1000
0000
0100
0001
0000
0100
1000
0001
,
2000
0010
0100
3010
,
1010
0000
0000
0101
0000
0000
1001
0000
,
1000
0000
0100
0010
0000
0100
0010
0000
,
0001
0100
0010
1000
0000
0001
0000
1000
,
0001
0000
0010
0100
0000
0010
0100
0000
,
1000
0100
0010
0001
0000
0100
0000
0001
,
0010
0000
0100
0010
0000
0100
0010
0000
,
0001
0000
0100
1000
0000
0100
0001
1000
,
0002
0010
0100
0013
,
0001
0100
0001
1000
0000
1010
0000
1000
,
0001
0001
0000
0100
0100
0000
0010
0010
,
0000
1000
1000
0000
1001
0000
0000
0000
,
1000
1000
0000
0100
0100
0000
0010
0010
,
0000
0001
0001
0000
1001
0000
0000
0000
,
0001
0001
0000
1000
1000
0000
0100
0100
,
0000
0010
0010
0000
0110
0000
0000
0000
,
1000
1000
0000
0001
0001
0000
0100
0100
,
0000
0010
0010
0000
0110
0000
1001
0000
,
1000
0100
1000
0000
0001
0100
0001
0000
,
1000
0100
0010
0001
0100
0010
1000
0100
,
0010
0001
0010
0001
0100
0010
0100
0010
,
1000
1010
0001
0011
,
1001
0000
0000
0000
,
0000
0000
0000
0000
;
#NOTES:
     dance-single:
     :
     Hard:
     14:
     :
0000
0000
0000
0000
,
0000
0000
0000
0000
,
0000
0000
0000
0000
,
0000
0000
0000
0000
,
0000
0000
0000
0000
,
0000
0000
0000
0000
,
0000
0000
0000
0000
,
0002
0000
0103
0000
,
2000
0000
3100
0000
,
0001
0010
0001
0000
1000
0010
1000
0000
,
0001
0100
0010
1000
0000
1010
0000
2002
,
0000
0000
0000
3003
,
1000
0100
0100
0001
0010
0100
0000
0110
,
0010
0001
1000
0100
0001
0100
1000
0000
,
0001
0100
0100
1000
0010
0100
0000
0110
,
0010
1000
0010
0000
0100
0001
0100
0000
0001
0000
1001
0000
0000
0000
0000
0000
,
0001
0010
0010
1000
0100
0010
0000
0110
,
0100
1000
0001
0010
1000
0010
0001
0000
,
1000
0010
0010
0001
0100
0010
0000
0110
,
0100
0001
0100
0000
0010
1000
0010
0000
1000
0000
0010
0000
0001
0000
0010
0000
,
1000
0100
0001
0001
0010
1000
0010
0001
,
1000
0100
0110
0001
1001
1000
1001
0000
,
0001
0000
1000
0010
0100
0000
0010
0100
0001
0000
1000
0100
0010
0000
0001
0000
,
1000
0000
0000
1100
0000
0000
0010
0000
2002
0000
0000
0000
3003
0000
0000
0000
,
0001
0100
0100
0010
0100
0100
1000
0100
,
0100
0010
0100
0100
0001
0010
0100
1000
,
0001
0010
1000
0001
0100
1000
0001
0010
,
1000
0010
0001
1000
0100
0001
1000
0010
,
0001
0010
0010
0100
0010
0010
1000
0010
,
0010
0100
0010
0010
0001
0100
0010
1000
,
0001
0100
1000
0001
0010
1000
0001
0100
,
0010
0000
1000
0000
0010
0000
1000
0000
0001
0000
0100
0000
0001
1000
0001
0000
,
1000
0100
0100
0010
0100
0100
0001
0100
,
0100
0010
0100
0100
1000
0010
0100
0001
,
1000
0010
0001
1000
0100
0001
1000
0010
,
0001
0010
1000
0001
0100
1000
0001
0010
,
1000
0010
0010
0100
0010
0010
0001
0010
,
0010
0100
0010
0010
1000
0100
0010
0001
,
1000
0100
0001
1000
0010
0001
1000
0100
,
0010
0000
0001
0010
0001
0000
1000
0000
0100
0000
1000
0001
1000
0000
0000
0000
,
0001
0100
0010
1010
0000
1000
0100
0100
,
1000
0100
0010
0011
0000
0001
1000
0001
,
2000
0000
0000
3010
0200
0000
0302
0000
,
1003
0000
0000
2000
0002
0000
0000
0000
,
3003
0000
0110
1001
,
1000
0000
0100
0000
0010
0000
0011
0000
0000
0000
0001
1000
0100
0000
1000
0000
,
0010
0000
0100
0000
0001
0000
0101
0000
0000
0000
1000
0100
0010
0000
0001
0000
,
1000
0000
0100
0000
1000
0000
1100
0000
0000
0000
0001
1000
0010
0000
0100
0000
,
0001
0000
1000
0000
0010
0000
1010
0000
0000
0000
1000
0100
0010
0000
0010
0000
,
0001
0000
0100
0000
0010
0000
0110
0000
0000
0000
0001
0100
0001
0000
0010
0000
,
0100
0000
1000
0000
0001
0000
1001
0000
0000
0000
1000
0010
1000
0000
0100
0000
,
0001
0100
0001
0100
1000
0010
1000
0010
,
1010
0000
0100
0000
0001
0000
0101
0000
0000
0000
1001
0000
0001
1000
0001
1000
,
0001
0000
0010
0000
0100
0000
1001
0000
0000
0000
1000
0001
0010
0000
0001
0000
,
0100
0000
0010
0000
1000
0000
0110
0000
0000
0000
0001
0010
0100
0000
1000
0000
,
0001
0000
0010
0000
0001
0000
1010
0000
0000
0000
1000
0001
0100
0000
0010
0000
,
1000
0000
0001
0000
0100
0000
0011
0000
0000
0000
0001
0010
0100
0000
0100
0000
,
1000
0000
0010
0000
0100
0000
1001
0000
0000
0000
1000
0010
1000
0000
0100
0000
,
0010
0000
0001
0000
1000
0000
0101
0000
0000
0000
0001
0100
0001
0000
0010
0000
,
0110
0000
0100
0000
1000
0000
0010
0000
0100
0000
0000
0001
0100
0000
0000
0001
,
2000
0000
0000
0000
0000
0000
0000
0000
3000
0000
0000
0000
0001
1000
0001
1000
,
0001
0011
0000
1000
1010
0000
1100
1001
,
0000
0011
0001
1000
1001
0000
0000
0000
,
1000
1010
0000
0001
0011
0000
0101
1001
,
0000
1010
1000
0001
1001
0000
0110
0000
,
1000
0000
0100
0010
0100
0000
0010
0000
0001
0000
0100
0010
0100
0000
0010
0000
,
1000
1000
1001
0001
1001
1000
1001
0000
,
2000
0100
0100
3100
0020
0001
0001
0031
,
0200
0010
0010
0310
0110
0000
1001
0000
,
0001
0000
0100
0000
0001
0000
0100
0000
0001
0000
0010
0000
0001
0000
1000
0100
,
1000
0000
0010
0100
0010
0000
0100
0001
0100
0000
0001
1000
0001
0000
0100
0010
,
1000
0010
1000
0000
0001
0100
0001
0000
1000
0001
1000
0000
0100
0010
0100
0000
,
1000
0100
0010
0001
0010
0100
1000
0001
0100
1000
0100
0001
,
1000
0000
0000
0000
,
0000
0000
0000
0000
;
#NOTES:
     dance-double:
     :
     Easy:
     7:
     :
00000000
00000000
00000000
00000000
,
00000000
00000000
00000000
00000000
,
00000000
00000000
00000000
00000000
,
00000000
00000000
00000000
00000000
,
00000000
00000000
00000000
00000000
,
00000000
00000000
00000000
00000000
,
00000000
00000000
00000000
00000000
,
10000000
01000000
10000000
00000000
,
01000000
00100000
01000000
00000000
,
00100000
00001000
00100000
00001000
,
00020000
00000000
00000000
00000000
,
00030000
00000000
00000000
00000000
,
00001000
00010000
00001000
00010000
,
00000100
00001000
00000010
00000000
,
00001000
00000001
00001000
00000001
,
00000010
00000100
00001000
00000000
,
00000100
00010000
00000100
00010000
,
00001000
00010000
00001000
00000000
,
01000000
00010000
01000000
00010000
,
00100000
01000000
10000000
00000000
,
10000000
01000000
10000000
00100000
,
01000000
00010000
00100000
00000000
,
00001000
00010000
00001000
00100000
,
00001000
00001000
00001000
00000000
,
00010000
00000000
00000000
00001000
00000000
00000000
00010000
00000000
,
00000000
00001000
00000000
00000000
00010000
00000000
00000100
00000000
,
00001000
00000100
00000010
00000001
,
00000100
00000100
00000100
00000000
,
00000001
00000000
00000000
00001000
00000000
00000000
00000001
00000000
,
00000000
00001000
00000000
00000000
00000001
00000000
00000100
00000000
,
00000010
00001000
00000010
00010000
,
00001000
00001000
00001000
00000000
,
00100000
00000000
00000000
00010000
00000000
00000000
00100000
00000000
,
00000000
00010000
00000000
00000000
00100000
00000000
01000000
00000000
,
10000000
01000000
10000000
00100000
,
01000000
00010000
01000000
00000000
,
00010000
00000000
00000000
00100000
00000000
00000000
00010000
00000000
,
00000000
00100000
00000000
00000000
00001000
00000000
00010000
00000000
,
00001000
00000010
00000001
00001000
,
00000100
00000010
00000001
00000000
,
00000010
00000000
00000000
00000110
00000000
00000000
00000000
00000000
,
00010000
00000000
00000000
00011000
00000000
00000000
00000000
00000000
,
01000000
00000000
01100000
00000000
,
10000000
00000000
00000000
00010000
10000000
00000000
00000000
00000000
,
00000000
00000000
00000000
00000000
,
10000000
01000000
10000000
00100000
,
10000000
01000000
00010000
00001000
,
00000010
00000001
00000100
00000001
,
00000010
00000100
00001000
00000010
,
00000100
00000001
00000100
00001000
,
00010000
00100000
10000000
00100000
,
02000000
00000000
00000000
03000000
,
00010000
00000000
00000000
10010000
00000000
00000000
00000000
00000000
,
00010000
10000000
00010000
00100000
,
01000000
10000000
01000000
00100000
,
00001000
00010000
00001000
00000010
,
00000001
00001000
00000100
00000010
,
00000001
00000100
00001000
00010000
,
00100000
01000000
00100000
00010000
,
00002000
00000000
00000000
00003000
,
00020000
00000000
00000000
00030000
,
00001000
00010000
00001000
00000010
,
00000001
00000010
00000001
00000000
,
00000001
00000100
00000010
00000100
,
00001000
00010000
00001000
00000000
,
00010000
00001000
00010000
00100000
,
10000000
00100000
10000000
00000000
,
00100000
10000000
01000000
00100000
,
00010000
00100000
00001000
00000000
,
00001000
00001000
00010000
00000100
,
00001000
00001000
00000010
00000100
,
00000001
00000100
00001000
00010000
,
00100000
00000000
01100000
00000000
,
10010000
00000000
00000000
00000000
,
00000000
00000000
00000000
00000000
;
#NOTES:
     dance-double:
     :
     Medium:
     12:
     :
00000000
00000000
00000000
00000000
,
00000000
00000000
00000000
00000000
,
00000000
00000000
00000000
00000000
,
00000000
00000000
00000000
00000000
,
00000000
00000000
00000000
00000000
,
00000000
00000000
00000000
00000000
,
00000000
00000000
00000000
00000000
,
20000000
00000000
30000000
00000000
,
02000000
00000000
03000000
00000000
,
00100000
00001000
00010000
00000100
,
00001000
00000100
00000010
00000001
00000000
00001000
00000000
00002002
,
00000000
00000000
00000000
00003003
,
00000001
00000100
00000100
00000010
00000100
00000100
00000000
00000000
,
00000010
00001000
00000010
00000000
00010000
00001000
00010000
00000000
,
00001000
01000000
01000000
00010000
01000000
01000000
00000000
00000000
,
00100000
01000000
00100000
00000000
10000000
00010000
00000000
00000000
,
10000000
01000000
01000000
00100000
01000000
01000000
00000000
00000000
,
00100000
00010000
00100000
00000000
00001000
00010000
00001000
00000000
,
00010000
00000100
00000100
00001000
00000100
00000100
00000000
00000000
,
00000010
00000100
00000010
00000000
00000001
00001000
00000001
00001000
,
00000010
00000100
00000100
00000010
00010000
00010000
00000000
00000000
,
00001000
00100000
00010000
00000000
00100000
00010000
01000000
00000000
,
00100000
10000000
00100000
10000000
00010000
01000000
00010000
01000000
,
00001000
00000000
00000000
00010000
00000000
00000000
00001000
00000000
00011000
00000000
00000000
00000000
00000000
00000000
00000000
00000000
,
00010000
00000000
00000100
00001000
00000000
00000100
00000010
00000000
,
00000001
00000010
00000000
00000001
00001000
00000001
00001000
00000000
,
00000001
00000000
00000100
00000010
00000000
00001000
00000010
00000000
,
00001000
00000100
00000000
00010000
00000100
00010000
00001000
00010000
,
00001000
00000000
00100000
00010000
00000000
00100000
01000000
00000000
,
10000000
01000000
00000000
10000000
00010000
10000000
00010000
00000000
,
01000000
00000000
00100000
10000000
00000000
00100000
01000000
00000000
,
00010000
00100000
00010000
00000000
00100000
00001000
00100000
00000000
,
00001000
00000000
00010000
00000100
00000000
00001000
00000010
00000000
,
00000100
00000001
00000000
00000010
00000001
00000000
00000100
00000010
,
00000100
00000000
00000001
00000010
00000000
00000100
00001000
00000000
,
00000100
00010000
00000000
00001000
00100000
00010000
00100000
01000000
,
00100000
00000000
00010000
10000000
00000000
01000000
00100000
00000000
,
00010000
01000000
00000000
00100000
00010000
00000000
00001000
00010000
,
00001000
00000000
00010000
00000100
00000000
00000100
00001000
00000010
,
00001000
00000000
00000000
00001000
00000002
00000000
00000003
00000000
,
00000001
00000100
00000001
00000100
00000000
00000010
00001000
00000000
,
00000010
00010000
00001000
00010000
00000000
00001000
01000000
00010000
,
01000000
00000000
00000000
00100000
01000000
00000000
01100000
00000000
,
10010000
00000000
00000000
00010000
20000000
00000000
00000000
00000000
,
30000000
00000000
10000000
00010000
,
10000000
00000000
01000000
00100000
00000000
01000000
00100000
00000000
,
00010000
00100000
00001000
00010000
00000100
00001000
00000010
00000000
,
00001000
00000000
00000010
00000100
00000000
00000010
00000100
00000000
,
00000010
00000100
00001000
00010000
00100000
01000000
00100000
00000000
,
10000000
00000000
00100000
01000000
00000000
00100000
01000000
00000000
,
00010000
00100000
01000000
00100000
00001000
00010000
00000100
00001000
,
00000020
00001000
00000200
00000330
,
00001001
00000000
00000000
00000110
00000000
00000000
00001001
00000000
,
00000001
00000000
00000010
00000100
00000000
00000010
00000100
00000000
,
00001000
00000100
00010000
00001000
00100000
00010000
01000000
00000000
,
00010000
00000000
01000000
00100000
00000000
01000000
00100000
00000000
,
01000000
00100000
00010000
00001000
00000100
00000010
00000100
00000000
,
00000001
00000000
00000100
00000010
00000000
00000100
00000010
00000000
,
00001000
00000100
00000010
00000100
00010000
00001000
00100000
00010000
,
02000000
00010000
00200000
03300000
,
10000000
00100000
01000000
00010000
00000000
00100000
00000000
00002000
,
00010000
00000000
00000000
00000010
00000000
00000000
00010000
00000000
,
00000000
00100000
00000000
00000000
00013000
00000000
00000000
00000000
,
00021000
00000000
00000000
01000000
00000000
00000000
00001000
00000000
,
00000000
00000100
00000000
00000000
00031000
00000000
00000000
00000000
,
00001000
00010000
00000010
00000000
00001000
00000100
00000010
00000000
,
00000001
00000100
00000010
00000100
00001000
00010000
00000000
00000000
,
00010000
00001000
00100000
00000000
00010000
01000000
00100000
00000000
,
10000000
01000000
00100000
01000000
00010000
00000000
00011000
00000000
,
00001000
00000000
00000010
00000000
00000001
00001000
00000001
00000000
,
00000010
00000001
00000100
00000010
00001000
00000100
00010000
00001000
,
00100000
00010000
01000000
00100000
10000000
01000000
00100000
00010000
,
01010000
00000000
00001100
00000000
,
00011000
00000000
00000000
00000000
,
00000000
00000000
00000000
00000000
;
#NOTES:
     dance-double:
     :
     Hard:
     15:
     :
00000000
00000000
00000000
00000000
,
00000000
00000000
00000000
00000000
,
00000000
00000000
00000000
00000000
,
00000000
00000000
00000000
00000000
,
00000000
00000000
00000000
00000000
,
00000000
00000000
00000000
00000000
,
00000000
00000000
00000000
00000000
,
20000000
00000000
31000000
00000000
,
00200000
00000000
00310000
00000000
,
00001000
00000100
00000010
00000001
,
00000001
00000100
00000010
00010000
00000000
00001000
00000000
00022000
,
00000000
00000000
00000000
00033000
,
00001000
01000000
01000000
00010000
00100000
00100000
00000000
01100000
,
01000000
10000000
00100000
01000000
00010000
00100000
00001000
00010000
,
00000100
00001000
00001000
00000010
00000100
00000100
00000000
00000110
,
00000100
00000001
00000010
00000100
00001000
00001001
00000000
00000000
,
00000001
00000100
00000100
00001000
00010000
00010000
00000000
00011000
,
00001000
00100000
00010000
01000000
10000000
01000000
00010000
00000000
,
10000000
01000000
01000000
00010000
00001000
00001000
00000000
00011000
,
00010000
00000010
00001000
00000100
00000001
00000100
00001000
00000000
,
00000001
00000010
00000010
00001000
00010000
00010000
00000000
00011000
,
00001000
00010000
01000000
10000000
00010000
10000000
10010000
00000000
,
10000000
01000000
00100000
00010000
00001000
00000100
00000010
00000001
,
00000100
00000000
00000000
00000010
00000000
00000000
00000110
00000000
00002002
00000000
00000000
00000000
00003003
00000000
00000000
00000000
,
00000001
00000100
00000100
00000010
00001000
00001000
00000100
00010000
,
00010000
00001000
00100000
00100000
00010000
01000000
00100000
00010000
,
00001000
00000100
00000010
00001000
00000100
00000010
00001000
00010000
,
01000000
00100000
00010000
10000000
01000000
10000000
00010000
00000000
,
10000000
01000000
01000000
00100000
00010000
00010000
01000000
00001000
,
00001000
00010000
00000010
00000010
00001000
00000100
00000010
00001000
,
00010000
01000000
00100000
00010000
01000000
00100000
00010000
00001000
,
00000100
00000010
00001000
00000001
00000100
00000001
00001000
00000000
,
00000001
00000100
00000100
00001000
00000100
00000100
00000001
00000010
,
00000010
00001000
00000010
00000010
00000001
00000100
00000010
00001000
,
00010000
01000000
00100000
10000000
00100000
01000000
00001000
00010000
,
00001000
00100000
00010000
01000000
00100000
10000000
00010000
00000000
,
10000000
00100000
00100000
00010000
00100000
00100000
10000000
01000000
,
01000000
00010000
01000000
01000000
10000000
01000000
00100000
00010000
,
00001000
00000100
00000010
00000001
00000010
00000100
00010000
00001000
,
00010000
00000010
00001000
00000100
00000010
00000001
00001000
00000000
,
00000001
00000100
00000010
00010010
00000000
00010000
00001000
00100000
,
01000000
10000000
00100000
01100000
00000000
10000000
01000000
00010000
,
00001000
00000000
00000010
00000001
00000010
00000000
00001000
00000000
,
00010000
00000000
00000000
01000000
20000000
00000000
00000000
00000000
,
00000000
00000000
00010000
30010000
,
10000000
00000000
00100000
00000000
01000000
00000000
00010000
00000000
00000000
00000000
00100000
00001000
00100000
00000000
00001000
00000000
,
00010000
00100000
01000000
00001000
00010000
00100000
01000000
00001000
,
00010000
00000000
00001000
00000000
00000010
00000000
00000001
00000000
00000000
00000000
00001000
00000001
00001000
00000000
00000010
00000000
,
00010000
00000100
00000010
00001000
00010000
00000100
00000010
00001000
,
00010000
00000000
00000010
00000000
00000100
00000000
00001000
00000000
00000000
00000000
00010000
00001000
00010000
00000000
00001000
00000000
,
01000000
00001000
00010000
00100000
01000000
00001000
00010000
00100000
,
01000000
10000000
01000000
00010000
00100000
00001000
00010000
00000100
,
00001100
00000000
00001000
00000000
00000010
00000000
00000110
00000000
00000000
00000000
00001001
00000000
00000001
00001000
00000001
00001000
,
00000001
00000000
00000010
00000000
00000100
00000000
00000110
00000000
00000000
00000000
00000010
00000001
00000010
00000000
00000100
00000000
,
00001000
00000100
00010000
00001000
00000100
00001000
00010000
00100000
,
01000000
00000000
00100000
00000000
10000000
00000000
10100000
00000000
00000000
00000000
00100000
01000000
00100000
00000000
10000000
00000000
,
01000000
00100000
00001000
00010000
00001000
00100000
01000000
10000000
,
00100000
00000000
00010000
00000000
00001000
00000000
00011000
00000000
00000000
00000000
00010000
00000100
00001000
00000000
00000010
00000000
,
00000100
00001000
00010000
00001000
00000010
00000001
00001000
00000100
,
00000010
00000001
00000010
00000000
00000100
00000010
00000100
00000000
00001000
00000000
00000000
00000100
00010000
00000000
00000000
00001000
,
00020000
00000000
00000000
00000000
00000000
00000000
00000000
00000000
00030000
00000000
00000000
00000000
00001000
00010000
00001000
00010000
,
00001000
00001000
01000000
00010000
00010000
01000000
10000000
10000000
,
01000000
00010000
00110000
00100000
00101000
00000000
00011000
00000000
,
00010000
00010000
00000100
00001000
00001000
00000100
00000001
00000001
,
00000100
00001000
00001010
00000010
00010010
00000000
00011000
00000000
,
00001000
00010000
00100000
00100000
10000000
01000000
00010000
00010000
,
00001000
00000010
00000001
00000010
00001000
00010000
00001000
00000100
,
00000001
00000100
00001000
00010000
00100000
01000000
00001000
00010000
,
01000000
00100000
00001000
00010000
00000100
00000000
00000011
00000000
,
00000001
00000000
00000100
00000000
00000001
00000000
00000100
00000000
00000010
00000000
00001000
00000000
00000010
00000000
00001000
00000100
,
00001000
00000000
00000100
00010000
00000100
00000000
00010000
00001000
00010000
00000000
00001000
00100000
00001000
00000000
00100000
00010000
,
00100000
01000000
00100000
00000000
01000000
10000000
01000000
00000000
10000000
00100000
10000000
00000000
00010000
10000000
00010000
00000000
,
10000000
01000000
00010000
01000000
00010000
00001000
00010000
00001000
00000010
00001000
00000010
00000001
,
00001000
00000000
00000000
00000000
,
00000000
00000000
00000000
00000000
;
