
//----- song ID: chon -----//
#TITLE:恋の氷結おてんば湯けむりチルノ温泉;
#ARTIST:uno & 夕野ヨシミ feat. miko;
#TITLETRANSLIT:Koi no hyoketsu otenba yukemuri Cirno onsen;
#ARTISTTRANSLIT:uno & Yoshimi Youno feat. miko;
#BANNER:Koi no hyoketsu otenba yukemuri Cirno onsen.png;
#BACKGROUND:Koi no hyoketsu otenba yukemuri Cirno onsen-bg.png;
#CDTITLE:./CDTitles/DDR A3.png;
#MUSIC:Koi no hyoketsu otenba yukemuri Cirno onsen.ogg;
#SAMPLESTART:70.646;
#SAMPLELENGTH:15;
#BPMS:0=100,13=98.039,15=85.96,15.5=69.93,16=58.91,20=188,86=94,102=188,166=94,174=188,238=94,254=57;
#NOTES:
     dance-single:
     :
     Beginner:
     2:
     :
0000
0000
0000
0000
,
0000
0000
0000
0000
,
0000
0000
0000
0000
,
0000
0000
0000
0000
,
0000
0000
0000
0000
,
0000
0000
0001
0000
,
0000
0000
0100
0000
,
0000
0000
0001
0000
,
0000
0000
0000
0000
,
0000
0000
1000
0000
,
0000
0000
0100
0000
,
0000
0000
1000
0000
,
0000
0000
0000
0000
,
0000
0000
0001
0000
,
0000
0000
0010
0000
,
0000
0000
0001
0000
,
0000
0000
0000
0000
,
0000
0000
1000
0000
,
0000
0000
0010
0000
,
0000
0000
1000
0000
,
0000
0000
0000
0000
,
0000
0000
0001
0000
,
0001
0000
0001
0000
,
0000
0000
1000
0000
,
1000
0000
1000
0000
,
0000
0000
1000
0000
,
1000
0000
0010
0000
,
0000
0000
1001
0000
,
0000
0000
0000
0000
,
0000
0000
0001
0000
,
0001
0000
0010
0000
,
0000
0000
1001
0000
,
0000
0000
0000
0000
,
0000
0000
1000
0000
,
0010
0000
0100
0000
,
0000
0000
0100
0000
,
0100
0000
0010
0000
,
0000
0000
0100
0000
,
0010
0000
0001
0000
,
0000
0000
0001
0000
,
0100
0000
0001
0000
,
0000
0000
1001
0000
,
0000
0000
0000
0000
,
0000
0000
0001
0000
,
0000
0000
0001
0000
,
0000
0000
0010
0000
,
0100
0000
0010
0000
,
0000
0000
0100
0000
,
0000
0000
0100
0000
,
0000
0000
1001
0000
,
0000
0000
0000
0000
,
0000
0000
1000
0000
,
0000
0000
1000
0000
,
0000
0000
0010
0000
,
0100
0000
0010
0000
,
0000
0000
0100
0000
,
0000
0000
0100
0000
,
0000
0000
1001
0000
,
0000
0000
0000
0000
,
0000
0000
0002
0000
,
0003
0000
0001
0000
,
0010
0000
2000
0000
,
3000
0000
1000
0000
,
0100
0000
0001
0000
,
0000
0000
0000
0000
;
#NOTES:
     dance-single:
     :
     Easy:
     7:
     :
0000
0000
0000
0000
,
0000
0000
0000
0000
,
0000
0000
0000
0000
,
0000
0000
0000
0000
,
0000
0000
0000
0000
,
0000
0000
1000
1000
,
0100
0100
0010
0001
,
0010
0000
0001
0001
,
0100
0100
0010
1000
,
0010
0000
1000
1000
,
0001
0001
0100
0010
,
0100
0000
0001
0001
,
1000
1000
0100
0010
,
0110
0000
0000
0000
0001
0010
0000
0000
,
0001
0010
0000
0000
0100
1000
0000
1001
,
0000
0000
1000
0100
,
0001
0100
1000
1000
,
1000
0000
0000
0000
0000
1000
0010
0000
,
1000
0010
0100
0001
,
1001
0000
0001
0100
,
1000
0100
0001
0001
,
0001
0000
2000
3000
,
0200
0300
0020
0030
,
0002
0000
0003
0000
0001
0001
0100
0000
,
0100
0100
0010
0000
0010
0010
1000
0000
,
1000
1000
0001
0000
0001
0000
0100
0000
,
0001
0000
0010
0000
0001
0100
0001
0000
,
1000
0100
1000
0000
1100
0000
0000
0000
,
0011
0000
0101
0000
,
1010
0000
0001
0010
,
0100
0000
1000
0000
0001
0010
0001
0000
,
1000
0010
1000
0000
0100
0000
0010
0000
,
0110
0000
1000
0001
,
1001
0000
1000
0100
,
1000
0000
0010
0000
1000
0100
1000
0000
,
0001
0100
0001
0000
0101
0000
0000
0000
,
1010
0000
1100
0000
,
0011
0000
1000
0010
,
0100
0000
0001
0000
1000
0010
1000
0000
,
0001
0010
0001
0000
0100
0000
0010
0000
,
0110
0000
0001
1000
,
1001
0000
0002
0103
,
2000
0000
3100
0000
1000
0001
1000
0001
,
2002
3003
0001
0100
,
0010
0100
0010
0000
1000
0000
0010
0000
,
0001
0010
1000
1000
,
0001
0001
0200
0010
,
0010
0310
0100
0001
,
1000
0001
1000
0000
0100
0000
0001
0000
,
0100
1000
0001
0010
,
0001
0100
0001
0000
2002
0000
0000
0000
,
0000
3003
1000
0100
,
0010
0100
0010
0000
0001
0000
0010
0000
,
1000
0010
0001
0001
,
1000
1000
0200
0010
,
0010
0310
0100
1000
,
0001
1000
0001
0000
0100
0000
1000
0000
,
0100
0001
1000
0010
,
1000
0100
1000
0000
2002
0000
0000
0000
,
0000
0000
3003
0000
0002
0000
0013
0100
,
1000
1000
1000
0000
2000
0000
3010
0100
,
0001
0001
0001
0000
1000
0100
0010
0000
,
0001
0100
0010
0000
1000
0010
1000
0010
,
0100
0001
0100
0000
2002
0000
0000
0000
,
3003
0000
0000
0000
,
0000
0000
0000
0000
;
#NOTES:
     dance-single:
     :
     Medium:
     12:
     :
0000
0000
0000
0000
,
0000
0000
0000
0000
,
0000
0000
0000
0000
,
0000
0000
0000
0000
,
0000
0000
0000
0000
,
0000
0000
0000
0000
1000
0100
1000
0000
,
0001
0100
0001
0000
1000
0100
1000
0000
,
0001
0000
0001
0000
1000
0010
1000
0000
,
0001
0010
0001
0000
1000
0010
1000
0000
,
0001
0010
0001
0000
1000
0010
1000
0010
,
0100
0000
0100
0000
0001
0000
0010
0100
,
0010
0000
0110
0000
1000
0100
0010
0001
,
0100
0010
1000
0010
0000
0000
0000
0000
,
0000
0000
0000
0000
1000
0010
0000
1000
,
0010
0001
0000
0010
1000
0001
0000
1001
,
0000
0001
1000
0001
0000
0100
0001
0010
,
0011
0000
0011
0000
0001
0100
1000
0100
,
0002
0000
0000
0000
1003
0100
0010
0001
,
1000
0100
0010
0001
0100
0000
0110
0000
,
1000
0000
0001
0000
1000
0000
0000
0000
0001
0000
0000
0000
0100
0010
0100
0000
,
0010
0010
0010
0000
0000
0000
,
0000
0000
0000
0000
0000
0000
0000
0000
1000
0001
1000
0000
0001
1000
0001
0000
,
1000
0100
0010
0001
0010
0100
1000
0000
0001
1000
0001
0000
1000
0001
1000
0000
,
0001
0100
0010
1000
0010
0100
0001
0000
1000
0100
1000
0100
0001
0100
1000
0000
,
0001
0100
0001
0100
1000
0100
0001
0000
1000
0010
0001
0000
0001
0010
1000
0001
,
0000
0000
0000
0000
0001
0001
0100
0100
,
0010
0010
1000
1000
0100
0010
0110
0000
,
0001
0000
1000
0000
1001
0000
0000
0000
0001
1000
0000
0000
0001
0000
0010
0000
,
0100
0000
0010
0000
0001
0000
0000
0000
1000
0001
0000
0000
1000
0000
0010
0000
,
0100
0010
1000
0000
0001
1000
0010
0100
,
0001
0001
1000
1000
0100
0100
0100
0100
,
0100
0100
0100
0100
0100
0010
0001
1000
,
0100
0010
0110
0000
0100
1000
0001
0010
,
0100
1000
1001
0000
1000
1000
0010
0010
,
0100
0100
0001
0001
0010
0100
0110
0000
,
1000
0000
0001
0000
1001
0000
0000
0000
1000
0001
0000
0000
1000
0000
0100
0000
,
0010
0000
0100
0000
1000
0000
0000
0000
0001
1000
0000
0000
0001
0000
0100
0000
,
0010
0100
0001
0000
1000
0001
0100
0010
,
1000
1000
0001
0001
0010
0010
0010
0010
,
0010
0010
0010
0010
0010
0100
1000
0001
,
0010
0100
0110
0000
0010
0001
1000
0100
,
0010
0001
1001
0000
0002
0000
0100
0103
,
2000
0000
0100
0000
0100
0000
3100
0000
1000
0100
1000
0100
0010
0001
0010
0001
,
2000
0000
0000
3000
1000
0000
0100
1000
,
0010
0100
0010
0100
0001
0000
1000
0001
,
0000
0001
1000
0000
0001
0000
0010
0001
,
0100
0010
0100
0000
1010
0000
1100
0000
,
0011
0000
0101
0000
0001
0000
1000
0100
,
1000
0010
0100
0010
1000
0000
0001
0100
,
0000
0100
0010
1000
0010
0000
1000
0100
,
0001
0100
1000
0000
0002
0000
0000
1003
,
0000
1000
0001
0000
0001
0000
0100
0001
,
0010
0100
0010
0100
1000
0000
0001
1000
,
0000
1000
0001
0000
1000
0000
0010
1000
,
0100
0010
0100
0000
0011
0000
0101
0000
,
1010
0000
1100
0000
1000
0000
0001
0100
,
0001
0010
0100
0010
0001
0000
1000
0100
,
0000
0100
0010
0001
0010
0000
0001
0100
,
1000
0100
0001
0000
2000
0000
0000
3001
,
0000
0001
1000
0000
0002
0000
0100
1003
,
2000
0000
0010
0000
3001
0100
0001
0000
2000
0000
0000
0000
0010
0000
3001
0000
,
0002
0000
0100
0000
1003
0100
1000
0000
0001
0000
0100
0000
0010
0100
0010
0000
,
1000
0000
0100
0000
0010
0100
0010
0000
0001
0100
0001
0000
1000
0100
0010
0001
,
1000
1100
0100
0010
0220
0000
0000
0000
,
0330
0000
0000
0000
,
0000
0000
0000
0000
;
#NOTES:
     dance-single:
     :
     Hard:
     15:
     :
0000
0000
0000
0000
,
0000
0000
0000
0000
,
0000
0000
0000
0000
,
0000
0000
0000
0000
,
0000
0000
0000
0000
,
0000
0000
0000
0000
1000
0100
1000
0010
,
1000
0100
1000
0010
1000
0100
0010
0001
,
1000
0001
1000
0001
1000
0000
0000
0000
0001
0000
0010
0000
0001
0000
0100
0000
,
0001
0010
0001
0100
0001
0010
0100
1000
,
0010
0000
0100
0010
0100
0000
0000
0000
0001
0000
0100
0000
0010
0000
0100
0000
,
0001
0100
0010
0100
0001
0000
1001
0000
,
0110
0000
0000
0000
1001
0000
0000
0000
1000
0000
0100
0010
0001
0000
0100
0000
,
0010
0000
0100
0000
0001
1000
0001
0000
0000
0000
0000
0000
0000
0000
0000
0000
,
0000
0000
0000
0000
0000
0000
0000
0000
1000
0000
0010
0100
0001
0000
0001
0000
,
1000
0000
0100
0010
0001
0000
0001
0000
0100
0000
1000
0000
0000
0000
1100
0000
,
0000
0000
0001
0100
0001
0000
1000
0000
0000
0000
0001
0100
0001
0000
0010
0000
,
0100
0100
1100
0000
0011
0000
1010
0000
,
0120
0000
0000
0000
0130
0000
0000
0000
1000
0000
0100
0010
0100
0000
1000
0000
,
0001
0100
0001
0100
0001
0000
1000
0000
1010
0000
0000
0000
1100
0000
0000
0000
,
0012
0000
0000
0000
0013
0000
0000
0000
1001
0000
0000
0000
1000
0100
0010
0001
,
1000
1000
1000
0020
0000
0000
,
0000
0000
0000
0000
0030
0000
0000
0000
0001
0010
0100
1000
0100
0010
0001
0100
,
0010
0000
1000
0000
0010
0000
0100
0000
0001
0000
1000
0000
0001
0000
0000
0000
1000
0000
1000
0000
0010
0000
0010
0000
0100
0000
0100
0000
0001
1000
0001
1000
,
0001
0001
0100
0100
0020
0000
0130
0000
1000
0100
0010
0001
0010
0100
1000
0010
,
0100
0000
0001
0000
0100
0000
0010
0000
1000
0000
0001
0000
1000
0000
0000
0000
0001
0000
0001
0000
0100
0000
0100
0000
0010
0000
0010
0000
1000
0001
1000
0001
,
1000
1000
0010
0010
0200
0000
0300
0000
0001
0000
0100
0000
0010
0000
1000
0000
,
0100
0000
0010
0000
0001
1000
0001
0000
1000
0000
0100
0001
0200
0000
0000
0000
,
1300
0000
0010
0001
0020
0000
0000
0000
1030
0100
0000
0000
0010
0000
0001
0000
,
0100
0010
0100
0010
0200
0000
0000
0000
0301
0010
0000
0000
0100
0000
1000
0000
,
0100
0010
0100
0010
0200
0000
0000
0000
0310
0000
0001
0000
0100
0000
0010
0000
,
1010
0001
0101
1000
1100
0010
1010
0001
,
1000
0001
1000
0001
1000
0000
1000
0000
0001
0000
0010
0100
1000
0000
0010
0100
,
0010
0100
0010
0100
0020
0000
0000
0000
1030
0000
0100
0010
0001
0000
0010
0100
,
0010
0100
0010
0100
0010
0000
0001
0000
1000
0000
0010
0000
0100
0000
0001
0000
,
0010
0000
0100
0000
1000
0001
1000
0000
0001
0000
0010
1000
0020
0000
0000
0000
,
0031
0000
0100
1000
0200
0000
0000
0000
0301
0000
0010
0000
0100
0000
1000
0000
,
0010
0100
0010
0100
0020
0000
0000
0000
1030
0000
0100
0000
0010
0000
0001
0000
,
0010
0100
0010
0100
0020
0000
0000
0000
0130
0000
1000
0000
0010
0000
0100
0000
,
0101
1000
1010
0001
0011
0100
0101
1000
,
0001
1000
0001
1000
0001
0000
0001
0000
1000
0000
0100
0010
0001
0000
0100
0010
,
0100
0010
0100
0010
0200
0000
0000
0000
0301
0000
0010
0100
1000
0000
0100
0010
,
0100
0010
0100
0010
0100
0000
0000
0000
2000
0000
3100
0000
0002
0000
0103
1000
,
0001
0000
0100
0000
0001
0000
0100
0000
0010
0000
1000
0000
0010
0000
0000
0000
1000
0000
0100
0000
0010
0000
0001
0000
0100
0010
1000
0001
1000
0000
0000
0000
,
2002
0000
0000
3003
1000
0010
1000
0010
,
0100
0001
0010
0100
1000
0100
1000
0100
,
0010
0001
0100
0010
1000
0100
0001
0100
,
1000
0000
0010
0000
0001
0000
0010
0000
1000
0100
0010
0000
0001
0100
0010
0000
,
1000
0100
0010
0000
0001
0100
0010
0000
1000
0000
0001
0000
0100
0000
0010
0000
,
1000
0100
0010
0100
1000
0001
0100
0010
,
1000
0100
0001
0100
1000
0001
0010
0100
,
0001
1000
0010
0100
2000
0000
0001
0000
,
3001
0000
0001
0000
0100
0000
0010
0000
2000
0000
0000
0000
0000
0000
3001
0010
,
0100
0000
1000
0010
0100
0000
0001
0010
0200
0000
0000
0000
0300
0000
0110
0000
,
0000
0000
1000
0100
0010
0000
0001
0000
2000
0000
0000
0000
0000
0000
3010
0100
,
0001
0000
0100
0010
1000
0000
0100
0010
0002
0000
0000
0000
0003
0000
1001
0000
,
0000
0000
1000
0001
0100
0000
0010
0000
0200
0000
0000
0000
0000
0000
0310
1000
,
0001
0000
0100
0001
1000
0000
0100
0010
0002
0000
0000
0000
0000
0000
1003
0000
,
0000
0000
1000
0000
0010
0000
0001
0000
0020
0000
0000
0000
0000
0000
1030
0001
,
0100
0000
0010
1000
0100
0000
0010
0001
2000
0000
0000
0000
0000
0000
0001
0000
,
0000
0000
3000
0000
0002
0100
2003
0100
,
3001
0010
0100
1000
0010
0100
0001
0010
0200
0000
1000
0000
0320
0000
0001
0000
,
1030
0010
0001
1000
0100
0010
0001
0000
2000
0000
0100
0000
3020
0000
0001
0000
,
1030
0100
0001
0100
1000
0010
0001
0010
1000
0100
0010
0000
0001
0100
0010
0000
,
1000
0010
0100
0010
0100
0001
1000
0000
2002
0000
0000
0000
0000
0000
0000
0000
,
3003
0000
0000
0000
,
0000
0000
0000
0000
;
#NOTES:
     dance-double:
     :
     Easy:
     7:
     :
00000000
00000000
00000000
00000000
,
00000000
00000000
00000000
00000000
,
00000000
00000000
00000000
00000000
,
00000000
00000000
00000000
00000000
,
00000000
00000000
00000000
00000000
,
00000000
00000000
10000000
10000000
,
00010000
00010000
00100000
00001000
,
00010000
00000000
00001000
00001000
,
00010000
00010000
00000010
00001000
,
00000010
00000000
00001000
00001000
,
00000001
00000001
00000010
00000100
,
00001000
00000000
00000100
00000100
,
00010000
00010000
00001000
00010000
,
00011000
00000000
00001000
00100000
,
00010000
00000000
00100000
00000000
01000000
10000000
00000000
10010000
,
00000000
00000000
00000000
00000000
00000000
10000000
00000000
00000000
,
00010000
00100000
01000000
10000000
,
00010000
00000000
00000000
00000000
00000000
10000000
01000000
00000000
,
00100000
00001000
00010000
00010000
,
00011000
00000000
00001000
00010000
,
00000100
00001000
00000001
00000001
,
00000001
00000000
00000002
00000003
,
00000200
00000300
00002000
00003000
,
00020000
00000000
00030000
00000000
00100000
00100000
10000000
00000000
,
10000000
10000000
01000000
00000000
01000000
01000000
00100000
00000000
,
00100000
00100000
00010000
00000000
00100000
00000000
00001000
00000000
,
00010000
00000000
00001000
00000000
00010000
00000100
00001000
00000000
,
00000010
00001000
00000100
00000000
00000110
00000000
00000001
00000000
,
00001001
00000000
00001100
00000100
,
00010100
00000000
00010000
00001000
,
00100000
00000000
00010000
00000000
01000000
00100000
01000000
00000000
,
00010000
10000000
00010000
00000000
00100000
00000000
01000000
00000000
,
01100000
00000000
00010000
10000000
,
10010000
00000000
10000000
01000000
,
00100000
00000000
00010000
00000000
00100000
00001000
00100000
00000000
,
00001000
00010000
00001000
00000000
00011000
00000000
00000010
00000000
,
00001010
00000000
00001100
00000010
,
00000011
00000000
00000001
00000100
,
00000001
00000000
00000010
00000000
00000100
00001000
00000100
00000000
,
00010000
00001000
00010000
00000000
00001000
00000000
01000000
00000000
,
01010000
00000000
00100000
10000000
,
10010000
00000000
20000000
31000000
,
00200000
00000000
00310000
00000000
00001000
00000100
00000010
00000001
,
00002002
00003003
00000001
00000100
,
00000010
00000100
00000010
00000000
00001000
00000000
00000001
00000000
,
00000010
00001000
00010000
00010000
,
01000000
01000000
20000000
00010000
,
00010000
30010000
10000000
01000000
,
00100000
00001000
00100000
00000000
00001000
00000000
00010000
00000000
,
00000100
00000010
00001000
00010000
,
01000000
10000000
01000000
00000000
10000000
00000000
00000000
10010000
,
00000000
00000000
10000000
00100000
,
01000000
00100000
01000000
00000000
00010000
00000000
10000000
00000000
,
01000000
00010000
00001000
00001000
,
00000010
00000010
00000002
00001000
,
00001000
00001003
00000001
00000010
,
00000100
00010000
00000100
00000000
00010000
00000000
00001000
00000000
,
00100000
01000000
00010000
00001000
,
00000010
00000001
00000010
00000000
00000001
00000000
00000000
00001001
,
00000000
00000000
00000000
00000000
00000002
00000000
00000103
00000010
,
00001000
00000010
00001000
00000000
00000200
00000000
00010300
00001000
,
00010000
00010000
00010000
00000000
00002000
00000000
00103000
00010000
,
01000000
00100000
01000000
00000000
00100000
10000000
00100000
01000000
,
00010000
00010000
00010000
00000000
20020000
00000000
00000000
00000000
,
30030000
00000000
00000000
00000000
,
00000000
00000000
00000000
00000000
;
#NOTES:
     dance-double:
     :
     Medium:
     12:
     :
00000000
00000000
00000000
00000000
,
00000000
00000000
00000000
00000000
,
00000000
00000000
00000000
00000000
,
00000000
00000000
00000000
00000000
,
00000000
00000000
00000000
00000000
,
00000000
00000000
00000000
00000000
10000000
00100000
10000000
00000000
,
01000000
00100000
01000000
00000000
00100000
00001000
00100000
00000000
,
00001000
00000000
00001000
00000000
00010000
00000100
00010000
00000000
,
00000100
00001000
00000100
00000000
00000010
00000100
00000010
00000000
,
00000001
00001000
00000001
00000000
00000100
00000010
00000100
00000010
,
00001000
00000000
00001000
00000000
00000010
00000000
00010000
00001000
,
00010000
00000000
00011000
00000000
00001000
00010000
00001000
00010000
,
00100000
01000000
00100000
01000000
00000000
00000000
00000000
00000000
,
00000000
00000000
00000000
00000000
10000000
00100000
00000000
01000000
,
00010000
00100000
00000000
01000000
00010000
00001000
00000000
00011000
,
00000000
00010000
00001000
00010000
00000000
00001000
00000010
00000001
,
00000011
00000000
00000101
00000000
00000001
00000100
00001000
00000100
,
00000002
00000000
00000000
00000000
00001003
00000100
00001000
00000000
,
00000010
00010000
00001000
00010000
00001000
00000000
00011000
00000000
,
00010000
00000000
00100000
00000000
10000000
00000000
00000000
00000000
01100000
00000000
00000000
00000000
01000000
00100000
01000000
00000000
,
00100000
00100000
00100000
00000000
00000000
00000000
,
00000000
00000000
00000000
00000000
00000000
00000000
00000000
00000000
10000000
00100000
10000000
00000000
00010000
00100000
00010000
00000000
,
01000000
00001000
00010000
00001000
01000000
00001000
00010000
00000000
00000100
00000100
00001000
00000000
00000010
00000010
00000100
00000000
,
00000101
00000000
00001100
00000000
00002002
00000000
00003003
00000000
00000001
00000010
00000001
00000000
00001000
00000010
00001000
00000000
,
00000100
00010000
00001000
00010000
00000100
00010000
00001000
00000000
01000000
01000000
00010000
00000000
00100000
00100000
01000000
00000000
,
11000000
01010000
20020000
30030000
10000000
01000000
00100000
00010000
,
00001000
00000100
00000010
00000000
00000011
00000000
00001000
00000000
,
00001100
00000000
00000000
00000000
00000001
00000000
00000000
00000000
00000001
00000100
00000000
00000000
00001000
00000000
00010000
00000000
,
00001000
00000000
00000000
00000000
00011000
00000000
00000000
00000000
00010000
00001000
00000000
00000000
00000010
00000000
00000001
00000000
,
00001000
00000000
00001001
00000000
00000001
00000100
00001000
00000100
,
00000010
00001000
00000100
00010000
00001000
00001000
00001000
00001000
,
00010000
00010000
00010000
00010000
00001000
00100000
00010000
00100000
,
01000000
00100000
00001000
00000000
00010000
00000010
00001000
00000010
,
00000100
00000010
00001000
00000000
00000001
00000100
00000010
00001000
,
00010000
01000000
00100000
00000000
10100000
00000000
00010000
00000000
,
01010000
00000000
00000000
00000000
10000000
00000000
00000000
00000000
10000000
01000000
00000000
00000000
00010000
00000000
00001000
00000000
,
00010000
00000000
00000000
00000000
00011000
00000000
00000000
00000000
00001000
00010000
00000000
00000000
00100000
00000000
10000000
00000000
,
00010000
00000000
10010000
00000000
10000000
01000000
00010000
01000000
,
00100000
00010000
01000000
00001000
00010000
00010000
00010000
00010000
,
00001000
00001000
00001000
00001000
00010000
00000010
00001000
00000010
,
00000100
00000010
00010000
00000000
00001000
00100000
00010000
00100000
,
01000000
00100000
00010000
00000000
20000000
00000000
31000000
01000000
,
00020000
00000000
00001000
00000000
00001000
00000000
00031000
00000000
00010000
00000010
00001000
00000010
00000100
00000001
00000010
00000001
,
00002000
00000000
00000000
00003000
00000001
00001000
00000001
00001000
,
00000001
00000010
00000100
00001000
00000010
00000100
00000010
00010000
,
00000000
00010000
00001000
00000000
00100000
00010000
00100000
00010000
,
01000000
00010000
00100000
01000000
10000000
00000000
10100000
00000000
,
00100000
00000000
01100000
00000000
01000000
00010000
01000000
00010000
,
00100000
01000000
00010000
00001000
00010000
00000100
00001000
00000100
,
00000000
00000100
00000010
00000000
00000001
00000010
00001000
00000000
,
00010000
01000000
10000000
00000000
00020000
00000000
00000000
10030000
,
00000000
10000000
00010000
00000000
10000000
00010000
10000000
00010000
,
10000000
01000000
00100000
00010000
01000000
00100000
01000000
00001000
,
00000000
00001000
00010000
00000000
00000100
00001000
00000100
00001000
,
00000010
00001000
00000100
00000010
00000001
00000000
00000101
00000000
,
00000100
00000000
00000110
00000000
00000010
00001000
00000010
00001000
,
00000100
00000010
00001000
00010000
00001000
00100000
00010000
00100000
,
00000000
00100000
01000000
00000000
10000000
01000000
00010000
00000000
,
00001000
00000010
00000001
00000000
00002000
00000000
00000000
00003001
,
00000000
00000000
00000001
00000000
00001000
00000000
00000000
00000000
00000001
00000000
00000100
00000000
00000010
00000100
00000010
00000000
,
00001000
00000000
00000001
00000000
00000010
00001000
00010000
00000000
00001000
00000000
00010000
00000000
00001000
00000000
01000000
00000000
,
00010000
00000000
00100000
00000000
01000000
00100000
00010000
00000000
10000000
00000000
00100000
00000000
01000000
00100000
01000000
00000000
,
00010000
00000000
10000000
00000000
01000000
00010000
00001000
00000000
00000010
00000001
00001000
00000000
00000001
00000100
00000010
00000100
,
00000001
00000000
00001000
00000100
00010000
00000000
00001000
00000000
00022000
00000000
00000000
00000000
00000000
00000000
00000000
00000000
,
00033000
00000000
00000000
00000000
,
00000000
00000000
00000000
00000000
;
#NOTES:
     dance-double:
     :
     Hard:
     15:
     :
00000000
00000000
00000000
00000000
,
00000000
00000000
00000000
00000000
,
00000000
00000000
00000000
00000000
,
00000000
00000000
00000000
00000000
,
00000000
00000000
00000000
00000000
,
00000000
00000000
00000000
00000000
10000000
01000000
00100000
01000000
,
00010000
01000000
00001000
01000000
00010000
00001000
00000000
00001000
,
00010000
00001000
00010000
00001000
00010000
00000000
00001000
00000000
00000000
00000000
00001000
00000000
00010000
00000000
00010000
00000000
,
00001100
00000000
00001010
00000000
00001000
00000100
00000001
00000100
,
00001000
00000000
00000010
00000100
00000010
00000000
00000000
00000000
00001000
00000000
00000001
00000000
00000100
00000000
00000010
00000000
,
00000100
00001000
00000100
00010000
00000100
00001000
00000100
00000000
,
00000010
00000000
00010000
00000000
00011000
00000000
00000000
00000000
00001000
00000000
01000000
00010000
01000000
00000000
00100000
00000000
,
10000000
00000000
01000000
00000000
00100000
01000000
00100000
00000000
00000000
00000000
00000000
00000000
00000000
00000000
00000000
00000000
,
00000000
00000000
00000000
00000000
10000000
01000000
00010000
00001000
,
01000000
00100000
00010000
00001000
00000100
00000001
00000000
00000011
,
00000000
00000000
00001000
00000001
00001000
00000000
00000001
00000000
00000000
00000000
00000001
00000100
00000010
00000000
00000010
00000000
,
00010000
00010000
00001000
00000000
00011000
00000000
01100000
00000000
,
20020000
00000000
00000000
00000000
30030000
00000000
00000000
00000000
10000000
00000000
00100000
01000000
00100000
00000000
00010000
00000000
,
00001000
00010000
00001000
00010000
00001000
00000000
00010000
00000000
00001000
00000000
00000010
00000000
00000001
00000000
00000000
00000000
,
00002002
00000000
00000000
00000000
00003003
00000000
00000000
00000000
00001001
00000000
00000000
00000000
00000001
00000100
00000010
00001000
,
00000010
00010000
00001000
00020000
00000000
00000000
,
00000000
00000000
00000000
00000000
00030000
00000000
00000000
00000000
00001000
00010000
01000000
00100000
00001000
00010000
00100000
01000000
,
10000000
00000000
01000000
00000000
00010000
00000000
00100000
00000000
01000000
00000000
00010000
00000000
00001000
00000000
00000000
00000000
00010000
00000000
00010000
00000000
00001000
00000000
00001000
00000000
00000010
00000000
00000010
00000000
00000001
00001000
00000001
00001000
,
00000001
00000001
00000100
00000100
00002000
00000000
00013000
00000000
00010000
00001000
00000100
00000010
00010000
00001000
00000010
00000100
,
00000001
00000000
00000100
00000000
00001000
00000000
00000010
00000000
00000100
00000000
00001000
00000000
00010000
00000000
00000000
00000000
00001000
00000000
00001000
00000000
00010000
00000000
00010000
00000000
00100000
00000000
00100000
00000000
10000000
00010000
10000000
00010000
,
10000000
10000000
01000000
01000000
00020000
00000000
00031000
00000000
00001000
00000000
00010000
00000000
00001000
00000000
00010000
00000000
,
00001000
00000000
00000010
00000000
00001000
00000000
00000010
00000000
00000001
00000000
00000100
00000010
00000200
00000000
00000000
00000000
,
00000301
00000000
00000010
00000100
00000020
00000000
00000000
00000000
00000031
00000100
00000000
00000000
00000010
00000000
00001000
00000000
,
00010000
00000000
01000000
00000000
00100000
00000000
00000000
00000000
10000000
01000000
00000000
00000000
00100000
00000000
00010000
00000000
,
00001000
00000100
00000010
00000000
00000001
00000100
00000001
00000100
,
00000110
00000010
00010000
00001000
00011000
00010000
00001000
01000000
,
00100000
01000000
00100000
01000000
00100000
00000000
00100000
00000000
10000000
00000000
00010000
01000000
00010000
00000000
00100000
01000000
,
10000000
00000000
01000000
00100000
00010000
00000000
00000000
00000000
00100000
00000000
00001000
00010000
00001000
00000000
00000010
00000100
,
00001000
00000000
00000100
00010000
00001000
00000000
00000000
00000000
00010000
00000000
00001000
00000000
00010000
00000000
00001000
00000000
,
00010000
00000000
00100000
00000000
00010000
00000000
00100000
00000000
10000000
00000000
01000000
00100000
02000000
00000000
00000000
00000000
,
13000000
00000000
00100000
01000000
00200000
00000000
00000000
00000000
10300000
01000000
00000000
00000000
00100000
00000000
00010000
00000000
,
00001000
00000000
00000100
00000000
00000010
00000000
00000000
00000000
00000001
00000100
00000000
00000000
00000010
00000000
00001000
00000000
,
00010000
01000000
00100000
00000000
10000000
01000000
10000000
01000000
,
01100000
00100000
00001000
00010000
00011000
00001000
00010000
00000100
,
00000010
00000100
00000010
00000100
00000010
00000000
00000010
00000000
00000001
00000000
00001000
00000100
00001000
00000000
00000010
00000100
,
00000001
00000000
00000100
00000010
00001000
00000000
00000000
00000000
00000010
00000000
00010000
00001000
00010000
00000000
00100000
01000000
,
00010000
00000000
01000000
00001000
00010000
00000000
00000000
00000000
00002000
00000000
00003010
00000000
00020000
00000000
00130000
00000000
,
00001000
00000000
00011000
00000000
00010000
00001000
00010000
00001000
00000010
00000001
00000100
00000010
00001000
00000100
00010000
00001000
,
00100000
00010000
01000000
00100000
10000000
00000000
10010000
00000000
10000000
00000000
00100000
00000000
10000000
00000000
00100000
00000000
,
10000000
01000000
00100000
00001000
00010000
00001000
00010000
00001000
,
00000010
00000100
00001000
00000010
00000100
00000001
00000010
00000000
,
00000010
00000001
00000100
00000000
00000010
00010000
00001000
01000000
,
00100000
00010000
00001000
00000100
00000001
00000010
00000001
00000010
,
00000100
00001000
00000010
00010000
00001000
00010000
00001000
00010000
,
01000000
00100000
00001000
00010000
00100000
10000000
01000000
00000000
,
01000000
10000000
00100000
00000000
00020000
00000000
00031000
00010000
,
00000000
00010000
01000000
00000000
10000000
01000000
00010000
10000000
,
00100000
00010000
01000000
00001000
00010000
00100000
00010000
00001000
,
00000100
00000010
00001000
00000100
00000010
00000001
00000100
00000000
,
00000100
00000001
00000010
00000000
00000100
00010000
00001000
01000000
,
00100000
00010000
00001000
00000100
00000001
00000100
00001000
00000001
,
00000010
00001000
00000100
00010000
00001000
00100000
00001000
00010000
,
01000000
00000000
00100000
00000000
00001000
00000000
00010000
00000000
01000000
00000000
10000000
00000000
00100000
01000000
00100000
01000000
,
00100000
00000000
00000000
00000000
10000000
00000000
00000000
00000000
00010000
00000000
00000000
00000000
00100000
00000000
00000000
00000000
00000000
00000000
00001000
00000000
00000000
00010000
00000000
00000000
,
00000000
00010000
00001000
00000000
00020000
00130000
00002000
00003010
,
00010000
00001000
00000100
00000010
00001000
00000100
00000010
00000001
00000200
00000000
00000001
00000000
00000010
00000000
00001300
00000000
,
00010000
00100000
01000000
00001000
00100000
00001000
00010000
00000000
00002000
00000000
00003100
00000000
00020000
00000000
01030000
00000000
,
00001000
00010000
00100000
01000000
00010000
00100000
01000000
10000000
00200000
00000000
10000000
00000000
01000000
00000000
00310000
00000000
,
00001000
00000100
00000010
00010000
00000100
00010000
00001000
00000000
00022000
00000000
00000000
00000000
00000000
00000000
00000000
00000000
,
00033000
00000000
00000000
00000000
,
00000000
00000000
00000000
00000000
;
