
//----- song ID: kiya -----//
#TITLE:キヤロラ衛星の軌跡;
#ARTIST:工藤吉三(ベイシスケイプ);
#TITLETRANSLIT:Kiyarora eisei no kiseki;
#ARTISTTRANSLIT:Yoshimi Kudo (Basiscape);
#BANNER:Kiyarora eisei no kiseki.png;
#BACKGROUND:Kiyarora eisei no kiseki-bg.png;
#CDTITLE:./CDTitles/GITADORA EXCHAIN.png;
#MUSIC:Kiyarora eisei no kiseki.ogg;
#SAMPLESTART:8;
#SAMPLELENGTH:15;
#BPMS:0=150;
#STAGE:14;
#NOTES:
     dance-single:
     :
     Beginner:
     4:
     :
0000
0000
0000
0000
,
0000
0000
0000
0000
,
0000
0000
0000
0000
,
0000
0000
0000
0000
,
0000
0000
0000
0000
,
1000
0000
0100
0000
,
0100
0000
0000
0000
,
1000
0000
0010
0000
,
0001
0000
0000
0000
,
0001
0000
0100
0000
,
0100
0000
0000
0000
,
0001
0000
0100
0000
,
1000
0000
0000
0000
,
1000
0000
0010
0000
,
0100
0100
0010
0000
,
1000
0000
0100
0000
,
0001
0000
0000
0000
,
0001
0000
0010
0000
,
0100
0100
0010
0000
,
0001
0000
0100
0000
,
1000
0000
0000
0000
,
1001
0000
0000
0000
,
2000
0000
0000
0000
,
3000
0000
0000
0000
,
0020
0000
0000
0000
,
0030
0000
0000
0000
,
0200
0000
0000
0000
,
0300
0000
0000
0000
,
0002
0000
0000
0000
,
0003
0000
0000
0000
,
0001
0000
0010
0000
,
0001
0001
0010
0000
,
0100
0000
0100
0000
,
0100
0000
0000
0000
,
0110
0000
0000
0000
,
0000
0000
0000
0000
,
2002
0000
0000
0000
,
3003
0000
0000
0000
,
0000
0000
0000
0000
,
0000
0000
0000
0000
,
1000
1000
0010
0000
,
0100
0100
1000
0000
,
0100
0000
0100
0000
,
0001
0000
0000
0000
,
0001
0001
0010
0000
,
0100
0100
0001
0000
,
0100
0000
0100
0000
,
1000
0000
0000
0000
,
0000
0000
0000
0000
,
1001
0000
0000
0000
,
0002
0000
0000
0000
,
0003
0000
0000
0000
,
2000
0000
0000
0000
,
3000
0000
0000
0000
,
0200
0000
0000
0000
,
0300
0000
0000
0000
,
0020
0000
0000
0000
,
0030
0000
0000
0000
,
0001
0000
0100
0000
,
0001
0000
0100
0000
,
0010
0000
1000
0000
,
0010
0000
0000
0000
,
1000
0000
0100
0000
,
1000
0000
0100
0000
,
0010
0000
0001
0000
,
0010
0000
0000
0000
,
0001
0001
0100
0000
,
0001
0001
0010
0000
,
0001
0000
0100
0000
,
1000
0000
0000
0000
,
1000
1000
0010
0000
,
1000
1000
0100
0000
,
1000
0000
0100
0000
,
0010
0000
0001
0000
,
1001
0000
0000
0000
,
0000
0000
0000
0000
;
#NOTES:
     dance-single:
     :
     Easy:
     7:
     :
0000
0000
0000
0000
,
0000
0000
0000
0000
,
0000
0000
0000
0000
,
0000
0000
0000
0000
,
0000
0000
0000
0000
,
1000
0000
0001
0000
0100
0010
0100
0000
,
0001
0010
0100
1000
,
0001
0000
1000
0000
0010
0100
0010
0000
,
1000
0001
1001
0000
,
1000
0000
0100
0000
0010
0001
0100
0000
,
0010
0100
0001
1000
,
0001
0000
0010
0000
0100
1000
0010
0000
,
0100
0010
1000
0001
,
1000
0000
1000
0000
0100
0010
0100
0000
,
1000
1000
0010
1001
,
0001
0000
0001
0000
0100
0010
0100
0000
,
0001
0001
0010
1001
,
1000
0000
0010
0000
0001
0010
1000
0000
,
0001
0100
0010
1001
,
0001
0000
0010
0000
1000
0010
0001
0000
,
1000
0010
0100
0001
,
0000
0001
0000
0000
0100
0000
0000
0010
,
2000
0000
0000
3100
,
0200
0000
0000
0310
,
0020
0000
0032
0000
,
2003
0000
0000
0000
0000
0000
3000
0001
,
0100
0200
0000
0300
,
0220
0000
0000
0330
,
2000
3002
0000
0003
,
2002
0000
0000
3003
,
0002
0000
0103
0000
,
0010
0010
0010
0000
,
2000
0000
3100
0000
,
0010
0010
0010
0000
,
0001
0100
1000
0100
,
0001
0000
1000
0000
,
2002
0000
0000
0000
,
3003
0000
0000
0000
,
0220
0000
0000
0000
,
0330
0000
0000
0000
,
0001
0100
0001
0001
,
1000
0100
1000
1001
,
0001
0010
0001
0001
,
1000
0010
1000
1001
,
0001
0000
0100
0000
0010
1000
0010
0000
,
1000
0000
0100
0000
0010
0001
0010
0000
,
0001
0100
0010
1000
,
0001
0010
0001
0000
1000
0010
1000
0000
,
0002
0000
0000
0003
,
2000
0000
0000
3000
,
0002
0000
0013
0000
,
2000
0000
3010
0000
,
2000
3200
0320
0032
,
2003
0000
0000
3000
,
0002
0000
0103
0000
,
2000
0000
3100
0000
,
0001
0000
0100
0000
0010
1000
0010
0000
,
1001
0000
0000
0000
,
2000
0000
3200
0000
,
0302
0000
0203
0000
,
1300
0010
0100
0010
,
1000
1000
1000
0000
,
0002
0000
0203
0000
,
2300
0000
3200
0000
,
0301
0010
0100
0010
,
0001
0100
0010
0000
,
1001
0000
0000
0000
,
1001
0000
0010
0010
,
1001
0000
0000
0000
,
1001
0000
0000
0000
,
1000
0000
0100
0000
0010
0100
0010
0000
,
0001
0000
0100
0000
0010
0100
0010
0000
,
1000
0010
0100
0001
,
1000
0100
0000
0010
0001
0000
0100
0000
,
2002
0000
0000
0000
,
0000
0000
0000
0000
,
0000
0000
0000
0000
,
3003
0000
0000
0000
,
0000
0000
0000
0000
;
#NOTES:
     dance-single:
     :
     Medium:
     12:
     :
0000
0000
0000
0000
,
0000
0000
0000
0000
,
0000
0000
0000
0000
,
0000
0000
0000
0000
,
0000
0000
0000
0000
,
1000
0000
0100
0000
0010
0000
0001
1000
0000
0001
0000
0000
1000
0000
0000
0000
,
0001
0000
0100
0000
0010
0000
1000
0001
0000
1000
0000
0000
0001
0000
0000
0000
,
1000
0000
0001
0000
0010
0000
0100
0010
0000
0100
0000
0000
0010
0000
0000
0000
,
0001
0000
1000
0000
0010
0000
0100
0010
0000
0100
0000
0010
0000
0100
0000
0010
,
1000
0000
0100
0000
0001
0000
0100
0010
0000
0001
0000
0000
1000
0000
0000
0000
,
0001
0000
0100
0000
1000
0000
0100
0010
0000
1000
0000
0000
0001
0000
0000
0000
,
1000
0000
0010
0000
0001
0000
0010
0100
0000
0010
0000
0000
1000
0000
0000
0000
,
0001
0100
0000
0001
0100
0000
0010
1000
0000
0010
1000
0000
0000
0000
0000
0000
,
1000
0100
0001
0100
1000
0010
0100
0001
,
1000
0100
0001
0100
1000
0010
1001
0000
,
0001
0100
1000
0100
0001
0010
0100
1000
,
0001
0100
1000
0100
0001
0010
0001
0001
,
1000
0010
0100
0001
1000
0010
0001
0010
,
1000
0100
0010
0001
0100
0100
1001
0000
,
0001
0010
0100
1000
0001
0010
1000
0010
,
0001
0100
0010
1000
0100
0100
0010
0010
,
0000
0000
0001
0000
0000
0001
0000
0000
1000
0000
0000
1000
0000
0000
0010
0000
,
0200
0000
0000
0320
,
2030
0000
0000
3002
,
0023
0000
0000
0000
0000
0000
0000
0000
0000
0000
0130
0000
0000
0100
0000
0000
,
2000
0000
0000
0000
0000
0000
3001
0100
,
0001
0010
0020
0000
0000
0031
0100
0010
,
2000
0000
0000
3200
,
0301
0100
2000
0000
0000
0000
3000
1000
,
0001
0100
0010
0100
0001
0010
0100
1000
,
0002
0000
0100
0000
0013
0100
1000
0100
,
0020
0001
0230
2300
,
3002
0000
0000
0000
0100
0000
0000
0000
2003
0000
0100
0000
0000
0100
0000
0000
,
3200
0000
0010
0000
0001
0000
0310
0001
,
0100
0010
0020
0000
0001
0000
0130
0000
,
0000
0000
1000
0000
0000
1000
0000
0000
0001
0000
0000
0001
0000
0000
1000
0000
,
2002
0000
0000
0000
,
0000
0000
0000
3003
,
0220
0000
0000
0330
,
0000
0001
0000
0000
0100
0000
0000
0001
0000
0000
1000
0000
0000
0100
0000
1000
,
0001
0010
0100
1000
0001
0010
0100
0000
,
1000
0010
0100
0001
1000
0010
0100
0000
,
0001
1000
0100
0010
0001
1000
0100
0010
,
0001
0010
0000
0000
0001
0000
0000
1000
0000
0000
0010
0000
0000
1000
0000
0001
,
1000
0100
1000
0100
0010
0001
0010
0001
,
1000
0010
1000
0010
0100
0001
0100
0001
,
1000
0100
0010
0001
1000
0100
0010
0001
,
1000
0010
1000
0100
0010
0001
0100
0001
,
0010
0000
0001
0000
0000
1000
0000
0001
0000
0000
1000
0000
0010
0000
0000
0110
,
0000
2000
3020
2030
,
3002
0000
0203
0000
,
0302
0000
0000
0023
,
0032
2003
3020
0000
,
0030
0020
0230
0302
,
0203
0000
0320
0000
,
0000
2030
3002
0000
,
0000
0023
0230
2300
,
3001
0000
0000
0000
0000
0000
0000
0000
1000
0000
0000
0001
0000
0000
1000
0000
,
0001
0100
0010
0100
0001
0010
0100
0010
,
0001
0100
0010
1000
0001
1000
0010
0100
,
0001
0010
1000
0000
0001
0100
1000
0000
,
1010
0000
1000
0100
0010
0000
0011
0000
,
1000
0100
0010
0100
1000
0010
0100
0010
,
1000
0100
0010
0001
1000
0001
0010
0100
,
1000
0000
0010
0000
0001
0000
1000
0000
0100
0000
0000
0001
0000
0000
0010
0000
,
0001
0000
1000
0000
0100
0000
1000
0000
0010
0000
0000
0010
0000
0000
0010
0000
,
1000
0000
0000
0010
1000
0000
0000
0000
0001
0000
0000
0100
0001
0000
0010
0000
,
0100
0000
0000
1000
0100
0000
0000
0000
0010
0000
0001
0000
0100
0000
0001
0000
,
0010
0000
0000
0100
1000
0000
0000
0000
0010
0000
0000
0100
0001
0000
1000
0000
,
0100
0000
0000
1000
0010
0000
0000
0000
0100
0000
0001
0000
0010
0000
0100
0000
,
1000
0000
0010
0000
0100
0001
0000
0100
0001
0000
1000
0001
0000
0000
1001
0000
,
0000
0000
0001
0000
1000
0100
0000
1000
0100
0000
1000
0001
0000
0000
1001
0000
,
0001
0000
0100
0000
0010
0000
1000
0010
0000
1000
0100
0000
0010
0001
0010
0000
,
0001
0000
0000
0000
0000
0000
1000
0000
0000
0001
0000
0000
0000
0000
0000
0100
0000
0000
0000
0000
0000
0010
0000
0000
0100
0000
0000
0000
0000
0000
0001
0000
0000
0000
0000
0000
0010
0000
0000
0000
0100
0000
0000
0000
2000
0000
0000
0000
,
0000
0000
0000
0000
,
0000
0000
0000
0000
,
0000
0000
0000
0000
,
3000
0000
0000
0000
,
0000
0000
0000
0000
;
#NOTES:
     dance-single:
     :
     Hard:
     16:
     :
0000
0000
0000
0000
,
0000
0000
0000
0000
,
0000
0000
0000
0000
,
0000
0000
0000
0000
,
0000
0000
0000
0000
,
1000
0100
0000
0010
0001
0000
1000
0001
0000
0010
0100
0000
1000
0000
1001
0000
,
0001
0100
0000
0010
1000
0000
0001
1000
0000
0010
0100
0000
0001
0010
0100
1000
,
0001
0010
0000
0100
1000
0000
0010
1000
0000
0100
0010
0000
0001
0000
1001
0000
,
1000
0010
0000
0100
0001
0000
0010
0001
0000
0010
0100
0010
0000
0100
1000
0001
,
1000
0100
0000
0100
0010
0000
0010
0001
0000
0001
0100
0000
0010
0000
0110
0000
,
0100
0001
0000
0001
1000
0000
1000
0100
0000
0100
0010
0000
0001
0100
0010
1000
,
0010
0100
0000
0100
0001
0000
0001
0010
0000
0010
0100
0000
1000
0000
1001
0000
,
0001
0010
0000
1000
0010
0000
0001
0010
0000
1000
0010
0000
0001
0010
0100
0000
,
1000
0010
1000
0010
0000
1000
0000
0100
0000
0010
0000
0001
1000
0001
1000
0000
,
0001
0010
0001
0010
0000
0001
0000
0100
0000
0010
0000
1000
0001
0000
0000
0000
,
1000
0100
1000
0100
0000
1000
0000
0010
0000
0100
0000
0001
1000
0001
1000
0000
,
0001
0100
0001
0100
0000
0001
0000
0010
0100
1000
0000
0010
0100
0001
1000
0000
,
0001
0100
0001
0010
0000
1000
0000
0010
0000
0001
0000
1000
0100
0010
0100
0010
,
0001
0100
0001
0010
0000
1000
0000
0010
0000
0001
0000
1000
0001
0000
0000
0000
,
1000
0100
1000
0010
0000
0001
0000
0010
0000
1000
0000
0001
0100
0010
0100
0010
,
1000
0100
1000
0010
0000
0001
0000
0010
1000
0010
1000
0010
0100
0001
0100
0001
,
0000
0000
0011
0000
0000
0101
0000
0000
1100
0000
0000
1010
0000
0000
0011
0000
,
2000
0000
3200
0320
,
0032
0000
0203
0320
,
2030
0000
0000
0000
0100
0000
0000
0000
3001
0000
0200
0000
0000
1300
0000
0000
,
0200
0000
0000
0000
0301
0000
1000
0000
0001
0000
0010
0100
0010
0100
0010
0000
,
0001
1000
2000
0000
3010
0100
0001
0010
,
0200
0001
1300
1100
,
1000
0010
0200
0000
1000
0000
0301
0100
,
0010
0000
1000
0000
0100
0000
1000
0000
0010
0000
0100
0010
0100
0000
0100
0000
,
0002
0000
0023
0000
1030
0001
0100
1000
,
0002
0203
2300
3200
,
0302
0000
0000
0000
0010
0000
0000
0000
1003
0000
0100
0000
0000
0110
0000
0000
,
0020
0000
0001
0000
1000
0000
0031
1000
,
0100
0010
0020
0000
1000
0000
0001
0000
,
0030
0000
0011
0000
0000
1010
0000
0000
1100
0000
0000
0101
0000
0000
0011
0000
,
2002
0000
0000
0000
,
0000
0000
0000
3003
,
0220
0000
0000
0330
,
0000
1010
0000
0000
0101
0000
0000
0011
0000
0000
1100
0000
0000
1001
0000
0001
,
1000
0100
1000
0100
0010
0100
1000
0100
1000
0100
0010
0100
1000
0100
0010
0000
,
0001
0100
0001
0100
0010
0100
0001
0100
0001
0100
0010
0100
0001
1000
0010
0000
,
1000
0010
1000
0010
0100
0010
1000
0010
1000
0010
0100
0010
1000
0010
0100
0000
,
0001
0100
0000
0010
1000
0000
1000
0100
0000
0010
0001
0000
1000
0001
0000
0001
,
1000
0010
1000
0010
0100
0001
0100
0001
1000
0001
1000
0001
0010
0100
0010
0000
,
0001
0010
0001
0010
0100
1000
0100
1000
0001
1000
0001
1000
0010
0100
0010
0000
,
1000
0001
1000
0001
0010
0100
0010
0100
1000
0001
1000
0001
0100
0010
0100
0000
,
0001
0000
0010
0001
0000
0001
1000
0001
0000
0001
0100
0001
0000
0001
0010
0001
,
1000
0100
0010
0001
0000
1000
0010
0100
0001
0000
0100
0010
1000
0001
0000
1001
,
0000
2000
3020
0230
,
0302
0000
0023
0000
,
0230
0000
0000
2300
,
3002
0203
2300
3200
,
0302
2003
3200
0320
,
0032
0000
2003
0000
,
0000
3020
0230
0000
,
0000
0302
2000
3003
,
1001
0000
0000
0000
0000
0000
0000
0000
1000
0000
0000
1000
0000
0000
0001
0010
,
0002
0000
0000
0000
0103
0010
1000
0100
0020
0000
0000
0000
0130
1000
0001
0010
,
0002
0000
0000
0000
0103
0010
1000
0010
0200
0000
0000
0000
0301
0010
0100
1000
,
0020
0000
0130
0001
0020
0000
0130
1000
0020
0000
1030
0001
0200
0000
0301
1000
,
0200
0000
0300
0000
1100
0000
0000
0000
0110
0000
0000
0001
1000
0001
0100
0001
,
2000
0000
3010
0100
0001
0100
0001
0000
0020
0000
0031
1000
0100
1000
0010
0000
,
0200
0000
0301
1000
0100
0010
0001
0000
2000
0000
3001
0100
0010
0100
0001
0000
,
0020
0000
0130
1000
0002
0000
0013
0001
0200
0000
0310
1000
0020
0000
1030
0100
,
0020
0000
0031
1000
0020
0000
0130
0001
1000
0000
0000
1000
0000
0000
1000
0001
,
1000
0000
0100
0010
0000
0001
0100
0001
0100
0000
0010
1000
0000
0010
0100
0001
,
0010
0000
0001
1000
0000
0010
0100
0010
0100
0000
0001
0010
0000
0001
1000
0100
,
0010
0000
0001
0100
0001
0100
0001
1000
0001
0000
1000
0010
1000
0010
1000
0001
,
1000
0000
0001
0100
0010
0100
0001
0010
0001
0000
1000
0100
0010
0100
1000
0010
,
1000
0000
0001
0010
0100
1000
0010
0100
0010
1000
0100
0010
0001
0100
0010
1000
,
0001
0000
1000
0100
0010
0001
0100
0010
0100
0001
0010
0100
1000
0010
0100
0001
,
1000
0001
0010
0100
1000
0001
1000
0100
0010
0001
0100
0010
1000
0100
0010
0000
,
0001
0000
0000
0010
0000
0000
1000
0000
0000
0010
0000
0000
0000
0000
0000
0001
0000
0000
0100
0000
0000
1000
0000
0000
0100
0000
0000
0000
0000
0000
0110
0000
0000
0000
0000
0000
1000
0000
0000
0000
0001
0000
0000
0000
2002
0000
0000
0000
,
0000
0000
0000
0000
,
0000
0000
0000
0000
,
0000
0000
0000
0000
,
3003
0000
0000
0000
,
0000
0000
0000
0000
;
#NOTES:
     dance-double:
     :
     Easy:
     7:
     :
00000000
00000000
00000000
00000000
,
00000000
00000000
00000000
00000000
,
00000000
00000000
00000000
00000000
,
00000000
00000000
00000000
00000000
,
00000000
00000000
00000000
00000000
,
00001000
00000000
00010000
00000000
00100000
00010000
00100000
00000000
,
00010000
00001000
00010000
00000000
,
00010000
00000000
00001000
00000000
00000010
00001000
00000010
00000000
,
00001000
00010000
00001000
00000000
,
00010000
00000000
00001000
00000000
00000100
00001000
00000100
00000000
,
00001000
00010000
00001000
00000000
,
00010000
00000000
00001000
00000000
00010000
01000000
00010000
00000000
,
00001000
00010000
00001000
00000000
,
00001000
00010000
00100000
01000000
,
00010000
00000000
00100000
00000000
01000000
00010000
01000000
00000000
,
00100000
00001000
00010000
00100000
,
00010000
00001000
00000100
00000100
,
00000010
00010000
00001000
00000010
,
00000100
00000000
00001000
00000000
00000010
00000100
00000010
00000000
,
00001000
00000100
00000010
00001000
,
00010000
00001000
01000000
00010000
,
00000000
00100000
00000000
00000000
01000000
00000000
00000000
01000000
,
20000000
00000000
00000000
30100000
,
00200000
00000000
00000000
01300000
,
02000000
00000000
03002000
00000000
,
00023000
00000000
00000000
00000000
00000000
00000000
00030000
00010000
,
00000100
00000200
00000000
00000310
,
00000002
00000000
00000000
00002003
,
00003002
00000203
00000000
00000300
,
00000200
00002300
00023000
00030000
,
00002000
00000000
00203000
00000000
,
00320000
00000000
02030000
00000000
,
03200000
00000000
20300000
30000000
,
20020000
00000000
00000000
30030000
,
10000000
01000000
00100000
00010000
,
00001000
00000100
00000010
00000000
,
00002002
00000000
00000000
00000000
,
00003003
00000000
00000000
00000000
,
00022000
00000000
00000000
00000000
,
00033000
00000000
00000000
00000000
,
10000000
00100000
01000000
00010000
,
10000000
00100000
01000000
00010000
,
00100000
00001000
00010000
01000000
,
00100000
00001000
00010000
00100000
,
00010000
00000000
00001000
00000000
00000100
00000010
00000100
00000000
,
00000001
00000010
00001000
00000010
,
00000001
00000000
00001000
00000000
00000100
00000010
00000100
00000000
,
00010000
00000000
00001000
00000000
01000000
00100000
01000000
00000000
,
00200000
00000000
00000000
00300000
,
20020000
00000000
00000000
30030000
,
20000000
00000000
31000000
00000000
,
00200000
00000000
00310000
00000000
,
00002000
00003200
00000320
00000032
,
00002003
00000000
00000000
00003000
,
00000002
00000000
00000103
00000000
,
00000020
00000000
00001030
00000000
,
00020000
02030000
03200000
10300000
,
10010000
00000000
00000000
00000000
,
20000000
00000000
30020000
00000000
,
00230000
00000000
02300000
00000000
,
03001000
00000100
00000010
00000001
,
00001000
00000000
00001001
00000000
,
00000002
00000000
00002003
00000000
,
00003020
00000000
00000230
00000000
,
00010300
01000000
00100000
10000000
,
00010000
00000000
10010000
00000000
,
10000000
01000000
00010000
00000000
,
00001000
00000010
00000001
00000000
,
00000001
00000100
00001000
00000000
,
00010000
00100000
10000000
00000000
,
10000000
00000000
00010000
00000000
00100000
01000000
00100000
00000000
,
00001000
00000000
00010000
00000000
00000010
00000100
00000010
00000000
,
00001000
00000100
00000001
00000100
,
00010000
00001000
00000000
00100000
00010000
00000000
01000000
00000000
,
02200000
00000000
00000000
00000000
,
00000000
00000000
00000000
00000000
,
00000000
00000000
00000000
00000000
,
03300000
00000000
00000000
00000000
,
00000000
00000000
00000000
00000000
;
#NOTES:
     dance-double:
     :
     Medium:
     12:
     :
00000000
00000000
00000000
00000000
,
00000000
00000000
00000000
00000000
,
00000000
00000000
00000000
00000000
,
00000000
00000000
00000000
00000000
,
00000000
00000000
00000000
00000000
,
10000000
00000000
01000000
00000000
00100000
00000000
01000000
00100000
00000000
01000000
00000000
00000000
00010000
00000000
00000000
00000000
,
00001000
00000000
00000010
00000000
00000100
00000000
00001000
00000010
00000000
00001000
00000000
00000000
00000001
00000000
00000000
00000000
,
00000001
00000000
00000010
00000000
00000100
00000000
00000010
00000100
00000000
00000010
00000000
00000000
00001000
00000000
00000000
00000000
,
00010000
00000000
01000000
00000000
00100000
00000000
00010000
01000000
00000000
00010000
00000000
10000000
00000000
00100000
00000000
01000000
,
00100000
00000000
10000000
00000000
00010000
00000000
01000000
00100000
00000000
00010000
00000000
00000000
00001000
00000000
00000000
00000000
,
00010000
00000000
00000100
00000000
00001000
00000000
00000100
00000010
00000000
00000001
00000000
00000000
00001000
00000000
00000000
00000000
,
00001000
00000000
00000001
00000000
00001000
00000000
00000100
00000010
00000000
00001000
00000000
00000000
00010000
00000000
00000000
00000000
,
00001000
01000000
00000000
00001000
01000000
00000000
00010000
00100000
00000000
00010000
00100000
00000000
00000000
00000000
00000000
00000000
,
10000000
00100000
10000000
00100000
01000000
00010000
00100000
01000000
,
00010000
00001000
00010000
00001000
00000010
00001000
00010000
00000000
,
00001000
00010000
00001000
00010000
00001000
00000100
00000001
00000010
,
00000100
00000010
00000100
00000010
00000001
00000001
00001000
00001000
,
00000001
00000100
00000001
00000100
00000010
00001000
00000100
00000010
,
00001000
00010000
00001000
00010000
01000000
00010000
00001000
00000000
,
00010000
00001000
00010000
00001000
00010000
00100000
10000000
01000000
,
00100000
01000000
00100000
01000000
10000000
10000000
00010000
00010000
,
00000000
00000000
01000000
00000000
00000000
01000000
00000000
00000000
00100000
00000000
00000000
00100000
00000000
00000000
10000000
00000000
,
00020000
00000000
00000000
20030000
,
32000000
00000000
00000000
03200000
,
00302000
00000000
00000000
00000000
00000000
00000000
00000000
00000000
00000000
00000000
00013000
00000000
00000000
00001000
00000000
00000000
,
00020000
00000000
00000000
00000000
00000000
00000000
00031000
00010000
,
00000010
00001000
00000200
00000000
00000000
00000301
00000100
00001000
,
00000002
00000000
00000000
00000203
,
00000310
00001000
00020000
00000000
00000000
00000000
00030000
01000000
,
00100000
01000000
00010000
10000000
01000000
10000000
00010000
00100000
,
02000000
00000000
00000000
00000000
03010000
00001000
00000010
00001000
,
00020000
00000000
00230000
00320000
,
00032000
00000000
00000000
00000000
00000000
00000000
00000000
00000000
00003200
00000000
00000001
00000000
00000000
00000001
00000000
00000000
,
00000302
00000000
00000013
00000100
00000010
00001000
00010000
00000000
,
00001000
00001000
00020000
00000000
00000000
00000000
00030000
00000000
,
00000000
00000000
00001000
00000000
00000000
00010000
00000000
00000000
01000000
00000000
00000000
10000000
00000000
00000000
00010000
00000000
,
20020000
00000000
00000000
00000000
,
00000000
00000000
00000000
30030000
,
02200000
00000000
00000000
03300000
,
00000000
10000000
00000000
00000000
10000000
00000000
00000000
00010000
00000000
00000000
00010000
00000000
00000000
01000000
00000000
00100000
,
10000000
01000000
00100000
00010000
01000000
00100000
00010000
00001000
,
00100000
00010000
00001000
00000100
00010000
00001000
00000100
00000010
,
00001000
00000100
00000010
00000001
00000100
00000010
00000001
00000010
,
00000000
00001000
00000000
00000000
00001000
00000000
00000000
00000001
00000000
00000000
00000001
00000000
00000000
00000100
00000000
00000010
,
00000100
00000001
00000010
00000100
00001000
00000010
00000100
00001000
,
00010000
00100000
01000000
10000000
00010000
00100000
01000000
00010000
,
10000000
01000000
00100000
00010000
01000000
00100000
00010000
00001000
,
00000010
00000001
00001000
00000100
00000010
00000001
00000100
00000001
,
00000010
00000000
00000100
00000000
00000000
00000100
00000000
00010000
00000000
00000000
00010000
00000000
00001000
00000000
00000000
00011000
,
00000000
00020000
00032000
02003000
,
03200000
00000000
20300000
00000000
,
32000000
00000000
00000000
03020000
,
00032000
00003020
00002030
00023000
,
02030000
03020000
00032000
00003200
,
00000302
00000000
00000023
00000000
,
00000000
00002030
00003002
00000000
,
00000000
00000203
00020300
00031000
,
00011000
00000000
00000000
00000000
00000000
00000000
00000000
00000000
00001000
00000000
00000000
00010000
00000000
00000000
00001000
00000000
,
01000000
00010000
01000000
00100000
10000000
01000000
00100000
01000000
,
10000000
00100000
10000000
00100000
00010000
00001000
00010000
00000000
,
00001000
00000010
00000001
00000000
00001000
00000100
00000010
00000000
,
00000011
00000000
00000001
00000100
00001000
00000000
00011000
00000000
,
00010000
00001000
00010000
00001000
01000000
00010000
00100000
00010000
,
10000000
01000000
00010000
01000000
10000000
00100000
00010000
00001000
,
00100000
00000000
00001000
00000000
00010000
00000000
00001000
00000000
00000010
00000000
00000000
00000001
00000000
00000000
00001000
00000000
,
00000100
00000000
00001000
00000000
00000010
00000000
00000100
00000000
00000001
00000000
00000000
00000001
00000000
00000000
00000001
00000000
,
00001000
00000000
00000000
00001000
00000010
00000000
00000000
00000000
00000100
00000000
00000000
00000100
00001000
00000000
00010000
00000000
,
00100000
00000000
00000000
00100000
01000000
00000000
00000000
00000000
00010000
00000000
00100000
00000000
01000000
00000000
00000000
00000000
,
10000000
00000000
00000000
10000000
00100000
00000000
00000000
00000000
01000000
00000000
00000000
01000000
00010000
00000000
00100000
00000000
,
00001000
00000000
00000000
00001000
00010000
00000000
00000000
00000000
00001000
00000000
00000100
00000000
00000001
00000000
00000000
00000000
,
00000010
00000000
00000001
00000000
00000100
00000010
00000000
00000100
00000010
00000000
00010000
00001000
00000000
00010000
00001000
00000000
,
01000000
00000000
00100000
00000000
10000000
00010000
00000000
10000000
00010000
00000000
00100000
00001000
00000000
00100000
00001000
00000000
,
00010000
00100000
01000000
00010000
00100000
01000000
00010000
00001000
,
00000010
00000000
00000000
00000000
00000000
00000000
00000100
00000000
00000000
00001000
00000000
00000000
00000000
00000000
00000000
00000001
00000000
00000000
00000000
00000000
00000000
00000100
00000000
00000000
00001000
00000000
00000000
00000000
00000000
00000000
00011000
00000000
00000000
00000000
00000000
00000000
00010000
00000000
00000000
00000000
01000000
00000000
00000000
00000000
20000000
00000000
00000000
00000000
,
00000000
00000000
00000000
00000000
,
00000000
00000000
00000000
00000000
,
00000000
00000000
00000000
00000000
,
30000000
00000000
00000000
00000000
,
00000000
00000000
00000000
00000000
;
#NOTES:
     dance-double:
     :
     Hard:
     16:
     :
00000000
00000000
00000000
00000000
,
00000000
00000000
00000000
00000000
,
00000000
00000000
00000000
00000000
,
00000000
00000000
00000000
00000000
,
00000000
00000000
00000000
00000000
,
10000000
00100000
00000000
10000000
00100000
00000000
01000000
00010000
00000000
01000000
00010000
00000000
00100000
00000000
00101000
00000000
,
00001000
00010000
00000000
00001000
00010000
00000000
00000100
00000010
00000000
00000100
00000010
00000000
00000001
00000010
00000100
00001000
,
00000001
00000100
00000000
00000001
00000100
00000000
00000010
00001000
00000000
00000010
00001000
00000000
00000100
00000000
00010100
00000000
,
00010000
00001000
00000000
00010000
00001000
00000000
00100000
00010000
00000000
01000000
00100000
01000000
00000000
00100000
10000000
00100000
,
10000000
00010000
00000000
00010000
01000000
00000000
01000000
00001000
00000000
00001000
00010000
00000000
00001000
00000000
00011000
00000000
,
00010000
00000100
00000000
00000100
00001000
00000000
00001000
00000010
00000000
00000010
00000100
00000000
00000001
00000100
00000010
00001000
,
00000001
00000100
00000000
00000100
00000010
00000000
00000010
00010000
00000000
00010000
00001000
00000000
00010000
00000000
00011000
00000000
,
00001000
01000000
00000000
00010000
01000000
00000000
00100000
01000000
00000000
10000000
01000000
00000000
00100000
10000000
00100000
00000000
,
10000000
01000000
10000000
01000000
00000000
00100000
00000000
00010000
00000000
01000000
00000000
00100000
01000000
00010000
01000000
00000000
,
00010000
00100000
00001000
00100000
00000000
00001000
00000000
00010000
00000000
00000100
00000000
00001000
00000010
00000000
00000000
00000000
,
00001000
00000100
00001000
00000100
00000000
00000010
00000000
00000001
00000000
00000100
00000000
00000010
00001000
00000010
00000100
00000000
,
00001000
00010000
00001000
00010000
00000000
00100000
00000000
01000000
10000000
01000000
00000000
00100000
10000000
00010000
01000000
00000000
,
00010000
00100000
01000000
00100000
00000000
00001000
00000000
00010000
00000000
00001000
00000000
00000010
00000100
00000010
00000001
00000000
,
00001000
00000100
00000010
00000001
00000000
00001000
00000000
00000001
00000000
00000100
00000000
00001000
00010000
00000000
00000000
00000000
,
00001000
01000000
00010000
01000000
00000000
00100000
00000000
00010000
00000000
00100000
00000000
10000000
01000000
00100000
01000000
00000000
,
10000000
00010000
10000000
00010000
00000000
00100000
00001000
00000000
00010000
00001000
00010000
00000100
00001000
00000010
00000100
00000010
,
00000000
00000000
00001010
00000000
00000000
00000011
00000000
00000000
00000101
00000000
00000000
00001100
00000000
00000000
00011000
00000000
,
00020000
00000000
00032000
00023000
,
02030000
00000000
23000000
30020000
,
00230000
00000000
00000000
00000000
00001000
00000000
00000000
00000000
01300000
00000000
00020000
00000000
00000000
00031000
00000000
00000000
,
00000020
00000000
00000000
00000000
00000031
00000000
00001000
00000000
00000001
00000000
00000100
00000010
00000100
00000010
00000100
00000000
,
00000001
00001000
00002000
00000000
00003010
00000100
00001000
00010000
,
00200000
00010000
10300000
10100000
,
10000000
01000000
00200000
00000000
10000000
00000000
00301000
00010000
,
00000100
00000000
00001000
00000000
00000010
00000000
00000100
00000000
00000001
00000000
00001000
00000001
00001000
00000000
00001000
00000000
,
00000002
00000000
00000203
00000000
00000310
00001000
00010000
01000000
,
00200000
20300000
32000000
03020000
,
02030000
00000000
00000000
00000000
10000000
00000000
00000000
00000000
03100000
00000000
00001000
00000000
00000000
00011000
00000000
00000000
,
00020000
00100000
00001000
00130000
,
00001000
00010000
00002000
00000000
00010000
00000000
00003010
00000000
,
00000000
00000000
00000011
00000000
00000000
00000110
00000000
00000000
00010100
00000000
00000000
00011000
00000000
00000000
01001000
00000000
,
02020000
00000000
00000000
00000000
,
00000000
00000000
00000000
03030000
,
02200000
00000000
00000000
03300000
,
00000000
10100000
00000000
00000000
01010000
00000000
00000000
00110000
00000000
00000000
11000000
00000000
00000000
10010000
00000000
10000000
,
01000000
00100000
01000000
00100000
00010000
00100000
00010000
00000000
00100000
00001000
00100000
00001000
00010000
00001000
00010000
00000000
,
00000100
00001000
00000100
00001000
00000010
00000100
00000010
00000000
00000100
00000001
00000100
00000001
00000010
00000001
00000010
00000000
,
00000001
00000100
00000001
00000100
00000010
00000100
00000010
00000000
00010000
00000010
00010000
00000010
00010000
00001000
00010000
00000000
,
00001000
01000000
00000000
01000000
00100000
00000000
00100000
10000000
00000000
10000000
01000000
00000000
00100000
00010000
00000000
00010000
,
10000000
01000000
00100000
01000000
10000000
00100000
01000000
00000000
00010000
00100000
00001000
00010000
00001000
00100000
00010000
00000000
,
00100000
00001000
00010000
00001000
00010000
00000100
00001000
00000000
00000100
00001000
00000010
00000100
00000010
00001000
00000001
00000000
,
00000010
00000001
00001000
00000010
00000100
00000010
00001000
00000100
00000010
00000100
00010000
00001000
00010000
00100000
01000000
00000000
,
00100000
00000000
10000000
01000000
00000000
01000000
00100000
00010000
00000000
00010000
00100000
00001000
00000000
00001000
00010000
00000010
,
00001000
00000100
00001000
00000100
00000000
00000001
00000100
00000001
00000100
00000000
00001000
00000010
00000100
00000001
00000000
00001001
,
00000000
00000002
00000203
00000320
,
00002030
00000000
00023000
00000000
,
02030000
00000000
00000000
23000000
,
32000000
03020000
00230000
02300000
,
23000000
32000000
03020000
00032000
,
00003020
00000000
00000032
00000000
,
00000000
00002003
00003002
00000000
,
00000000
00000203
00000020
00000330
,
00000110
00000000
00000000
00000000
00000000
00000000
00000000
00000000
00000001
00000000
00000000
00000001
00000000
00000000
00000001
00000010
,
00000002
00000000
00000000
00000000
00000103
00000010
00000100
00000010
00002000
00000000
00000000
00000000
00003100
00010000
00000100
00010000
,
00002000
00000000
00000000
00000000
01003000
00010000
01000000
00010000
00200000
00000000
00000000
00000000
01300000
10000000
01000000
10000000
,
00100000
00000000
01000000
00010000
00100000
00000000
01000000
00010000
00001000
00000000
00010000
00001000
00000010
00000000
00000100
00000010
,
00001000
00000000
00000000
00000000
00000020
00000000
00000000
00000000
00000031
00000000
00000000
00000001
00000100
00000010
00001000
00000010
,
00000200
00000000
00001300
00010000
00001000
01000000
00100000
00000000
20000000
00000000
30010000
01000000
00100000
01000000
00010000
00000000
,
00200000
00000000
01300000
10000000
00010000
00100000
00010000
00000000
02000000
00000000
03100000
00010000
00001000
00010000
00001000
00000000
,
00000010
00000000
00000100
00001000
00000001
00000000
00000100
00000001
00001000
00000000
00000010
00000100
00000001
00000000
00000010
00000100
,
00001000
00000000
00000001
00000100
00001000
00000000
00010000
00100000
10000000
00000000
00000000
10000000
00000000
00000000
10000000
00010000
,
10000000
00000000
01000000
00010000
01000000
00000000
00100000
00010000
01000000
00000000
00100000
10000000
01000000
00000000
00010000
00001000
,
00100000
00000000
00001000
00010000
00100000
00000000
02000000
00000000
03200000
00000000
00320000
00000000
00032000
00000000
00003200
00000000
,
00000301
00000000
00000010
00001000
00000010
00000000
00000001
00000100
00000010
00000000
00001000
00000100
00000010
00000000
00000001
00001000
,
00000100
00000000
00010000
00001000
00000100
00000000
00000002
00000000
00000023
00000000
00002030
00000000
00023000
00000000
02030000
00000000
,
13000000
00100000
10000000
00100000
01000000
00010000
01000000
00010000
00100000
01000000
00100000
01000000
00010000
00001000
00010000
00001000
,
00000010
00000100
00000010
00000100
00001000
00000001
00001000
00000001
00000100
00000010
00001000
00000000
00000100
00000010
00000001
00000000
,
00001000
00000001
00000100
00000010
00000100
00001000
00010000
00100000
01000000
00100000
10000000
00010000
01000000
10000000
01000000
00000000
,
00100000
00000000
00000000
10000000
00000000
00000000
00100000
00000000
00000000
01000000
00000000
00000000
00000000
00000000
00000000
00010000
00000000
00000000
00100000
00000000
00000000
01000000
00000000
00000000
00100000
00000000
00000000
00000000
00000000
00000000
00001000
00000000
00000000
00000000
00000000
00000000
00010000
00000000
00000000
00000000
00001000
00000000
00000000
00000000
00022000
00000000
00000000
00000000
,
00000000
00000000
00000000
00000000
,
00000000
00000000
00000000
00000000
,
00000000
00000000
00000000
00000000
,
00033000
00000000
00000000
00000000
,
00000000
00000000
00000000
00000000
;
