
//----- song ID: kini -----//
#TITLE:Kill The Night;
#ARTIST:SOUND HOLIC feat. Nana Takahashi & 709sec.;
#BANNER:Kill The Night.png;
#BACKGROUND:Kill The Night-bg.png;
#CDTITLE:./CDTitles/DDR A3.png;
#MUSIC:Kill The Night.ogg;
#SAMPLESTART:61.091;
#SAMPLELENGTH:15;
#BPMS:0=165;
#NOTES:
     dance-single:
     :
     Beginner:
     2:
     :
0000
0000
0000
0000
,
0000
0000
0000
0000
,
0000
0000
0000
0000
,
0000
0000
0000
0000
,
0000
0000
0000
0000
,
0000
0000
0000
0000
,
0001
0000
0000
0000
,
0001
0000
0000
0000
,
1000
0000
0000
0000
,
1000
0000
0000
0000
,
0001
0000
0000
0000
,
0001
0000
0000
0000
,
0100
0000
0000
0000
,
0100
0000
0000
0000
,
0010
0000
0000
0000
,
0010
0000
0000
0000
,
1000
0000
0000
0000
,
0001
0000
0000
0000
,
1001
0000
0000
0000
,
0000
0000
0000
0000
,
0001
0000
0000
0000
,
0200
0000
0300
0000
,
0110
0000
0000
0000
,
0000
0000
0000
0000
,
1000
0000
0000
0000
,
0200
0000
0300
0000
,
0110
0000
0000
0000
,
0000
0000
0000
0000
,
1000
0000
0000
0000
,
0001
0000
0010
0000
,
0001
0000
0000
0000
,
0000
0000
0000
0000
,
0001
0000
0000
0000
,
1000
0000
0010
0000
,
2000
0000
3000
0000
,
0010
0000
0000
0000
,
0010
0000
0000
0000
,
0100
0000
0000
0000
,
0100
0000
0000
0000
,
0001
0000
0000
0000
,
1000
0000
0000
0000
,
1001
0000
0000
0000
,
0001
0000
0001
0000
,
0001
0000
0000
0000
,
0100
0000
0100
0000
,
0100
0000
0000
0000
,
0010
0000
0010
0000
,
0010
0000
0000
0000
,
1000
0000
1000
0000
,
1000
0000
0000
0000
,
0001
0000
0000
0000
,
0000
0000
0000
0000
,
0100
0000
0000
0000
,
0000
0000
0000
0000
,
0010
0000
0000
0000
,
0000
0000
0000
0000
,
1000
0000
0000
0000
,
0000
0000
0000
0000
,
2002
0000
0000
0000
,
0000
0000
0000
0000
,
3003
0000
0000
0000
,
2000
0000
3000
0000
,
0000
0000
0000
0000
,
0010
0000
0000
0000
,
0100
0000
0000
0000
,
0002
0000
0003
0000
,
1000
0000
1000
0000
,
0001
0000
0001
0000
,
0100
0000
0100
0000
,
0010
0000
0020
0000
,
0030
0000
0000
0000
,
0000
0000
0000
0000
;
#NOTES:
     dance-single:
     :
     Easy:
     6:
     :
0000
0000
0000
0000
,
0000
0000
0000
0000
,
0000
0000
0000
0000
,
0000
0000
0000
0000
,
0000
0000
0000
0000
,
0000
0000
0000
0000
,
0001
0000
0000
0000
,
0100
0000
0000
0000
,
0010
0000
0000
0000
,
1000
0000
0000
0000
,
0001
0000
1000
0000
,
0001
1000
0001
0000
,
0010
0000
0100
0000
,
0010
0100
0010
0000
,
0001
0000
1000
0000
,
0001
1000
0001
0000
,
2000
0000
3000
0000
,
1001
0000
0000
0000
,
1000
0000
0100
0000
,
0020
0000
0030
0000
,
0001
0000
0100
0000
,
0020
0000
0030
0000
,
1000
0000
0010
0000
,
0200
0000
0300
0000
,
0001
0000
0010
0000
,
0200
0000
0300
0000
,
1000
0000
1000
0000
,
1000
0000
0000
0000
,
0001
0000
0001
0000
,
0002
0000
0003
0000
,
0100
0000
0100
0000
,
0100
0000
0000
0000
,
0010
0000
0010
0000
,
0020
0000
0030
0000
,
2000
0000
0000
0000
,
3200
0000
0000
0000
,
0320
0000
0000
0000
,
0031
0000
1000
0000
,
0020
0000
0000
0000
,
0230
0000
0000
0000
,
0302
0000
0000
0000
,
1003
0000
0000
0000
,
1000
0001
1000
0000
0002
0000
0003
0000
,
0001
0000
0000
0000
,
0001
1000
0001
0000
2000
0000
3000
0000
,
1000
0000
0000
0000
,
1000
0010
1000
0000
0020
0000
0030
0000
,
0010
0000
0000
0000
,
0001
0010
0001
0000
0020
0000
0030
0000
,
0010
0000
0001
0000
,
1000
0000
0000
0000
,
0100
0000
0000
0000
,
0020
0000
0032
0000
,
2003
0000
3002
0000
,
1003
0000
0000
0000
,
0010
0000
0000
0000
,
0200
0000
0302
0000
,
2003
0000
3002
0000
,
1003
0100
1000
0100
,
2000
0000
3000
0000
,
0001
0100
0001
0100
,
0002
0000
0003
0000
,
1000
0010
1000
0010
,
2000
0000
3000
0000
,
0001
0010
0001
0010
,
0002
0000
0003
0000
,
1000
0100
1000
0000
,
0001
0100
0001
0000
,
0100
0010
0100
0000
,
0020
0000
0200
0000
,
0330
0000
0000
0000
,
0000
0000
0000
0000
;
#NOTES:
     dance-single:
     :
     Medium:
     11:
     :
0000
0000
0000
0000
,
0000
0000
0000
0000
,
0000
0000
0000
0000
,
0000
0000
0000
0000
,
0000
0000
0000
0000
,
0000
0000
0000
0000
,
0001
0010
0100
1000
0100
0010
0001
0000
,
1000
0010
0100
0001
0100
0010
1000
0000
,
0001
0100
0010
1000
0100
0010
0001
0000
,
1000
0010
0100
0001
0010
0100
1000
0000
,
0100
1000
0010
0000
0100
0001
0010
0000
,
0001
0010
1000
0010
0001
0100
0010
0000
,
0100
0001
0010
0000
0100
1000
0010
0000
,
1000
0010
0001
0010
1000
0100
0010
0000
,
0001
0100
0010
0000
1000
0100
0010
0000
,
0100
0010
0100
0010
0001
1000
0001
0000
,
1001
0000
0000
0000
,
1001
0000
0000
0000
0000
0000
0000
0000
1000
0000
0000
0001
0000
0000
1000
0000
,
0001
0010
0100
1000
0001
0100
0010
1000
,
0100
0020
0030
0001
1000
0010
0100
0001
,
1000
0100
1000
0001
0100
0001
1000
0100
,
0010
0100
0000
0100
0000
0100
0000
0100
,
1000
0010
0100
0001
1000
0100
0010
0001
,
0100
0020
0030
1000
0001
0010
0100
1000
,
0001
0100
0001
1000
0100
1000
0001
0100
,
0010
0100
0000
0100
0000
0100
0000
0100
,
0001
0010
0100
1000
0010
0000
0100
0010
,
0100
0000
0010
0000
0010
1000
0100
0010
,
0001
1000
0010
0100
0001
0000
0100
0010
,
1000
0100
0001
0100
1000
0010
0100
0001
,
1000
0100
0010
0001
0100
0000
0010
0100
,
0010
0100
0020
0230
,
0301
1000
0100
0010
0001
0000
0010
0100
,
0010
0100
1000
1001
,
0002
0000
0000
0000
0103
0010
2000
0000
,
3200
0000
0000
0320
0000
0000
0031
0000
,
1000
0000
0010
0200
0000
0000
0310
0000
,
0100
0010
1000
0001
,
1000
0000
0100
0000
0010
0001
0100
0010
,
1000
0000
0000
0001
0000
0000
1000
0000
,
0001
0000
0000
0100
0000
0000
0010
0000
,
0110
0110
1001
1001
,
1000
0100
0010
0001
1000
0000
0001
1000
,
0001
0000
0010
0001
0100
1000
0100
0000
,
1000
0100
0001
0010
1000
0000
0010
0001
,
0100
0010
0100
0010
1000
0100
0010
0001
,
0100
0001
1000
0010
0100
0000
0110
0000
,
1001
0000
0110
0000
0001
0100
0010
1000
,
0001
0010
1000
0010
0001
0000
1000
0000
,
0001
0000
0000
1000
0000
0000
0001
0000
2000
0000
0000
0000
3000
0000
0000
0000
,
0001
0000
0000
0100
0000
0000
0010
0000
0000
0000
1000
0000
0100
0000
0010
0000
,
0001
0000
0000
0010
0000
0000
0100
0000
0000
0000
1000
0000
0010
0000
0100
0000
,
0001
0000
0000
0100
0000
0000
1000
0000
0000
0000
0100
0000
0001
0000
0020
0000
,
0200
0000
0000
0330
0110
0000
1001
0000
,
1000
0000
0000
0100
0000
0000
0010
0000
0000
0000
0001
0000
0100
0000
0010
0000
,
1000
0000
0000
0010
0000
0000
0100
0000
0000
0000
0001
0000
0010
0000
0100
0000
,
1000
0000
0000
0100
0000
0000
0001
0000
0000
0000
0100
0000
1000
0000
0020
0000
,
0200
0000
0000
0330
0010
0100
0002
2000
,
0000
0000
0000
0000
,
0000
0000
0000
3003
,
1000
0010
1000
0001
0010
0001
1000
0010
,
0100
0010
0000
0010
0000
0010
0000
0010
,
1000
0100
0010
0001
1000
0010
0100
0001
,
0010
0200
0300
1000
0001
0100
0010
1000
,
0001
0010
0001
1000
0010
1000
0001
0010
,
0100
0010
0000
0010
0000
0010
0000
0010
,
0001
1000
0001
1000
0001
1000
0001
1000
,
0100
0010
0100
0010
0100
0010
0100
0010
,
0001
0100
1000
0100
0001
0010
1000
0010
,
0001
0000
0100
0000
1000
0000
0100
0000
0010
0000
0000
0100
0000
0000
0110
0000
,
0000
0000
0000
0000
;
#NOTES:
     dance-single:
     :
     Hard:
     14:
     :
0000
0000
0000
0000
,
0000
0000
0000
0000
,
0000
0000
0000
0000
,
0000
0000
0000
0000
,
0000
0000
0000
0000
,
0000
0000
0000
0000
,
1000
0000
0010
0000
0100
0001
0000
1000
0100
0000
0010
0001
0000
1000
0010
0000
,
1000
0000
0010
0000
0100
0001
0000
1000
0010
0000
0100
0000
0010
0000
1000
0000
,
0001
0000
1000
0000
0010
1000
0000
0001
0010
0000
0100
1000
0000
0001
0100
0000
,
0001
0000
0100
0000
0010
1000
0000
0001
0100
0000
0000
0010
0000
0000
0100
0000
,
0001
0000
0100
0000
0001
0100
0000
0010
1000
0000
0001
0010
0000
0100
1000
0000
,
0100
0000
1000
0000
0001
1000
0000
0010
0100
0000
0010
0000
1000
0000
0001
0000
,
0010
0000
0001
0000
0010
0001
0000
1000
0100
0000
1000
0010
0000
0100
0001
0000
,
0100
0000
0010
0000
0100
0010
0000
1000
0001
0000
0000
1000
0000
0000
0001
0000
,
0010
0000
0100
0000
0010
0100
0000
1000
0001
0000
0100
0010
0000
1000
0001
0000
,
1000
0000
0001
0000
1000
0100
0000
0010
0001
0000
1000
0000
0001
0000
0100
0000
,
0020
0000
0000
0030
,
0220
0000
0000
0000
0330
0000
0000
0000
0010
0000
0000
0100
0000
0000
0010
0000
,
0100
0000
0000
0001
0000
0000
1000
0000
0000
0100
0000
0000
0010
0000
0001
0000
,
1000
0001
2000
0000
3000
0000
1000
0000
0100
0000
0000
0010
0000
0000
0001
0010
,
0001
0000
0000
0010
0000
0000
0001
0000
0000
0100
0000
0000
0010
0000
1000
0000
,
0001
0001
0010
0010
0100
0100
1000
1000
,
0100
0000
0000
1000
0000
0000
0001
0000
0000
0100
0000
0000
0010
0000
1000
0000
,
0001
1000
0002
0000
0003
0000
0001
0000
0100
0000
0000
0010
0000
0000
1000
0010
,
1000
0000
0000
0010
0000
0000
1000
0000
0000
0100
0000
0000
0010
0000
0001
0000
,
1000
1000
0010
0010
0100
0100
0001
0001
,
0100
0001
0010
0100
1000
0000
0001
0100
,
0010
0000
1010
0000
1000
0100
0010
0001
,
1000
1000
0010
0100
0001
0000
0100
0010
,
0100
0000
0001
0100
0000
0010
1000
0000
0001
0010
0000
0100
1000
0000
0001
0000
,
1000
1000
0100
0010
0001
0000
1000
0100
,
0020
0030
0200
0300
0110
0000
1001
0000
,
0001
0010
0100
1000
0010
0000
0100
0010
,
0110
0101
0110
1010
,
1000
0000
0010
0000
0000
0000
1000
0000
0000
0000
0100
0000
2000
0000
3000
0001
,
0000
0000
0100
0000
0000
0000
0001
0000
0000
0000
0100
0000
0020
0000
0030
0100
,
0010
0100
0010
0000
0000
0000
1000
0000
0000
0000
0100
0000
0000
0000
1000
0000
,
0100
0100
0010
0010
0001
0001
1000
1000
,
0001
1000
0001
0000
0000
0000
1000
0000
0000
0000
0001
0000
0200
0000
0300
0010
,
0000
1000
0000
0100
0000
0010
0002
0003
,
0022
0033
0220
0330
,
2000
3020
0230
0302
,
1003
0000
0001
0100
0000
0010
1000
0000
0001
0100
0000
0010
1000
0000
1000
0000
,
0010
0000
1000
0010
0000
0100
0001
0000
1000
0010
0000
0100
0001
0000
0001
0000
,
0010
0000
0001
0010
0000
0100
1000
0000
0001
0010
0000
0100
1000
0000
1000
0000
,
0100
0000
1000
0100
0000
0010
0001
0000
1000
0100
0000
0010
0001
0000
0001
0000
,
1000
0000
0001
1000
0000
0010
0100
0000
0001
1000
0000
0010
0100
0000
0100
0000
,
0010
0000
0100
0010
0000
1000
0001
0000
0100
0010
0000
1000
0001
0000
0001
0000
,
1000
0000
0001
1000
0000
0100
0010
0000
0001
1000
0000
0100
0010
0000
0010
0000
,
0100
0000
0000
0010
0000
0000
0100
0000
0110
0000
0000
0000
0110
0000
0000
0000
,
0100
0000
0000
0010
0000
0000
0200
0000
0300
0000
0010
0000
0001
0000
1000
0000
,
0010
0000
0000
0100
0000
0000
0020
0000
0030
0000
0100
0000
0010
0000
1000
0000
,
0001
0000
0000
1000
0000
0000
0002
0000
0003
0000
0010
0000
0100
0000
2000
0000
,
0002
0000
0000
3003
1001
0000
1001
0000
,
0001
0000
0000
0100
0000
0000
0010
0000
0000
0000
1000
0000
0100
0000
0010
0000
,
0001
0000
0000
1000
0000
0000
0001
0000
0000
0000
1000
0000
0001
0000
0100
0000
,
0010
0000
0000
0100
0000
0000
0010
0000
0000
0000
0100
0000
0010
0000
1000
0000
,
0200
0000
0000
0300
0010
0001
1000
0100
,
0010
0000
0000
0001
0000
0000
1000
0000
0000
0010
0000
0000
0100
0000
0001
0000
,
1000
0001
2000
0000
3000
0000
1000
0000
0010
0000
0000
0100
0000
0000
0001
0100
,
0001
0000
0000
0100
0000
0000
0001
0000
0000
0010
0000
0000
0100
0000
1000
0000
,
0001
0001
0100
0100
0010
0010
1000
1000
,
0010
0000
0000
1000
0000
0000
0001
0000
0000
0010
0000
0000
0100
0000
1000
0000
,
0001
1000
0002
0000
0003
0000
0001
0000
0010
0000
0000
0100
0000
0000
1000
0100
,
1000
0000
0000
0100
0000
0000
1000
0000
0000
0010
0000
0000
0100
0000
0001
0000
,
0100
0100
0010
0010
1000
1000
0001
0001
,
1000
0000
0001
0100
0000
0001
0100
0000
0001
0100
0000
0001
0100
0000
0001
0100
,
0000
0001
0100
0000
0001
0100
0000
0001
0100
0000
0001
0100
0000
0001
0100
0010
,
1000
0000
0010
1000
0000
0010
1000
0000
0010
1000
0000
0010
1000
0010
1000
0001
,
0000
1000
0001
0000
0010
0100
0010
0000
0100
0000
0000
0010
0000
0000
1001
0000
,
0000
0000
0000
0000
;
#NOTES:
     dance-single:
     :
     Challenge:
     16:
     :
0000
0000
0000
0000
,
0000
0000
0000
0000
,
0000
0000
0000
0000
,
0000
0000
0000
0000
,
0000
0000
0000
0000
,
0000
0000
0000
0000
,
1000
0000
1000
0000
0001
0100
0000
0010
1000
0000
0001
0010
0000
0100
1000
0100
,
1000
0000
0100
0000
0010
0001
0000
1000
0001
0000
1000
0010
0100
0001
0010
0000
,
0001
0000
0001
0000
1000
0100
0000
0010
0001
0000
1000
0010
0000
0100
0001
0100
,
0001
0000
0100
0000
0010
1000
0000
0001
1000
0000
1000
0100
0000
0100
0010
0000
,
0001
0000
0001
0000
1000
0010
0000
0100
0001
0000
1000
0100
0000
0010
0001
0010
,
0001
0000
0010
0000
0100
1000
0000
0001
1000
0000
0001
0100
0010
1000
0100
0000
,
1000
0000
1000
0000
0001
0010
0000
0100
1000
0000
0001
0100
0000
0010
1000
0010
,
1000
0000
0010
0000
0100
0001
0000
1000
0001
0000
0001
0010
0000
0010
0100
0000
,
1000
0000
1000
0000
0001
1000
0000
0010
0100
0000
0001
1000
0000
0100
0010
0100
,
0010
0000
0100
0000
1000
0001
0000
0010
0100
0000
1000
0001
1000
0001
0100
0010
,
0100
0000
0010
0000
1000
0010
0000
0100
0001
0000
0100
0010
0100
0010
0100
0000
,
0220
0000
0000
0000
0330
0000
0000
0000
0100
0000
0000
0010
0000
0000
0100
0000
,
0010
0000
0010
1000
0000
1000
0001
0000
0001
0010
0000
0010
0100
1000
0010
0100
,
0001
0100
0002
0000
0003
0000
1000
0000
1000
0010
0000
0010
0100
0000
0100
0001
,
0100
0000
0100
0010
0000
0010
1000
0000
1000
0001
0000
0001
1000
0100
0010
0001
,
1000
0010
1000
0000
0001
0010
0001
0000
1000
0010
1000
0000
0001
0010
0001
0000
,
0010
0000
0010
0001
0000
0001
1000
0000
1000
0010
0000
0010
0100
0001
0010
0100
,
1000
0100
2000
0000
3000
0000
0001
0000
0001
0010
0000
0010
0100
0000
0100
1000
,
0100
0000
0100
0010
0000
0010
0001
0000
0001
1000
0000
1000
0001
0100
0010
1000
,
0001
0010
0001
0000
1000
0010
1000
0000
0001
0010
0001
0000
1000
0010
1000
0000
,
0010
0000
1000
0100
0010
0000
0001
0000
1000
0000
0001
0000
0100
0000
1000
0000
,
0100
0000
0001
0000
1000
0000
0100
0000
0010
0000
0001
1000
0001
0000
1000
0000
,
0001
0000
0100
0010
0100
0000
0010
0000
1000
0000
0100
0000
0001
0000
0100
0000
,
1000
0000
0001
0100
0000
1000
0100
0000
0001
0010
0000
1000
0010
0000
0001
0000
,
1000
0000
0001
0100
0010
0000
1000
0000
0100
0000
0001
0000
0100
0000
1000
0000
,
0002
0000
0003
0000
0020
0000
0030
0000
0110
0000
0100
0010
0002
0000
0003
0000
,
1000
0000
0010
0100
0001
0000
0100
0000
0010
0000
0100
0000
1000
0000
0100
0000
,
0101
0000
0100
0001
0010
0000
0100
1000
0010
0000
0100
0010
1000
0000
0100
0010
,
0001
0000
0010
0000
0100
0000
1000
0000
0100
0000
0010
0001
0200
0000
0300
0001
,
1000
0000
0010
0000
0100
0000
0001
0000
0100
0000
0010
1000
0200
0000
0300
1000
,
0001
1000
0001
0000
0010
0000
0001
0000
0100
0000
0010
0000
1000
0000
0100
0000
,
1000
0100
1000
0000
0001
0100
0001
0000
1000
0010
1000
0000
0001
0010
0001
0000
,
1000
0001
1000
0000
0100
0000
1000
0000
0001
0000
0100
0001
0020
0000
0030
0001
,
1000
0000
0100
0000
0010
0000
0001
0000
0010
0000
0100
1000
0020
0000
0030
0000
,
2020
3030
0220
0330
,
0002
0203
0320
2030
,
3001
0000
1000
0010
0000
1000
0001
0000
1000
0100
0000
1000
0001
0000
1000
0000
,
0001
0000
0100
0001
0000
0100
0010
0000
0100
1000
0000
0100
0010
0100
0010
0000
,
0100
0000
0001
0100
0000
0001
1000
0000
0001
0010
0000
0001
1000
0000
0001
0000
,
1000
0000
0010
1000
0000
0010
0100
0000
0010
0001
0000
0010
0100
0010
0100
0000
,
0010
0000
1000
0100
0000
1000
0001
0000
1000
0010
0000
1000
0001
0000
1000
0000
,
0001
0000
0010
0001
0000
0010
0100
0000
0010
1000
0000
0010
0100
0010
0100
0000
,
0010
0000
0001
0010
0000
0001
1000
0000
0001
0100
0000
0001
1000
0000
0001
0000
,
1000
0000
0000
0100
0000
0000
0010
0000
0110
0000
0000
0000
0110
0000
0000
0000
,
0100
0000
0010
0100
0000
0100
0020
0000
0030
0000
0010
0100
1000
0000
0001
0000
,
0100
0000
0010
0100
0000
0100
0020
0000
0030
0000
0010
0100
0001
0000
1000
0000
,
0100
0000
0010
0001
0000
0001
0200
0000
0300
0000
0010
0000
1000
0000
0002
0000
,
0200
0000
0000
0303
0110
0000
1010
0000
,
0010
0000
0100
0010
0000
0010
0200
0000
0300
0000
0100
0010
1000
0000
0001
0000
,
0010
0000
0100
0010
0000
0010
0200
0000
0300
0000
0100
0010
0001
0000
1000
0000
,
0010
0000
0100
0001
0000
0001
0020
0000
0030
0000
0100
0000
1000
0000
0001
0000
,
0020
0000
0000
0000
0000
0000
0030
0000
0010
0000
0001
1000
0001
0000
1000
0000
,
0100
0000
0100
1000
0000
1000
0001
0000
0001
0100
0000
0100
0010
1000
0100
0010
,
0001
0010
0002
0000
0003
0000
1000
0000
1000
0100
0000
0100
0010
0000
0010
0001
,
0010
0000
0010
0100
0000
0100
1000
0000
1000
0001
0000
0001
1000
0010
0100
0001
,
1000
0100
1000
0000
0001
0100
0001
0000
1000
0100
1000
0000
0001
0100
0001
0000
,
0100
0000
0100
0001
0000
0001
1000
0000
1000
0100
0000
0100
0010
0001
0100
0010
,
1000
0010
2000
0000
3000
0000
0001
0000
0001
0100
0000
0100
0010
0000
0010
1000
,
0010
0000
0010
0100
0000
0100
0001
0000
0001
1000
0000
1000
0001
0010
0100
1000
,
0001
0100
0001
0000
1000
0100
1000
0000
0001
0100
0001
0000
1000
0100
1000
0000
,
0100
0000
1000
0100
0000
0001
0100
0000
1000
0100
0000
0001
0100
0000
1000
0100
,
0000
0001
0100
0000
1000
0100
0000
0001
0100
0000
1000
0100
0000
0001
0100
1000
,
0010
0000
0001
0010
0000
1000
0010
0000
0001
0010
0000
1000
0010
0001
0010
1000
,
0000
0001
1000
0000
0100
0010
0100
0010
0100
0000
0000
0010
0000
0000
1001
0000
,
0000
0000
0000
0000
;
#NOTES:
     dance-double:
     :
     Easy:
     7:
     :
00000000
00000000
00000000
00000000
,
00000000
00000000
00000000
00000000
,
00000000
00000000
00000000
00000000
,
00000000
00000000
00000000
00000000
,
00000000
00000000
00000000
00000000
,
00000000
00000000
00000000
00000000
,
00010000
00000000
00001000
00000000
,
00000010
00000000
00001000
00000000
,
00010000
00000000
00100000
00000000
,
00010000
00000000
00001000
00000000
,
00001000
00010000
00100000
10000000
,
01000000
00010000
00001000
00000000
,
00010000
00001000
00000010
00000001
,
00000100
00001000
00010000
00000000
,
00001000
00010000
00001000
00100000
,
00010000
01000000
00100000
10000000
,
00020000
00000000
00030000
00000000
,
20000000
00000000
30010000
00000000
,
10000000
01000000
00010000
00001000
,
00010000
00000000
00010000
00000000
,
00001000
00010000
00000010
00000100
,
00000001
00000000
00000101
00000000
,
00000001
00000100
00001000
00010000
,
00001000
00000000
00001000
00000000
,
00010000
00001000
00100000
01000000
,
10000000
00000000
11000000
00000000
,
10000000
01000000
00100000
00000000
,
00100000
00001000
00010000
00000000
,
00010000
00001000
00000010
00000000
,
00000100
00000000
00000110
00000000
,
00000001
00000100
00000010
00000000
,
00000010
00010000
00001000
00000000
,
00001000
00010000
00100000
00000000
,
01000000
00000000
01100000
00000000
,
00020000
01000000
10000000
00130000
,
00100000
00001000
00010000
00000100
,
00002000
00000100
00000001
00003010
,
00000010
00010000
00001000
00100000
,
00020000
00100000
10000000
01030000
,
01000000
00001000
00010000
00000010
,
00002000
00000010
00000001
00003100
,
00000100
00010000
00001000
00010000
,
00001000
00010000
00001000
00000000
00020000
00000000
00030000
00000000
,
00001000
00010000
01000000
10000000
,
00010000
10000000
00010000
00000000
20000000
00000000
30000000
00000000
,
10000000
00100000
00010000
00001000
,
00010000
00001000
00010000
00000000
00002000
00000000
00003000
00000000
,
00010000
00001000
00000100
00000001
,
00001000
00000001
00001000
00000000
00000002
00000000
00000003
00000000
,
00001000
00000000
00001001
00000000
,
00000001
00000100
00001000
00000000
,
00000100
00001000
00010000
00000000
,
00001000
00010000
01000000
10000000
,
00100000
01000000
00200000
00000000
,
10300000
01000000
00010000
00000000
,
01000000
00010000
00001000
00000000
,
00010000
00001000
00000100
00000001
,
00000010
00000100
00000020
00000000
,
00000031
00000010
00001000
00010000
,
00002000
00003000
00001000
00000000
,
00010000
00001000
01000000
00100000
,
10000000
00000000
10100000
00000000
,
10000000
00100000
00010000
00001000
,
00020000
00030000
00010000
00000000
,
00001000
00010000
00000100
00000010
,
00000001
00000000
00000011
00000000
,
00000001
00000100
00001000
00000100
,
00001000
00010000
00001000
00010000
,
01000000
00010000
01000000
10000000
,
00100000
01000000
02200000
00000000
,
03300000
00000000
00000000
00000000
,
00000000
00000000
00000000
00000000
;
#NOTES:
     dance-double:
     :
     Medium:
     11:
     :
00000000
00000000
00000000
00000000
,
00000000
00000000
00000000
00000000
,
00000000
00000000
00000000
00000000
,
00000000
00000000
00000000
00000000
,
00000000
00000000
00000000
00000000
,
00000000
00000000
00000000
00000000
,
00010000
00001000
00100000
00000000
00010000
00100000
00001000
00000000
,
00010000
00001000
01000000
00000000
00010000
01000000
00001000
00000000
,
00001000
00010000
00000010
00000000
00001000
00000010
00010000
00000000
,
00001000
00010000
00000100
00000000
00001000
00000100
00010000
00000000
,
00001000
00010000
00100000
00000000
00010000
00100000
10000000
00000000
,
00100000
10000000
00010000
01000000
00001000
00010000
00001000
00000000
,
00010000
00001000
00000010
00000000
00001000
00000010
00000001
00000000
,
00000010
00000001
00001000
00000100
00010000
00001000
00010000
00000000
,
00001000
00010000
00000010
00000000
00010000
00001000
00100000
00000000
,
00010000
00100000
00001000
00010000
00000010
00001000
00000010
00000000
,
00000110
00000000
00000000
00000000
,
00001001
00000000
00000000
00000000
00000000
00000000
00000000
00000000
00000001
00000000
00000000
00000100
00000000
00000000
00000010
00000000
,
00001000
00000010
00010000
00001000
00100000
00010000
10000000
01000000
,
00100000
00020000
00030000
00100000
00001000
00010000
00000010
00001000
,
00000001
00000100
00000001
00001000
00000100
00010000
00001000
01000000
,
00010000
01000000
00000000
01000000
00000000
01000000
00000000
01000000
,
00100000
10000000
01000000
00100000
00001000
00010000
00000100
00000010
,
00000001
00000200
00000300
00000010
00010000
00001000
01000000
00010000
,
10000000
00100000
01000000
00001000
00010000
00000010
00000100
00000001
,
00001000
00000100
00000000
00000100
00000000
00000100
00000000
00000100
,
00010000
00001000
00010000
01000000
10000000
00000000
01000000
00100000
,
01000000
00000000
00100000
00000000
00100000
00010000
01000000
00001000
,
00010000
00001000
00000100
00000001
00000100
00000000
00000010
00000100
,
00000010
00001000
00000100
00010000
00001000
00100000
00010000
01000000
,
00100000
10000000
01000000
00010000
00001000
00000000
00010000
00001000
,
00010000
00011000
00002000
00003200
,
00000310
00001000
00000001
00000010
00000100
00000000
00010000
00001000
,
00100000
00010000
01000000
01100000
,
00200000
00000000
00000000
00000000
01300000
00010000
20000000
00000000
,
32000000
00000000
00000000
03200000
00000000
00000000
00310000
00000000
,
00100000
00000000
00001000
00020000
00000000
00000000
00031000
00000000
,
00010000
00001000
00000100
00000001
,
00001000
00000000
00000001
00000000
00001000
00000100
00010000
00001000
,
00100000
00000000
00000000
00010000
00000000
00000000
01000000
00000000
,
00100000
00000000
00000000
10000000
00000000
00000000
01000000
00000000
,
01100000
00110000
00101000
00011000
,
00010000
00001000
00000010
00000001
00000010
00000000
00000100
00000010
,
00000100
00000000
00001000
00000100
00010000
00001000
00010000
00000000
,
00001000
00010000
01000000
00010000
00001000
00000000
00100000
00010000
,
01000000
00100000
10000000
01000000
00100000
00010000
01000000
00001000
,
00010000
00000010
00001000
00000100
00000010
00000000
00000110
00000000
,
00000110
00000000
00000010
00000000
00000001
00000100
00000010
00001000
,
00000010
00010000
00001000
01000000
00010000
00000000
10000000
00000000
,
00100000
00000000
00000000
01000000
00000000
00000000
00100000
00000000
02000000
00000000
00000000
00000000
03000000
00000000
00000000
00000000
,
00010000
00000000
00000000
01000000
00000000
00000000
00010000
00000000
00000000
00000000
00100000
00000000
01000000
00000000
00010000
00000000
,
00001000
00000000
00000000
00010000
00000000
00000000
00001000
00000000
00000000
00000000
00010000
00000000
00001000
00000000
00000010
00000000
,
00000100
00000000
00000000
00000010
00000000
00000000
00000100
00000000
00000000
00000000
00000010
00000000
00000001
00000000
00000200
00000000
,
00000020
00000000
00000000
00000330
00000110
00000000
00001001
00000000
,
00000001
00000000
00000000
00000010
00000000
00000000
00000100
00000000
00000000
00000000
00000010
00000000
00001000
00000000
00010000
00000000
,
00100000
00000000
00000000
01000000
00000000
00000000
00100000
00000000
00000000
00000000
01000000
00000000
00100000
00000000
10000000
00000000
,
01000000
00000000
00000000
00100000
00000000
00000000
01000000
00000000
00000000
00000000
00100000
00000000
01000000
00000000
00020000
00000000
,
00002000
00000000
00000000
00033000
00010000
00001000
00000200
00000020
,
00000000
00000000
00000000
00000000
,
00000000
00000000
00000000
00000330
,
00000100
00000001
00000010
00000100
00001000
00000010
00010000
00001000
,
01000000
00100000
00000000
00100000
00000000
00100000
00000000
00100000
,
10000000
01000000
00010000
00001000
00010000
00001000
00000100
00000001
,
00000100
00000020
00000030
00001000
00000100
00010000
00001000
01000000
,
00010000
00100000
01000000
10000000
00100000
00010000
00001000
00010000
,
00001000
00000010
00000000
00000010
00000000
00000010
00000000
00000010
,
00000100
00000010
00000100
00000010
00001000
00010000
00001000
00010000
,
00100000
01000000
00100000
01000000
00010000
10000000
00010000
10000000
,
01000000
00100000
01000000
00100000
01000000
00010000
00001000
00010000
,
00001000
00000000
00010000
00000000
00001000
00000000
00000100
00000000
00000001
00000000
00000000
00001000
00000000
00000000
00001001
00000000
,
00000000
00000000
00000000
00000000
;
#NOTES:
     dance-double:
     :
     Hard:
     14:
     :
00000000
00000000
00000000
00000000
,
00000000
00000000
00000000
00000000
,
00000000
00000000
00000000
00000000
,
00000000
00000000
00000000
00000000
,
00000000
00000000
00000000
00000000
,
00000000
00000000
00000000
00000000
,
00010000
00000000
00001000
00000000
00010000
00001000
00000000
00010000
00001000
00000000
00010000
00001000
00000000
00010000
00001000
00000000
,
01000000
00000000
00010000
00000000
01000000
00100000
00000000
01000000
00100000
00000000
01000000
00000000
00100000
00000000
10000000
00000000
,
01000000
00000000
00010000
00000000
00001000
00010000
00000000
00001000
00010000
00000000
00001000
00010000
00000000
00001000
00010000
00000000
,
00000100
00000000
00001000
00000000
00000100
00000010
00000000
00000100
00000010
00000000
00000000
00000001
00000000
00000000
00000100
00000000
,
00001000
00000000
00010000
00000000
00001000
00010000
00000000
00001000
00010000
00000000
00001000
00010000
00000000
00001000
00010000
00000000
,
00000010
00000000
00001000
00000000
00000010
00000100
00000000
00000010
00000100
00000000
00000010
00000000
00000100
00000000
00000001
00000000
,
00000010
00000000
00001000
00000000
00010000
00001000
00000000
00010000
00001000
00000000
00010000
00001000
00000000
00010000
00001000
00000000
,
00100000
00000000
00010000
00000000
00100000
01000000
00000000
00100000
01000000
00000000
00000000
10000000
00000000
00000000
00100000
00000000
,
00010000
00000000
00001000
00000000
00010000
00001000
00000000
00010000
00001000
00000000
00010000
00001000
00000000
00010000
00001000
00000000
,
00010000
00000000
00001000
00000000
00010000
00000100
00000000
00001000
00000100
00000000
00010000
00000000
00001000
00000000
00010000
00000000
,
00002000
00000000
00000000
00003000
,
00022000
00000000
00000000
00000000
00033000
00000000
00000000
00000000
00010000
00000000
00000000
00001000
00000000
00000000
00010000
00000000
,
00001000
00000000
00000000
00010000
00000000
00000000
00000100
00000000
00000000
00000010
00000000
00000000
00000001
00000000
00000100
00000000
,
00000010
00000000
00000200
00000000
00000300
00000000
00000010
00000000
00010000
00000000
00000000
00001000
00000000
00000000
00010000
00001000
,
00010000
00000000
00000000
00001000
00000000
00000000
01000000
00000000
00000000
00010000
00000000
00000000
10000000
00000000
01000000
00000000
,
00100000
01000000
00100000
00000000
00000000
00000000
01000000
00000000
00000000
00000000
00010000
00000000
00000000
00000000
00001000
00000000
,
00010000
00000000
00000000
00001000
00000000
00000000
01000000
00000000
00000000
00100000
00000000
00000000
10000000
00000000
01000000
00000000
,
00100000
00000000
02000000
00000000
03000000
00000000
00100000
00000000
00001000
00000000
00000000
00010000
00000000
00000000
00001000
00010000
,
00001000
00000000
00000000
00010000
00000000
00000000
00000100
00000000
00000000
00001000
00000000
00000000
00000001
00000000
00000100
00000000
,
00000010
00000100
00000010
00000000
00000000
00000000
00000100
00000000
00000000
00000000
00001000
00000000
00000000
00000000
00010000
00000000
,
00001000
00010000
01000000
10000000
00010000
00000000
00100000
00010000
,
01000000
00000000
00100000
00000000
01000000
00100000
00010000
00001000
,
00000100
00000001
00000010
00001000
00010000
00000000
01000000
10000000
,
00100000
00000000
10000000
01000000
00000000
00100000
00001000
00000000
00010000
00000100
00000000
00000010
00000001
00000000
00001000
00000000
,
00000001
00000100
00001000
00000100
00000001
00000000
00001000
00000100
,
00000010
00000100
00010000
00011000
,
00001000
00010000
01000000
10000000
00100000
00000000
01000000
00100000
,
01000000
00100000
00010000
00011000
,
00010000
00000000
00000100
00000000
00000000
00000000
00000010
00000000
00000000
00000000
00000001
00000000
00000020
00000000
00000030
00000001
,
00000000
00000000
00000100
00000000
00000000
00000000
00001000
00000000
00000000
00000000
00010000
00000000
00002000
00000000
00003000
00010000
,
00001000
00010000
00001000
00000000
00000000
00000000
00010000
00000000
00000000
00000000
01000000
00000000
00000000
00000000
10000000
00000000
,
01000000
00100000
00000000
00000000
00100000
00001000
00000000
00000000
00001000
00010000
00000000
00000000
00010000
00001000
00000000
00000000
,
00001000
00010000
00001000
00000000
00000000
00000000
00010000
00000000
00000000
00000000
00000100
00000000
00000020
00000000
00000030
00000001
,
00000000
00000100
00000000
00001000
00000000
00010000
00002000
00003000
,
00200000
00300000
00020000
00030000
,
20000000
32000000
03020000
00032000
,
00013000
00000000
00001000
00010000
00000000
00000010
00001000
00000000
00000001
00000010
00000000
00000100
00001000
00000000
00000100
00000000
,
00010000
00000000
00001000
00010000
00000000
00010000
00100000
00000000
00100000
01000000
00000000
01000000
00010000
00000000
10000000
00000000
,
01000000
00000000
00010000
00001000
00000000
00100000
00010000
00000000
10000000
00100000
00000000
01000000
00010000
00000000
01000000
00000000
,
00001000
00000000
00010000
00001000
00000000
00001000
00000010
00000000
00000010
00000100
00000000
00000100
00001000
00000000
00000001
00000000
,
00000100
00000000
00001000
00010000
00000000
00001000
00100000
00000000
00010000
10000000
00000000
00100000
10000000
00000000
10000000
00000000
,
01000000
00000000
00010000
00001000
00000000
00010000
00000010
00000000
00001000
00000001
00000000
00000010
00000001
00000000
00000001
00000000
,
00000100
00000000
00001000
00010000
00000000
00010000
00001000
00000000
00001000
00010000
00000000
00010000
00001000
00000000
00010000
00000000
,
00001000
00000000
00000000
00000100
00000000
00000000
00001000
00000000
00020000
00000000
00000000
00000000
00031000
00000000
00000000
00000000
,
00001000
00000000
00000000
00010000
00000000
00000000
00200000
00000000
00300000
00000000
01000000
00000000
00100000
00000000
10000000
00000000
,
01000000
00000000
00000000
00100000
00000000
00000000
00020000
00000000
00030000
00000000
00100000
00000000
00001000
00000000
00010000
00000000
,
00000100
00000000
00000000
00000010
00000000
00000000
00000002
00000000
00000003
00000000
00000100
00000000
00000010
00000000
00000200
00000000
,
00000020
00000000
00000000
00000330
00000110
00000000
00000101
00000000
,
00000001
00000000
00000000
00000010
00000000
00000000
00000100
00000000
00000000
00000000
00001000
00000000
00000100
00000000
00010000
00000000
,
00001000
00000000
00000000
00100000
00000000
00000000
00010000
00000000
00000000
00000000
00100000
00000000
01000000
00000000
10000000
00000000
,
00100000
00000000
00000000
01000000
00000000
00000000
00100000
00000000
00000000
00000000
10000000
00000000
01000000
00000000
00010000
00000000
,
00002000
00000000
00000000
00003000
00010000
00001000
00000010
00001000
,
00010000
00000000
00000000
00001000
00000000
00000000
00100000
00000000
00000000
01000000
00000000
00000000
10000000
00000000
00100000
00000000
,
01000000
00000000
00200000
00000000
00300000
00000000
01000000
00000000
00001000
00000000
00000000
00010000
00000000
00000000
00001000
00010000
,
00001000
00000000
00000000
00010000
00000000
00000000
00000010
00000000
00000000
00001000
00000000
00000000
00000001
00000000
00000010
00000000
,
00000100
00000010
00000100
00000000
00000000
00000000
00000010
00000000
00000000
00000000
00001000
00000000
00000000
00000000
00010000
00000000
,
00001000
00000000
00000000
00010000
00000000
00000000
00000010
00000000
00000000
00000100
00000000
00000000
00000001
00000000
00000010
00000000
,
00000100
00000000
00000020
00000000
00000030
00000000
00000100
00000000
00010000
00000000
00000000
00001000
00000000
00000000
00010000
00001000
,
00010000
00000000
00000000
00001000
00000000
00000000
00100000
00000000
00000000
00010000
00000000
00000000
10000000
00000000
00100000
00000000
,
01000000
00100000
01000000
00000000
00000000
00000000
00100000
00000000
00000000
00000000
00010000
00000000
00000000
00000000
00001000
00000000
,
00010000
00000000
00001000
00010000
00000000
00000100
00001000
00000000
00000001
00000100
00000000
00000100
00000001
00000000
00000100
00000001
,
00000000
00001000
00000100
00000000
00010000
00001000
00000000
01000000
00010000
00000000
10000000
01000000
00000000
01000000
10000000
01000000
,
10000000
00000000
00010000
01000000
00000000
00001000
00010000
00000000
00000010
00001000
00000000
00000001
00000010
00000001
00000010
00000001
,
00000000
00000010
00000001
00000000
00000100
00000000
00001000
00000000
00010000
00000000
00000000
00001000
00000000
00000000
00011000
00000000
,
00000000
00000000
00000000
00000000
;
#NOTES:
     dance-double:
     :
     Challenge:
     16:
     :
00000000
00000000
00000000
00000000
,
00000000
00000000
00000000
00000000
,
00000000
00000000
00000000
00000000
,
00000000
00000000
00000000
00000000
,
00000000
00000000
00000000
00000000
,
00000000
00000000
00000000
00000000
,
00010000
00000000
00001000
00000000
00010000
00001000
00000000
00100000
00010000
00000000
10000000
00100000
00000000
10000000
00010000
10000000
,
00010000
00000000
10000000
00000000
01000000
10000000
00000000
00010000
01000000
00000000
00010000
01000000
00001000
00010000
00001000
00000000
,
00010000
00000000
00001000
00000000
00010000
00001000
00000000
00001000
00000010
00000000
00000010
00000001
00000000
00001000
00000001
00001000
,
00000001
00000000
00000100
00000000
00000001
00000100
00000000
00000100
00001000
00000000
00001000
00010000
00000000
00010000
00001000
00000000
,
00010000
00000000
00001000
00000000
00010000
00001000
00000000
01000000
00010000
00000000
10000000
01000000
00000000
10000000
00010000
10000000
,
00010000
00000000
10000000
00000000
00100000
10000000
00000000
00010000
00100000
00000000
00010000
00100000
00001000
00010000
00001000
00000000
,
00010000
00000000
00001000
00000000
00010000
00001000
00000000
00001000
00000100
00000000
00000100
00000001
00000000
00001000
00000001
00001000
,
00000001
00000000
00000010
00000000
00000001
00000010
00000000
00000010
00001000
00000000
00001000
00010000
00000000
00010000
00001000
00000000
,
00010000
00000000
00001000
00000000
00010000
00001000
00000000
00100000
00010000
00000000
10000000
00100000
00000000
10000000
00010000
10000000
,
00010000
00000000
10000000
00000000
01000000
10000000
00000000
00010000
01000000
00000000
00001000
00010000
00001000
00000000
00010000
00001000
,
00010000
00000000
00001000
00000000
00010000
00000010
00000000
00001000
00000001
00000000
00000100
00000001
00001000
00000100
00010000
00000000
,
00002000
00000000
00000000
00000000
00003000
00000000
00000000
00000000
00010000
00000000
00000000
00001000
00000000
00000000
00010000
00000000
,
00001000
00000000
00010000
00000100
00000000
00000100
00000010
00000000
00000010
00000001
00000000
00000001
00000100
00000010
00000100
00000010
,
00000100
00000010
00000200
00000000
00000300
00000000
00001000
00000000
00010000
00001000
00000000
00100000
00010000
00000000
10000000
00010000
,
10000000
00000000
00100000
10000000
00000000
00010000
01000000
00000000
00001000
00010000
00000000
00000010
00001000
00000001
00000100
00000001
,
00000100
00000001
00000100
00000000
00000001
00001000
00000001
00000000
00001000
00000100
00001000
00000000
00000100
00010000
00000100
00000000
,
00010000
00000000
00001000
01000000
00000000
01000000
00100000
00000000
00100000
10000000
00000000
10000000
01000000
00100000
01000000
00100000
,
01000000
00100000
02000000
00000000
03000000
00000000
00010000
00000000
00001000
00010000
00000000
00000010
00001000
00000000
00000001
00001000
,
00000001
00000000
00000010
00000001
00000000
00001000
00000100
00000000
00010000
00001000
00000000
00100000
00010000
10000000
01000000
10000000
,
01000000
10000000
01000000
00000000
10000000
00010000
10000000
00000000
00010000
01000000
00010000
00000000
01000000
00001000
01000000
00000000
,
00001000
00010000
00000010
00000100
00001000
00010000
00001000
00000010
,
00000100
00000010
00000001
00000100
00001000
00010000
01000000
00100000
,
00010000
01000000
10000000
01000000
00010000
10000000
00010000
10000000
,
00100000
00000000
10000000
00100000
00000000
01000000
00001000
00000000
00010000
00000010
00000000
00000100
00000001
00000000
00001000
00000000
,
00000001
00000100
00001000
00000100
00000001
00001000
00000100
00000010
,
00001000
00010000
00100000
00010000
00001000
00010000
01000000
00100000
,
00010000
01000000
00100000
10000000
01000000
00010000
01000000
00100000
,
00010000
00000000
01000000
00010000
01000000
00000000
00001000
00010000
00001000
00000000
00010000
00001000
00010000
00000000
00000100
00001000
,
00000100
00000000
00001000
00000000
00000010
00000000
00000001
00000000
00000010
00000000
00001000
00000000
00000020
00000000
00000030
00000100
,
00000010
00000000
00000100
00000000
00000001
00000000
00001000
00000000
00000100
00000000
00000010
00000000
00002000
00000000
00003000
00010000
,
00001000
00010000
00001000
00000000
00010000
00000000
00001000
00000000
00100000
00000000
00010000
00000000
01000000
00000000
10000000
00000000
,
01000000
00100000
01000000
00000000
00100000
10000000
00100000
00000000
01000000
00010000
01000000
00000000
00001000
00010000
00001000
00000000
,
00010000
00000100
00010000
00000000
00000100
00000000
00001000
00000000
00000100
00000000
00000001
00000000
00000200
00000000
00000300
00000010
,
00000100
00000010
00000001
00000100
00001000
00010000
00002000
00003000
,
00200000
00300000
00020000
00030000
,
20000000
32000000
03020000
00032000
,
00013000
00000000
00001000
00010000
00000000
00100000
10000000
00000000
01000000
00010000
00000000
00001000
00010000
00000000
00001000
00000000
,
00010000
00000000
00001000
00010000
00000000
01000000
10000000
00000000
00100000
00010000
00000000
00001000
00010000
00001000
00010000
00000000
,
00001000
00000000
00010000
00001000
00000000
00000010
00000001
00000000
00000100
00001000
00000000
00010000
00001000
00000000
00010000
00000000
,
00001000
00000000
00010000
00001000
00000000
00000100
00000001
00000000
00000010
00001000
00000000
00010000
00001000
00010000
00001000
00000000
,
00010000
00000000
00001000
00010000
00000000
00100000
00010000
00000000
00001000
00010000
00000000
00100000
00010000
00000000
00001000
00000000
,
00010000
00000000
00001000
00010000
00000000
01000000
00010000
00000000
00001000
00010000
00000000
00001000
00010000
00001000
00010000
00000000
,
00001000
00000000
00010000
00001000
00000000
00000010
00001000
00000000
00010000
00001000
00000000
00000010
00001000
00000000
00010000
00000000
,
00001000
00000000
00000000
00000100
00000000
00000000
00001000
00000000
00022000
00000000
00000000
00000000
00033000
00000000
00000000
00000000
,
00010000
00000000
00001000
00010000
00000000
00010000
00002000
00000000
00003000
00000000
00010000
00000000
00100000
00000000
10000000
00000000
,
01000000
00000000
00100000
01000000
00000000
01000000
00200000
00000000
00300000
00000000
01000000
00000000
00010000
00000000
00001000
00000000
,
00010000
00000000
00001000
00010000
00000000
00010000
00002000
00000000
00003000
00000000
00000100
00000000
00000010
00000000
00002000
00000000
,
00000200
00000000
00000000
00003300
00010100
00000000
00011000
00000000
,
00001000
00000000
00010000
00001000
00000000
00001000
00020000
00000000
00030000
00000000
00001000
00000000
00000010
00000000
00000001
00000000
,
00000100
00000000
00000010
00000100
00000000
00000100
00000020
00000000
00000030
00000000
00000100
00000000
00001000
00000000
00010000
00000000
,
00001000
00000000
00010000
00001000
00000000
00001000
00020000
00000000
00030000
00000000
00001000
00000000
00100000
00000000
00001000
00000000
,
00020000
00000000
00000000
00030000
00010000
00001000
00000100
00001000
,
00010000
00000000
00001000
00100000
00000000
00100000
01000000
00000000
01000000
10000000
00000000
10000000
00100000
01000000
00100000
01000000
,
00100000
01000000
00200000
00000000
00300000
00000000
00010000
00000000
00001000
00010000
00000000
00000100
00001000
00000000
00000001
00001000
,
00000001
00000000
00000100
00000001
00000000
00001000
00000010
00000000
00010000
00001000
00000000
01000000
00010000
10000000
00100000
10000000
,
00100000
10000000
00100000
00000000
10000000
00010000
10000000
00000000
00010000
00100000
00010000
00000000
00100000
00001000
00100000
00000000
,
00001000
00000000
00010000
00000010
00000000
00000010
00000100
00000000
00000100
00000001
00000000
00000001
00000010
00000100
00000010
00000100
,
00000010
00000100
00000020
00000000
00000030
00000000
00001000
00000000
00010000
00001000
00000000
01000000
00010000
00000000
10000000
00010000
,
10000000
00000000
01000000
10000000
00000000
00010000
00100000
00000000
00001000
00010000
00000000
00000100
00001000
00000001
00000010
00000001
,
00000010
00000001
00000010
00000000
00000001
00001000
00000001
00000000
00001000
00000010
00001000
00000000
00000010
00010000
00000010
00000000
,
00010000
00000000
00001000
00010000
00000000
00010000
01000000
00000000
01000000
10000000
00000000
10000000
00100000
00000000
00100000
00010000
,
00000000
00010000
00001000
00000000
00001000
00000100
00000000
00000100
00000001
00000000
00000001
00000010
00000000
00000010
00001000
00000010
,
00001000
00000000
00001000
00010000
00000000
00010000
00100000
00000000
00100000
00010000
00000000
00010000
00001000
00010000
00001000
00010000
,
00000000
00010000
00000100
00000000
00000100
00000010
00000100
00000010
00000100
00000000
00000000
00000010
00000000
00000000
00000110
00000000
,
00000000
00000000
00000000
00000000
;
