#VERSION:0.83;
#TITLE:患部で止まってすぐ溶ける~狂気の優曇華院;
#ARTIST:ARM(IOSYS);
#TITLETRANSLIT:Kanbu de tomatte sugu tokeru ~ kyouki no Udongein;
#BANNER:Kanbu de tomatte sugu tokeru ~ kyouki no Udongein.png;
#BACKGROUND:Kanbu de tomatte sugu tokeru ~ kyouki no Udongein-bg.png;
#CDTITLE:./CDTitles/SDVX II -infinite infection-.png.png;
#MUSIC:Kanbu de tomatte sugu tokeru ~ kyouki no Udongein.ogg;
#SAMPLESTART:20.4;
#SAMPLELENGTH:15;
#BPMS:0=200,164=100,180=200,212=100,228=200,388=190,388.25=180,388.5=170,388.75=160,389=150,389.25=140,389.5=130,389.75=120,390=110,390.25=100;

//---------------dance-single - ----------------
#NOTEDATA:;
#STEPSTYPE:dance-single;
#DIFFICULTY:Beginner;
#METER:3;
#NOTES:
0000
0000
0000
0000
,
0000
0000
0000
0000
,
0000
0000
0000
0000
,
0000
0000
0000
0000
,
0000
0000
0000
0000
,
0001
0000
0000
0000
,
0001
0000
0000
0000
,
0100
0000
0000
0000
,
0000
0000
0000
0000
,
0010
0000
0000
0000
,
0010
0000
0000
0000
,
1000
0000
0000
0000
,
0000
0000
0000
0000
,
1000
0000
0000
0000
,
1000
0000
0000
0000
,
0100
0000
0000
0000
,
0000
0000
0000
0000
,
1000
0000
0000
0000
,
0100
0000
0000
0000
,
1000
0000
0000
0000
,
0100
0000
0000
0000
,
0010
0000
0000
0000
,
0010
0000
0000
0000
,
0010
0000
0000
0000
,
0000
0000
0000
0000
,
0001
0000
0000
0000
,
0100
0000
0000
0000
,
0001
0000
0000
0000
,
0100
0000
0000
0000
,
0010
0000
0000
0000
,
0010
0000
0000
0000
,
0010
0000
0000
0000
,
0000
0000
0000
0000
,
0010
0000
0010
0000
,
0001
0000
0000
0000
,
0010
0000
0000
0000
,
0100
0000
0000
0000
,
0001
0000
0000
0000
,
0000
0000
0000
0000
,
1001
0000
0000
0000
,
0000
0000
0000
0000
,
1000
0000
0000
0000
,
0000
0000
0000
0000
,
0001
0000
0000
0000
,
0000
0000
0000
0000
,
0001
0000
0000
0000
,
0000
0000
0000
0000
,
1000
0000
0000
0000
,
0000
0000
0000
0000
,
0001
0000
0000
0000
,
1000
0000
0000
0000
,
0001
0000
0010
0000
,
0100
0000
1000
0000
,
0001
0000
0001
0000
,
0010
0000
0000
0000
,
1000
0000
1000
0000
,
0010
0000
0000
0000
,
1000
0000
1000
0000
,
0010
0000
0000
0000
,
0100
0000
0000
0000
,
0000
0000
0000
0000
,
1000
0000
1000
0000
,
0100
0000
0000
0000
,
0001
0000
0000
0000
,
0000
0000
0000
0000
,
0010
0000
0010
0000
,
0001
0000
0000
0000
,
0100
0000
0000
0000
,
0000
0000
0000
0000
,
0001
0000
0001
0000
,
0100
0000
0000
0000
,
1000
0000
0000
0000
,
0000
0000
0000
0000
,
1000
0000
1000
0000
,
0010
0000
1000
0000
,
0100
0000
0000
0000
,
0001
0000
0000
0000
,
0001
0000
0001
0000
,
0010
0000
0001
0000
,
0100
0000
0000
0000
,
1000
0000
0000
0000
,
1000
0000
1000
0000
,
0100
0000
0000
0000
,
0010
0000
0010
0000
,
1000
0000
0000
0000
,
0100
0000
0100
0000
,
1000
0000
0000
0000
,
1001
0000
0000
0000
,
0000
0000
0000
0000
,
0001
0000
0001
0000
,
0100
0000
0000
0000
,
0010
0000
0010
0000
,
0001
0000
0000
0000
,
0100
0000
0100
0000
,
0001
0000
0000
0000
,
1001
0000
0000
0000
,
0110
0000
0000
0000
,
1001
0000
0000
0000
;

//---------------dance-single - ----------------
#NOTEDATA:;
#STEPSTYPE:dance-single;
#DIFFICULTY:Easy;
#METER:8;
#NOTES:
0000
0000
0000
0000
,
0000
0000
0000
0000
,
0000
0000
0000
0000
,
0000
0000
0000
0000
,
0000
0000
0000
0000
,
0001
0000
0100
0000
,
0001
0010
0001
0000
,
1000
0000
0100
0000
,
1000
0010
1000
0000
,
0001
0100
0010
1000
,
0010
0100
0001
0000
,
1000
0100
0010
0001
,
0010
0100
1000
0000
,
0001
1000
0001
0000
1000
0000
0000
0000
,
0010
0100
0010
0000
0100
0000
0000
0000
,
0001
0000
1000
0000
,
0010
0100
0010
0000
,
1000
0100
1000
0100
,
0010
0001
0010
0001
,
1000
0000
0001
0000
1000
0001
1000
0000
,
0001
0000
1001
0000
,
0001
0100
0001
0100
,
0010
1000
0010
1000
,
0001
0000
1000
0000
0001
1000
0001
0000
,
1000
0000
1001
0000
,
0001
0100
1000
0000
,
1000
0100
0001
0000
,
1000
0000
0010
0000
0100
0010
0100
0000
,
0001
0000
1001
0000
,
1000
0100
0001
0000
,
0001
0100
1000
0000
,
0010
0100
0010
0100
,
0010
0100
0010
0000
0110
0000
0000
0000
,
1000
0001
1000
0001
,
0010
0100
0110
0000
,
0001
1000
0001
1000
,
0010
0100
0110
0000
,
1000
0010
1010
1010
,
0001
0010
0011
0011
,
0001
0000
0100
0010
0100
0000
0001
0000
,
1000
0000
0000
0001
0000
0000
1000
0000
,
0100
0000
0000
0000
,
0100
0000
0000
0000
,
0001
0000
0000
0000
,
0000
0000
0000
0000
,
0001
0000
0000
0000
,
1000
0000
0000
0000
,
0001
0000
0000
0000
,
1000
0000
0000
0000
,
0001
0000
1000
0000
,
0001
0000
1000
0000
,
0001
0010
0100
1000
,
0001
0000
0001
0010
,
0100
0000
0100
0000
1000
0001
1000
0000
,
0001
0010
0100
0000
0010
0001
1000
0000
,
0010
0000
0010
0000
1000
0001
1000
0000
,
1010
0011
2002
3003
,
0001
0010
0100
1000
,
0001
0010
0100
1000
,
0001
0000
0110
0000
,
1000
0001
1000
0000
,
1000
0100
0010
0001
,
1000
0100
0010
0001
,
1000
0000
0110
0000
,
0001
1000
0001
0000
,
1000
0010
0100
0001
,
1000
0100
0010
0001
,
1000
1000
1100
0000
,
0001
0001
0101
0000
,
0001
0100
0010
1000
,
0001
0010
0100
1000
,
0001
0001
0011
0000
,
1000
1000
1010
0000
,
0001
0100
0001
0010
,
0001
0000
1000
0010
0100
0000
0000
0000
,
0010
1000
0100
0010
,
0001
1000
0001
0000
1000
0000
0000
0000
,
1000
0100
1000
0010
,
1000
0000
0001
0100
0010
0000
0000
0000
,
0100
0001
1000
0001
,
2002
0000
3003
0000
,
1000
0000
0100
0000
0010
0001
0000
0000
,
1000
1000
1000
0000
,
0001
0000
0100
0000
0010
1000
0000
0000
,
0001
0001
0001
0000
,
1000
0000
0100
0000
1000
0001
0000
0000
,
0100
0100
0100
0000
,
0001
0000
0010
0000
0001
1000
0000
0000
,
0010
0010
0010
0000
,
1000
0010
0001
0010
,
1000
0000
0001
1000
0001
0000
0000
0000
,
1000
0010
0100
0001
,
0010
0100
0010
0000
0001
0000
0000
0000
,
0001
0010
1000
0010
,
0001
0000
1000
0001
1000
0000
0000
0000
,
0001
0100
0010
1000
,
1010
0000
0011
0000
,
1001
0000
0000
0000
;

//---------------dance-single - ----------------
#NOTEDATA:;
#STEPSTYPE:dance-single;
#DIFFICULTY:Medium;
#METER:11;
#NOTES:
0000
0000
0000
0000
,
0000
0000
0000
0000
,
0000
0000
0000
0000
,
0000
0000
0000
0000
,
0000
0000
0000
0000
,
0001
0000
0100
0000
0010
0000
0000
1000
,
0000
0001
1000
0000
0001
1000
0000
0000
,
1000
0000
0100
0000
0010
0000
0000
0001
,
0000
1000
0001
0000
2000
0000
3000
0000
,
0001
0010
0100
1000
,
0001
0000
0010
0000
0100
1000
0100
0000
,
1000
0010
0100
0001
,
1000
0000
0010
0000
0100
0001
0100
0000
,
0001
0010
0001
0010
0001
0010
0001
0000
,
1000
0100
1000
0100
1000
0100
1000
0000
,
0010
0010
0100
0100
,
0010
0100
1001
0000
,
1000
0100
0010
0000
0001
0000
1000
0000
,
0001
0100
0010
0000
1000
0000
0001
0000
,
1000
0010
1000
0000
0001
0010
0001
0000
,
0110
0000
1001
0000
,
0001
0010
0100
0000
1000
0000
0001
0000
,
1000
0010
0100
0000
0001
0000
1000
0000
,
0001
0100
0001
0000
1000
0100
1000
0000
,
0110
0000
1001
0000
,
0001
0100
0010
0000
0100
0000
0001
0000
,
1000
0100
0010
0000
0100
0000
1000
0000
,
0001
0010
0001
0000
1000
0000
1000
0000
,
1010
0000
0101
0000
,
0001
0001
0010
0010
,
0100
0000
0100
0000
0100
1000
0001
0000
,
1000
0100
1000
0100
0010
0001
0010
0001
,
0020
0000
0000
0030
,
0001
1000
0100
0000
1000
0001
0100
0000
,
0010
0000
0000
0000
0110
0000
0000
0000
0010
0000
0000
0100
0000
0000
0010
0000
,
1000
0001
0010
0000
0001
1000
0010
0000
,
1000
0001
1000
0001
1000
0000
1001
0000
,
0000
0000
1000
0100
0010
0000
0001
0000
,
2000
0000
3010
0020
0000
0130
0200
0000
,
0301
0000
1000
0100
0001
0000
0100
0000
,
2000
0000
3001
0002
0000
1003
2000
0000
,
3100
0000
0100
0000
,
0001
0000
0000
0000
,
0100
0000
0100
0000
,
0001
0000
0000
0000
,
0001
1000
0000
0000
,
0001
1000
0000
0000
,
0001
1000
0000
0000
,
0001
1000
0000
0000
,
0001
1000
0001
0000
,
1000
0001
1000
0000
,
0001
0010
0100
0000
1000
0001
0010
0100
,
1000
0000
0000
0000
0001
0010
0100
0000
,
1000
0000
0100
0000
0010
0000
0001
0000
0100
0010
0100
0000
0010
0000
0000
0000
,
1000
0000
0010
0000
0100
0000
0010
0000
1000
0001
1000
0000
0001
0000
0000
0000
,
1000
0000
0001
0000
0100
0000
0010
0000
1000
0100
0010
0000
0001
0000
0000
0000
,
0101
1100
2002
3003
,
0101
0001
0101
0000
,
1010
1000
1010
0000
,
1000
0010
0100
0010
1000
0000
0001
0000
,
1000
0100
0010
0001
2000
0000
3000
0000
,
1100
1000
1100
0000
,
0011
0001
0011
0000
,
0001
0000
0010
0000
0100
0000
0010
0000
0001
0000
0000
1000
0000
0000
0001
0000
,
0200
0000
0000
0300
,
1010
1000
1100
0000
,
0011
0001
0101
0000
,
1000
0010
0001
0010
1000
0000
0001
0000
,
0100
0010
0100
0000
0110
0000
0000
0000
,
0011
0001
0101
0000
,
1010
1000
1100
0000
,
0001
0000
0010
0000
1000
0000
0010
0000
0001
0000
0000
1000
0000
0000
0100
0000
,
0020
0000
0000
0030
,
0001
0000
0001
0000
1000
0000
0001
1000
,
0100
0010
0001
1000
0200
0000
0300
0000
,
1000
0010
1000
0010
0100
0001
0100
0001
,
0000
0001
0010
0100
2000
0000
3000
0000
,
1000
0000
1000
0000
0001
0000
1000
0001
,
0010
0100
1000
0001
0020
0000
0030
0000
,
0001
0000
0100
0000
0001
0000
0000
0000
1000
0000
0000
0010
0000
0000
1000
0000
,
0020
0000
0000
0030
,
1000
0000
1000
0001
0100
0001
0000
0010
,
0000
0010
0001
1000
0001
1000
0000
0000
,
0001
0000
0001
1000
0100
1000
0000
0010
,
0000
0010
1000
0001
1000
0001
1000
0000
,
0001
0000
0001
0100
0010
0100
0000
0001
,
0000
0001
0010
0100
0010
0001
0000
0000
,
1000
0000
1000
0100
0010
0100
0000
1000
,
0000
1000
0010
0100
0010
1000
0001
0000
,
1000
0100
0010
0000
0100
0010
0001
0000
,
0100
0001
1000
0010
0200
0000
0300
0000
,
0001
0100
0010
0100
0001
1000
0010
1000
,
0000
1000
0100
0010
0002
0000
0003
0000
,
0001
0010
0100
0000
0010
0100
1000
0000
,
0010
0100
0001
1000
0020
0000
0030
0000
,
1000
0000
0001
0000
0100
0000
0001
0000
1000
0000
0000
0010
0000
0000
0100
0000
,
0020
0030
0200
0300
,
2002
0000
0000
0000
0000
0000
0000
0000
0000
3003
0000
0000
0000
0000
0000
0000
;

//---------------dance-single - ----------------
#NOTEDATA:;
#STEPSTYPE:dance-single;
#DIFFICULTY:Hard;
#METER:14;
#NOTES:
0000
0000
0000
0000
,
0000
0000
0000
0000
,
0000
0000
0000
0000
,
0000
0000
0000
0000
,
0000
0000
0000
0000
,
0001
0000
0100
0010
1000
1000
0000
0001
,
0000
0001
0100
0010
1000
1000
0000
0000
,
1000
0000
0100
0010
0001
0001
0000
1000
,
0000
1000
0100
0010
0001
1000
0001
0000
,
1000
0100
0010
0001
1000
0100
0010
0001
,
1000
0001
0010
0001
0100
0001
0010
0000
,
0001
0100
0010
1000
0001
0100
0010
1000
,
0001
1000
0010
1000
0100
1000
0001
0000
,
1000
0010
0100
0001
1000
0100
0010
0001
,
1000
0001
1000
0001
1000
0001
1000
0001
,
1000
1100
1010
1001
,
0001
0101
0011
1001
,
1000
0100
0010
0001
1000
0001
0010
0100
,
1000
0010
0100
0010
0001
0010
0100
0010
,
1000
0001
1000
0001
1000
0001
1000
0001
,
1100
0000
0011
0000
,
0001
0010
0100
1000
0001
1000
0100
0010
,
0001
0100
0010
0100
1000
0100
0010
0100
,
0001
1000
0001
1000
0001
1000
0001
1000
,
0011
0000
1100
0000
,
1000
0100
0001
0100
1000
0100
0001
0100
,
1000
0100
0001
0100
1000
0100
0001
0100
,
1000
1000
0010
0010
0100
0001
0100
0001
,
0101
0000
1010
0000
,
1000
0100
0011
0000
0001
0100
1010
0000
,
1000
1000
0001
0001
0001
0001
0001
0000
,
1000
0100
0010
0001
0100
0010
0100
0010
,
1000
0000
1000
0000
0001
1000
1001
0000
,
0010
0001
0010
0001
0100
0010
0100
0010
,
1000
0000
0100
0000
1000
0000
0100
0000
1100
0000
0000
0011
0000
0000
1100
0000
,
0100
1000
0100
1000
0010
0100
0010
0100
,
0001
0010
0001
0010
0001
0100
0001
0100
,
0010
1000
0100
1000
0010
0100
0010
0000
,
1000
0100
0100
0001
0100
0100
1000
0000
,
0001
0010
0010
1000
0100
0001
0100
0000
,
1000
0010
0010
0100
0001
0001
1000
0000
,
0100
0100
0001
0000
,
0000
0000
0000
0000
,
0100
0100
0001
0000
,
0000
0000
0000
0000
,
0001
0000
1000
0000
0000
0001
1000
0000
,
0001
0000
1000
0000
0000
0001
1000
0000
,
0001
0000
1000
0000
0000
0001
1000
0000
,
0001
0000
1000
0000
0000
0001
1000
0000
,
0001
1000
0001
1000
,
0001
1000
0001
1000
0001
1000
0001
1000
,
0001
0010
0100
1000
0001
0010
0100
1000
,
0001
0000
0000
0000
0000
0000
0001
0010
0100
0000
1000
0000
0001
0000
0010
0000
,
0100
0000
1000
0000
0001
0000
1000
0010
0100
0001
0100
0001
0100
0000
0100
0001
,
0000
1000
0010
1000
0001
0010
0001
0100
0000
0010
0100
0010
0200
0000
0300
0000
,
0001
0000
0010
0000
0001
0000
1000
0100
0010
0001
0010
0001
0010
0000
0010
0001
,
0000
0000
0100
0000
0010
0000
1000
0000
0010
0000
0000
0100
0000
0000
0001
0000
2000
0000
0000
0000
0000
0000
0000
0000
0002
0000
0000
0000
3003
0000
0000
0000
,
0001
0010
1000
0010
0001
0010
1000
0010
,
0001
0010
1000
0010
0001
0010
1000
0010
,
0001
0000
1000
0001
1000
0000
0010
0000
0100
0000
0001
1000
0001
0000
0010
0000
,
0100
1000
0001
1000
0100
0010
0110
0000
,
1000
0010
0001
0010
1000
0010
0001
0010
,
1000
0010
0001
0010
1000
0010
0001
0010
,
1000
0000
0001
1000
0001
0000
0010
0000
0100
0000
1000
0001
0000
1000
0001
0000
,
0100
0001
1000
0001
0100
0010
0110
0000
,
0001
0100
1000
0100
0001
0010
1000
0010
,
0001
0100
1000
0100
0001
0010
1000
0010
,
0001
0000
1000
0100
1000
0000
0010
0000
0100
0000
0001
0010
0001
0000
1000
0000
,
0001
0100
0010
1000
0001
1000
1001
0000
,
1000
0010
0001
0010
1000
0100
0001
0100
,
1000
0010
0001
0010
1000
0100
0001
0100
,
1000
0000
0001
0010
0001
0000
0100
0000
0010
0000
1000
0100
0000
1000
0100
0000
,
1000
0010
0100
0001
1000
0001
1001
0000
,
1010
0000
0010
0000
0110
0000
0001
1000
,
0010
1000
0100
1000
0010
0000
1000
0001
,
0000
1000
0100
0001
0100
1000
0001
1000
,
0000
0001
0100
1000
0200
0001
0301
0000
,
0011
0000
0010
0000
0110
0000
1000
0001
,
0010
0001
1000
0001
0010
0000
0001
1000
,
0000
0000
0001
0000
0100
0000
1000
0000
0100
0000
0000
0001
0000
0000
1000
0000
,
0010
0100
0010
0100
0010
0100
0010
0000
,
1000
0010
0100
0001
0010
0100
1000
0010
,
0100
0001
0010
0100
1000
0010
0100
0001
,
1000
0100
0001
0100
1000
0100
0001
0100
,
1000
0000
0010
0000
0001
0000
0010
0000
1000
0001
1000
0001
1000
0000
0000
0000
,
0001
0100
0010
1000
0100
0010
0001
0100
,
0010
1000
0100
0010
0001
0100
0010
1000
,
0001
0000
0010
0000
1000
0000
0010
0000
0001
0000
0000
0110
0000
0000
1000
0000
,
0001
0000
0100
0000
1000
0000
0100
0000
0001
1000
0001
1000
0001
0000
0000
0000
,
1000
0100
0010
0100
1000
0010
0100
0001
,
0010
0001
0100
0010
0110
0000
1000
0100
,
0010
0001
0010
0001
1000
0010
1000
0010
,
0100
0000
0001
0000
0100
0000
1000
0000
0100
0010
0100
0010
0100
0000
0000
0000
,
0001
0100
0010
0100
0001
0010
0100
1000
,
0010
1000
0100
0010
0110
0000
0001
0100
,
0010
0000
1000
0000
0010
0000
1000
0000
0001
0000
0000
0110
0000
0000
1000
0000
,
0001
0000
0100
0000
1000
0000
0100
0000
0010
0100
0010
0100
0010
0000
0000
0000
,
2002
0000
0000
0000
0000
0000
0000
0000
0000
3003
0000
0000
0000
0000
0000
0000
;

//---------------dance-single - ----------------
#NOTEDATA:;
#STEPSTYPE:dance-single;
#DIFFICULTY:Challenge;
#METER:17;
#BPMS:0=200,164=100,180=400,244=100,260=200,420=190,420.25=180,420.5=170,420.75=160,421=150,421.25=140,421.5=130,421.75=120,422=110,422.25=100;
#NOTES:
0000
0000
0000
0000
,
0000
0000
0000
0000
,
0000
0000
0000
0000
,
0000
0000
0000
0000
,
0000
0000
0000
0000
,
0001
0000
1000
0001
0100
0100
0000
0001
,
0000
1000
0001
1000
0100
0100
0000
0000
,
1000
0000
0001
1000
0010
0010
0000
1000
,
0000
1000
0001
1000
0010
0000
1001
0000
,
0001
0010
0100
1000
0001
0010
0100
1000
,
0001
0100
0010
0100
1000
0100
0010
0000
,
1000
0100
0010
0001
1000
0100
0010
0001
,
1000
0100
0010
0100
0001
0100
0010
0000
,
0001
0100
0001
0100
0001
0100
0001
0100
0001
0100
0001
0100
0001
0100
0001
0100
,
0010
1000
0010
1000
0010
1000
0010
1000
0010
1000
0010
1000
0010
1000
0010
1000
,
0010
0010
0010
0010
,
0010
0000
0000
0000
0010
0000
0000
0000
1000
0100
0010
0001
1000
0000
0000
0000
,
0001
0010
0001
0000
1000
0010
1000
0000
0001
0010
0001
0000
1000
0010
1000
0000
,
0001
0100
0001
0000
1000
0100
1000
0000
0001
0100
0001
0000
1000
0100
1000
0000
,
0001
1000
0001
1000
0001
1000
0001
1000
0001
1000
0001
1000
0001
1000
0001
1000
,
0001
0000
0110
0000
,
1000
0010
1000
0000
0001
0100
0001
0000
1000
0010
1000
0000
0001
0100
0001
0000
,
1000
0100
1000
0000
0001
0010
0001
0000
1000
0100
1000
0000
0001
0010
0001
0000
,
1000
0001
1000
0000
0001
1000
0001
0000
0100
0010
0100
0000
0010
0100
0010
0000
,
1000
0100
0010
0001
1000
0000
0000
0000
0001
0010
0100
1000
0001
0000
0000
0000
,
1000
0100
1000
0000
0100
1000
0100
0000
0010
0001
0010
0000
0001
0010
0001
0000
,
1000
0010
1000
0000
0010
1000
0010
0000
0100
0001
0100
0000
0001
0100
0001
0000
,
1000
0100
1000
0100
0010
0001
0010
0001
0010
0000
0000
0000
1001
0000
0000
0000
,
0001
0100
0010
1000
0001
0000
0000
0000
1000
0100
0010
0001
1000
0000
0000
0000
,
0001
0100
0001
0100
0010
0000
0000
0000
1000
0100
1000
0100
0010
0000
0000
0000
,
0001
1000
0001
1000
0001
0000
0001
0000
0100
0000
0100
0000
0100
0010
0100
0010
,
1000
0010
1000
0010
1000
0010
1000
0010
0100
0001
0100
0001
0100
0001
0100
0001
,
2000
0000
0002
3003
,
0001
0010
0100
0000
0010
0100
1000
0000
0001
0010
0100
0000
0010
0100
1000
0000
,
0001
0010
0100
0000
0010
0100
1000
0000
0001
0000
0000
0001
0000
0000
0001
0000
,
1000
0010
0100
0000
0010
0100
0001
0000
1000
0010
0100
0000
0010
0100
0001
0000
,
1000
0010
0100
0000
0010
0100
0001
0000
1000
0100
1000
0000
0001
0100
0001
0000
,
1000
0100
0110
0010
0011
0000
1001
0000
,
0101
0001
1000
1100
1000
0001
0011
0000
,
1001
0000
1010
1010
1100
0000
1100
0000
,
0011
0001
0100
0101
0001
0010
0011
0000
,
0100
0100
0001
0000
,
0100
0100
0001
0000
,
0100
0100
0001
0000
0000
0000
0000
0000
,
0100
0100
0001
0000
0000
0000
0000
0000
,
0001
0000
1000
0000
,
0000
0001
1000
0000
,
0001
0000
1000
0000
,
0000
0001
1000
0000
,
0001
0000
1000
0000
,
0000
0001
1000
0000
,
0001
0000
1000
0000
,
0000
0001
1000
0000
,
0001
0000
1000
0000
,
0001
0000
1000
0000
,
0001
1000
0001
1000
,
0001
1000
0001
1000
,
0001
0010
0100
1000
0001
0010
0100
1000
,
0001
0010
0100
1000
0001
0010
0100
1000
,
0001
0000
0000
0000
0000
0000
0001
0010
,
0100
1000
0001
0010
,
0100
0000
1000
0000
0100
0000
1000
0100
0001
0100
1000
0001
0010
0000
0001
0100
,
0000
0001
1000
0001
0100
0010
1000
0010
0000
1000
0100
0010
0002
1000
1003
0000
,
1010
0000
0010
0000
0100
0000
0001
0010
1000
0010
0001
1000
0100
0000
0010
0100
,
1000
0100
1000
0000
0001
0100
0001
0000
1000
0000
0000
0001
0000
0000
1000
0000
2002
0000
0000
0000
0000
0000
0000
0000
0000
0000
0000
0000
3003
0000
0000
0000
,
0011
0001
0011
0001
0011
0001
0011
0001
,
0011
0001
0011
0001
0011
0001
0011
0001
,
0011
0000
0001
0100
0010
0000
1000
0100
0010
0000
0100
0000
0110
0000
0010
0001
,
0100
0010
0100
0010
1000
0100
0010
0100
1000
0000
0001
0000
1001
0000
0000
0000
,
1100
1000
1100
1000
1100
1000
1100
1000
,
1100
1000
1100
1000
1100
1000
1100
1000
,
1100
0000
0001
0010
0001
0010
0100
1000
0100
1000
0001
1000
0001
0000
1000
0000
,
0010
0010
0010
0010
0100
0100
0100
0100
,
0101
0100
1100
0100
0101
0100
1100
0100
,
0101
0100
1100
0100
0101
0100
1100
0100
,
0101
0000
0001
1000
0010
1000
0010
0000
0100
0001
0100
0001
0100
0000
0010
0100
,
0010
1000
0010
0000
1000
0001
1000
0000
0200
0000
0010
0000
0310
0000
0000
0000
,
0011
0010
1010
0010
0011
0010
1010
0010
,
0011
0010
1010
0010
0011
0010
1010
0010
,
0011
0000
0001
0000
1000
0000
0100
0000
1100
0000
0000
0110
0000
0000
0110
0000
,
1001
0000
1000
0100
0010
0000
0001
0100
0010
0100
0010
0100
0010
0000
0000
0000
,
2000
0000
3200
0000
0302
0000
0103
1000
,
0001
0010
0100
1000
0001
0000
0001
0100
,
0000
0100
0010
0100
0001
1000
0001
1000
,
0000
1000
0100
0010
0002
1000
1003
0000
,
0002
0000
0203
0000
2300
0000
3100
0001
,
0010
0100
1000
0001
1000
0000
1000
0100
,
0000
0000
0100
0000
0010
0000
0100
0000
1000
0000
0000
0010
0000
0000
0100
0000
,
0010
0010
0010
0010
0010
0010
0010
0000
,
1010
1000
0001
0010
0011
0101
0000
1001
,
0000
0100
0001
0100
1010
1010
0000
0000
,
0011
0001
1000
0010
1010
1100
0000
1001
,
0000
0000
0100
0000
1000
0000
0100
0000
0010
0001
0010
0001
0010
0000
0000
0000
,
0011
0001
1000
0010
1010
1100
0000
1001
,
0000
0100
1000
0100
0011
0011
0000
0000
,
1010
1000
0001
0010
0011
0101
0000
1001
,
0000
0000
0100
0000
0001
0000
0100
0000
0010
1000
0010
1000
0010
0000
0000
0000
,
1000
0000
0001
0100
0001
0000
1000
0010
1000
0000
0001
0010
0001
0000
1000
0100
,
0010
0000
0011
0000
0110
0000
1100
0000
1001
0000
0001
0100
0001
0000
0010
0000
,
0011
0001
1000
0100
1100
1000
0010
0100
,
0101
0000
0101
0000
0011
0000
0011
0000
1000
0001
1000
0001
1000
0000
0000
0000
,
0001
0000
1000
0010
1000
0000
0001
0100
0001
0000
1000
0100
1000
0000
0001
0010
,
0100
0000
1100
0000
0110
0000
0011
0000
1001
0000
1000
0010
1000
0000
0100
0000
,
1100
0000
1000
0000
0001
0000
0010
0000
0011
0000
0001
0100
0000
0010
1000
0000
,
0001
0100
0001
0100
0001
0100
0001
0100
0010
1000
0010
1000
0010
1000
0010
1000
,
0002
0000
0000
0000
0000
0000
0000
0000
0000
0003
0000
0000
0000
0000
0000
0000
,
0000
0000
0000
0000
;

//---------------dance-double - ----------------
#NOTEDATA:;
#STEPSTYPE:dance-double;
#DIFFICULTY:Easy;
#METER:8;
#NOTES:
00000000
00000000
00000000
00000000
,
00000000
00000000
00000000
00000000
,
00000000
00000000
00000000
00000000
,
00000000
00000000
00000000
00000000
,
00000000
00000000
00000000
00000000
,
00001000
00000000
00010000
00000000
,
00001000
00100000
00001000
00000000
,
00010000
00000000
00001000
00000000
,
00010000
00000010
00010000
00000000
,
00001000
00010000
00001000
01000000
,
00010000
00100000
01000000
00000000
,
01000000
00100000
01000000
00010000
,
00001000
00010000
00001000
00000000
,
00010000
00000100
00000010
00000000
,
00000010
00000100
00010000
00000000
,
00001000
00010000
00000010
00001000
,
00000010
00000100
00000010
00000000
,
00001000
00000010
00001000
00000010
,
00010000
00001000
00010000
00001000
,
01000000
00010000
01000000
00010000
,
01000000
00000000
01100000
00000000
,
00100000
01000000
00100000
01000000
,
00010000
00100000
00010000
00100000
,
00001000
00010000
00001000
00010000
,
00001000
00000000
00011000
00000000
,
00010000
00000010
00000100
00000000
,
00000100
00000010
00010000
00000000
,
00001000
00000000
00010000
00000000
00001000
00010000
00001000
00000000
,
00010000
00000000
00011000
00000000
,
00001000
00100000
01000000
00000000
,
01000000
00100000
00001000
00000000
,
00010000
00001000
00010000
00001000
,
00010000
00001000
00010000
00000000
00001000
00000000
00000000
00000000
,
00010000
00000100
00001000
00000100
,
00000010
00000001
00001000
00000000
,
00000001
00000100
00000010
00000100
,
00001000
00010000
00001000
00000000
,
01000000
00010000
00100000
00010000
,
01000000
00100000
10000000
00100000
,
01000000
00000000
00010000
00100000
00010000
00000000
00100000
00000000
,
00001000
00000000
00000000
00010000
00000000
00000000
00001000
00000000
,
00010000
00000000
00000000
00000000
,
00010000
00000000
00000000
00000000
,
00001000
00000000
00000000
00000000
,
00000000
00000000
00000000
00000000
,
00000001
00000000
00000000
00000000
,
00001000
00000000
00000000
00000000
,
00000001
00000000
00000000
00000000
,
00001000
00000000
00000000
00000000
,
00010000
00000000
10000000
00000000
,
00010000
00000000
10000000
00000000
,
00010000
00100000
01000000
10000000
,
00010000
00000000
00000000
00000000
,
10000000
00000000
10000000
00000000
01000000
00100000
01000000
00000000
,
00100000
00000000
00001000
00000000
00010000
00001000
00010000
00000000
,
00000100
00000000
00000100
00000000
00001000
00000010
00001000
00000000
,
00000001
00001000
00002002
00003003
,
00000001
00000100
00000001
00000100
,
00000010
00001000
00000010
00001000
,
00000100
00000000
00011000
00000000
,
00010000
00001000
00010000
00000000
,
00001000
00100000
00001000
00100000
,
00010000
01000000
00010000
01000000
,
00010000
00000000
01100000
00000000
,
10000000
00010000
10000000
00000000
,
10000000
01000000
00100000
00010000
,
00100000
00001000
00010000
00001000
,
00000010
00000010
00000001
00000000
,
00001000
00001000
00000100
00000000
,
00000001
00000010
00000100
00001000
,
00000100
00010000
00001000
00010000
,
01000000
01000000
10000000
00000000
,
00010000
00010000
00100000
00000000
,
00010000
10000000
01000000
00100000
,
00001000
00000000
00010000
00001000
00010000
00000000
00000000
00000000
,
00000100
00010000
00000010
00001000
,
00000010
00000100
00000010
00000000
00000100
00000000
00000000
00000000
,
00000001
00000010
00000100
00001000
,
00000010
00000000
00010000
00001000
00010000
00000000
00000000
00000000
,
00001000
00100000
00010000
01000000
,
02200000
00000000
03300000
00000000
,
10000000
00000000
00100000
00000000
01000000
00010000
00000000
00000000
,
00100000
00100000
00100000
00000000
,
00001000
00000000
00010000
00000000
00000010
00001000
00000000
00000000
,
00000001
00000001
00000001
00000000
,
00000010
00000000
00000001
00000000
00000100
00000010
00000000
00000000
,
00001000
00001000
00001000
00000000
,
00000100
00000000
00010000
00000000
00001000
00010000
00000000
00000000
,
00001000
00001000
00001000
00000000
,
01000000
00010000
00100000
01000000
,
10000000
00000000
00010000
01000000
00010000
00000000
00000000
00000000
,
10000000
01000000
00010000
00001000
,
00000010
00000100
00000010
00000000
00000001
00000000
00000000
00000000
,
00000100
00000001
00000010
00000100
,
00001000
00000000
00000001
00000100
00000001
00000000
00000000
00000000
,
00000100
00001000
00010000
00100000
,
10100000
00000000
01010000
00000000
,
10010000
00000000
00000000
00000000
;

//---------------dance-double - ----------------
#NOTEDATA:;
#STEPSTYPE:dance-double;
#DIFFICULTY:Medium;
#METER:11;
#NOTES:
00000000
00000000
00000000
00000000
,
00000000
00000000
00000000
00000000
,
00000000
00000000
00000000
00000000
,
00000000
00000000
00000000
00000000
,
00000000
00000000
00000000
00000000
,
00001000
00000000
00010000
00000000
00001000
00000000
00000000
00100000
,
00000000
00001000
00010000
00000000
00001000
00010000
00000000
00000000
,
00010000
00000000
00001000
00000000
00010000
00000000
00000000
00000010
,
00000000
00010000
00001000
00000000
00020000
00000000
00030000
00000000
,
00001000
00010000
00000100
00001000
,
00000010
00000000
00000100
00000000
00000001
00001000
00000001
00000000
,
00000100
00000010
00001000
00000100
,
00010000
00000000
00001000
00000000
00100000
00010000
00100000
00000000
,
01000000
10000000
01000000
00000000
10000000
00100000
10000000
00000000
,
00010000
01000000
00010000
00000000
01000000
00001000
01000000
00000000
,
00001000
00001000
00010000
00010000
,
00001000
00010000
00011000
00000000
,
00001000
00010000
00000010
00000000
00001000
00000000
00000100
00000000
,
00000010
00000001
00001000
00000000
00000001
00000000
00000010
00000000
,
00000100
00001000
00000100
00000000
00001000
00000010
00001000
00000000
,
00000110
00000000
00001001
00000000
,
00001000
00000100
00010000
00000000
00001000
00000000
00010000
00000000
,
00001000
01000000
00010000
00000000
00100000
00000000
00010000
00000000
,
10000000
01000000
10000000
00000000
00010000
00100000
00010000
00000000
,
01100000
00000000
10010000
00000000
,
10000000
00100000
01000000
00000000
00100000
00000000
00010000
00000000
,
00001000
00010000
00001000
00000000
00000010
00000000
00000100
00000000
,
00001000
00000010
00001000
00000000
00000001
00000000
00000001
00000000
,
00000101
00000000
00001010
00000000
,
00000001
00000001
00000100
00000100
,
00001000
00000000
00001000
00000000
00010000
00001000
00010000
00000000
,
00001000
01000000
00001000
01000000
00010000
00100000
00010000
00100000
,
00020000
00000000
00000000
00030000
,
10000000
01000000
00100000
00000000
01000000
00100000
00010000
00000000
,
00100000
00000000
00000000
00000000
00001000
00000000
00000000
00000000
00010000
00000000
00000000
00010000
00000000
00000000
00010000
00000000
,
00001000
00010000
00000100
00000000
00001000
00000100
00000010
00000000
,
00000001
00001000
00000001
00001000
00000001
00000000
00001001
00000000
,
00000000
00000000
00000001
00000010
00000100
00000000
00000100
00000000
,
00020000
00000000
00031000
00002000
00000000
00013000
00020000
00000000
,
00031000
00000000
01000000
00100000
01000000
00000000
00010000
00000000
,
20000000
00000000
30010000
00020000
00000000
10030000
20000000
00000000
,
31000000
00000000
01000000
00000000
,
00010000
00000000
00000000
00000000
,
00000100
00000000
00000100
00000000
,
00000001
00000000
00000000
00000000
,
00000001
00001000
00000000
00000000
,
00000001
00001000
00000000
00000000
,
00001000
00010000
00000000
00000000
,
00001000
00010000
00000000
00000000
,
00010000
10000000
00010000
00000000
,
10000000
00010000
10000000
00000000
,
00010000
00100000
01000000
00000000
10000000
00010000
00100000
01000000
,
10000000
00000000
00000000
01000000
00010000
00000000
00001000
00000000
,
00000010
00000000
00000001
00000000
00000100
00000000
00000001
00000000
00000010
00000100
00000010
00000000
00000100
00000000
00000000
00000000
,
00001000
00000000
00000010
00000000
00001000
00000000
00000100
00000000
00010000
00001000
00010000
00000000
00001000
00000000
00000000
00000000
,
00010000
00000000
00001000
00000000
01000000
00000000
00010000
00000000
00100000
00010000
00100000
00000000
00010000
00000000
00000000
00000000
,
01010000
11000000
20020000
30030000
,
11000000
10000000
11000000
00000000
,
00110000
00010000
00110000
00000000
,
00100000
00010000
00100000
00001000
00010000
00000000
00001000
00000000
,
00010000
00000010
00001000
00000010
00020000
00000000
00030000
00000000
,
00011000
00010000
00011000
00000000
,
00010100
00000100
00001100
00000000
,
00001000
00000000
00000100
00000000
00000010
00000000
00000001
00000000
00000010
00000000
00000000
00000001
00000000
00000000
00001000
00000000
,
00000002
00000000
00000000
00000003
,
00000101
00000001
00000101
00000000
,
00001010
00001000
00001010
00000000
,
00000010
00001000
00000010
00010000
00001000
00000000
00010000
00000000
,
00001000
00100000
00010000
00100000
00002000
00000000
00003000
00000000
,
00011000
00001000
00011000
00000000
,
01001000
01000000
01010000
00000000
,
00010000
00000000
01000000
00000000
00100000
00000000
10000000
00000000
00100000
00000000
00000000
10000000
00000000
00000000
00010000
00000000
,
20000000
00000000
00000000
30000000
,
01000000
01000000
10000000
00100000
,
01000000
00010000
00100000
00001000
00020000
00000000
00030000
00000000
,
00001000
00010000
00001000
00010000
00000010
00001000
00000100
00001000
,
00000000
00001000
00000100
00000010
00000002
00000000
00000003
00000000
,
00000100
00000100
00000001
00000010
,
00000100
00001000
00000010
00010000
00002000
00000000
00003000
00000000
,
00010000
00000000
00001000
00000000
00010000
00000000
00001000
00000000
01000000
00000000
00000000
00010000
00000000
00000000
00100000
00000000
,
00020000
00000000
00000000
00030000
,
10000000
00000000
10000000
00100000
01000000
00100000
00000000
10000000
,
00000000
10000000
00010000
00100000
00010000
00100000
00000000
00000000
,
00001000
00000000
00001000
00010000
00000010
00001000
00000000
00000010
,
00000000
00000010
00001000
00000001
00001000
00000001
00001000
00000000
,
00000001
00000000
00000001
00000010
00000100
00000010
00000000
00000001
,
00000000
00000001
00001000
00000010
00001000
00000010
00000000
00000000
,
00010000
00000000
00010000
00001000
00100000
00010000
00000000
00100000
,
00000000
00100000
00010000
10000000
00010000
10000000
00010000
00000000
,
10000000
00100000
01000000
00000000
00010000
00100000
01000000
00000000
,
00100000
00001000
00010000
00001000
00020000
00000000
00030000
00000000
,
00001000
00010000
00000010
00001000
00000100
00001000
00000010
00000100
,
00000000
00000100
00000001
00000010
00000002
00000000
00000003
00000000
,
00000001
00000010
00000100
00000000
00001000
00000010
00000100
00000000
,
00000010
00010000
00001000
00010000
00002000
00000000
00003000
00000000
,
00010000
00000000
00001000
00000000
00010000
00000000
00100000
00000000
10000000
00000000
00000000
00010000
00000000
00000000
01000000
00000000
,
00200000
00300000
02000000
03000000
,
20020000
00000000
00000000
00000000
00000000
00000000
00000000
00000000
00000000
30030000
00000000
00000000
00000000
00000000
00000000
00000000
;

//---------------dance-double - ----------------
#NOTEDATA:;
#STEPSTYPE:dance-double;
#DIFFICULTY:Hard;
#METER:14;
#NOTES:
00000000
00000000
00000000
00000000
,
00000000
00000000
00000000
00000000
,
00000000
00000000
00000000
00000000
,
00000000
00000000
00000000
00000000
,
00000000
00000000
00000000
00000000
,
00001000
00000000
00010000
00100000
01000000
01000000
00000000
00100000
,
00000000
00100000
00010000
00001000
00000100
00000100
00000000
00000000
,
00000010
00000000
00010000
00001000
00000010
00000010
00000000
00000100
,
00000000
00000100
00010000
00001000
01000000
00010000
00100000
00000000
,
00010000
10000000
01000000
00100000
00010000
10000000
01000000
00100000
,
00010000
00100000
00001000
00010000
00000100
00001000
00000010
00000100
,
00000001
00001000
00000010
00000100
00000001
00001000
00000010
00000100
,
00000001
00001000
00000100
00010000
00001000
00100000
00010000
00000000
,
10000000
01000000
10000000
01000000
00100000
00010000
00100000
00010000
,
00001000
00000100
00001000
00000100
00000010
00000001
00000010
00000001
,
00001000
00001100
00001010
00011000
,
01010000
00000000
00110000
00000000
10000000
00010000
10000000
00000000
,
00010000
00100000
01000000
10000000
00010000
00100000
01000000
10000000
,
00010000
00100000
00001000
01000000
00010000
00100000
00001000
01000000
,
00001000
00010000
00001000
00010000
00001000
00010000
00001000
00010000
,
00001000
00000000
00011000
00000000
,
00010000
00000100
00001000
00000010
00010000
00000100
00001000
00000010
,
00001000
00000100
00000010
00000001
00001000
00000100
00000010
00000001
,
00000100
00000010
00000100
00000010
00000100
00000010
00000100
00000010
,
00000100
00000000
00000110
00000000
,
00000001
00001000
00000100
00010000
00000010
00001000
00000001
00000100
,
00000001
00001000
00000100
00010000
00000010
00001000
00000001
00000100
,
00000010
00000010
00010000
00010000
00001000
00010000
00001000
00010000
,
00001000
00000000
00011000
00000000
,
00001000
00100000
00010000
00000000
01000000
00010000
00100000
00000000
,
01000000
10000000
01000000
00100000
00010000
00100000
00001000
00000000
,
00010000
00000100
00001000
00000100
00000010
00000100
00000001
00000100
,
00000010
00000001
00001001
00000000
,
00000001
00000100
00000001
00000100
00000010
00001000
00000010
00001000
,
00010000
00000000
01000000
00000000
00010000
00000000
01000000
00000000
00100000
00000000
00000000
10000000
00000000
00000000
10100000
00000000
,
10000000
01000000
10000000
01000000
00100000
00010000
00100000
00010000
,
00001000
00000100
00001000
00000100
00000010
00000001
00000010
00000001
,
00000010
00000000
00000001
00000100
00001000
00000100
00000001
00000000
,
00001000
00000010
00000010
00010000
00001000
00001000
00010000
00000000
,
00100000
10000000
01000000
00100000
00010000
00100000
00001000
00000000
,
00001000
00010000
00010000
00000010
00001000
00001000
00000010
00000000
,
00000100
00000100
00000001
00000000
,
00000000
00000000
00000000
00000000
,
01000000
01000000
00010000
00000000
,
00000000
00000000
00000000
00000000
,
00010000
00000000
10000000
00000000
00000000
00010000
10000000
00000000
,
00010000
00000000
10000000
00000000
00000000
00010000
10000000
00000000
,
01000000
00000000
00100000
00000000
00000000
01000000
00100000
00000000
,
00001000
00000000
00010000
00000000
00000000
00001000
00010000
00000000
,
00000100
00000010
00000100
00000010
,
00000001
00001000
00000001
00001000
00000001
00001000
00000001
00001000
,
00000001
00000010
00000100
00001000
00010000
00100000
01000000
10000000
,
00010000
00000000
00000000
00000000
00000000
00000000
00010000
00100000
01000000
00000000
10000000
00000000
00010000
00000000
00000000
00000000
,
10000000
00000000
01000000
00000000
00100000
00000000
00010000
00000000
00100000
00001000
00010000
00001000
00010000
00000000
00000100
00001000
,
00000000
00001000
00000010
00001000
00000001
00000010
00000001
00000100
00000000
00000010
00000100
00000010
00000200
00000000
00000300
00000000
,
00000001
00000000
00000100
00000000
00000010
00000000
00001000
00000000
00000010
00010000
00001000
00010000
00001000
00000000
00100000
00010000
,
00000000
00000000
01000000
00000000
00100000
00000000
10000000
00000000
00100000
00000000
00000000
01000000
00000000
00000000
00010000
00000000
20000000
00000000
00000000
00000000
00000000
00000000
00000000
00000000
00020000
00000000
00000000
00000000
30030000
00000000
00000000
00000000
,
00010000
00100000
00001000
01000000
00010000
01000000
00001000
00100000
,
00010000
00100000
00001000
01000000
00010000
01000000
00001000
00100000
,
00010000
01000000
00100000
00010000
00001000
00000100
00000010
00001000
,
00000100
00000010
00001000
00010000
01000000
00100000
01100000
00000000
,
01000000
00010000
00001000
00100000
01000000
00100000
00001000
00010000
,
01000000
00100000
01000000
00010000
00001000
01000000
00100000
01000000
,
00010000
00000000
00100000
00000000
00001000
00000000
00010000
00000000
00001000
00000000
00000000
00000010
00000000
00000000
00000001
00000000
,
00000100
00000010
00001000
00000100
00000010
00000001
00001001
00000000
,
00001000
00000010
00010000
00000100
00001000
00000100
00010000
00000010
,
00001000
00000010
00010000
00000100
00001000
00000100
00010000
00000010
,
00001000
00000100
00000010
00001000
00010000
01000000
00100000
00010000
,
01000000
00100000
00010000
00001000
00000100
00000010
00000110
00000000
,
00000100
00001000
00010000
00000010
00000100
00000010
00010000
00001000
,
00000100
00000010
00000100
00001000
00010000
00000100
00000010
00000100
,
00001000
00000000
00000010
00000000
00010000
00000000
00001000
00000000
00010000
00000000
00000000
00100000
00000000
00000000
10000000
00000000
,
01000000
00100000
00010000
01000000
00100000
10000000
10010000
00000000
,
00110000
00000000
00010000
00000000
01010000
00000000
10000000
01000000
,
00010000
00001000
00010000
00001000
00000010
00000000
00000001
00001000
,
00000000
00000010
00000100
00001000
00010000
00001000
00000010
00000100
,
00000000
00001000
00000100
00000010
00000002
00001000
00001003
00000000
,
00001010
00000000
00001000
00000000
00001100
00000000
00000001
00000100
,
00001000
00010000
00001000
00010000
00100000
00000000
10000000
00010000
,
00000000
00000000
00100000
00000000
01000000
00000000
00010000
00000000
00001000
00000000
00000000
00010000
00000000
00000000
00100000
00000000
,
10000000
00010000
10000000
00010000
10000000
00010000
10000000
00000000
,
00010000
00100000
01000000
10000000
00100000
00010000
00001000
00000100
,
00000001
00000010
00000100
00001000
00000001
00000010
00001000
00010000
,
01000000
00100000
00001000
00010000
00001000
00000010
00000100
00000010
,
00000001
00000000
00000100
00000000
00000010
00000000
00001000
00000000
00000001
00001000
00000001
00001000
00000001
00000000
00000000
00000000
,
00001000
00000100
00000010
00000001
00000100
00001000
00010000
00100000
,
10000000
01000000
00100000
00010000
10000000
01000000
00010000
00001000
,
00000010
00000000
00000100
00000000
00010000
00000000
00001000
00000000
00010000
00000000
00000000
00011000
00000000
00000000
00001000
00000000
,
01000000
00000000
00010000
00000000
00100000
00000000
01000000
00000000
10000000
00010000
10000000
00010000
10000000
00000000
00000000
00000000
,
00010000
01000000
10000000
01000000
00010000
00100000
10000000
00100000
,
00010000
00100000
00001000
00010000
00000100
00000000
00001000
00000100
,
00000001
00000100
00001000
00000001
00000100
00001000
00010000
00000010
,
00001000
00000000
00000010
00000000
00000100
00000000
00000001
00000000
00001000
00000001
00001000
00000001
00001000
00000000
00000000
00000000
,
00000001
00000100
00001000
00000100
00000001
00000010
00001000
00000010
,
00000001
00000100
00001000
00010000
00100000
00000000
01000000
10000000
,
01000000
00000000
00010000
00000000
10000000
00000000
01000000
00000000
00100000
00000000
00000000
00011000
00000000
00000000
00010000
00000000
,
00000100
00000000
00001000
00000000
00000010
00000000
00000100
00000000
00000001
00000010
00000001
00000010
00000001
00000000
00000000
00000000
,
00002002
00000000
00000000
00000000
00000000
00000000
00000000
00000000
00000000
00003003
00000000
00000000
00000000
00000000
00000000
00000000
;

//---------------dance-double - ----------------
#NOTEDATA:;
#STEPSTYPE:dance-double;
#DIFFICULTY:Challenge;
#METER:18;
#BPMS:0=200,164=100,180=400,244=100,260=200,420=190,420.25=180,420.5=170,420.75=160,421=150,421.25=140,421.5=130,421.75=120,422=110,422.25=100;
#NOTES:
00000000
00000000
00000000
00000000
,
00000000
00000000
00000000
00000000
,
00000000
00000000
00000000
00000000
,
00000000
00000000
00000000
00000000
,
00000000
00000000
00000000
00000000
,
00000001
00000100
00000010
00001000
00000010
00000100
00000000
00001001
,
00000000
00000001
00000100
00001000
00010000
00100000
00000000
00000000
,
10000000
01000000
00100000
00010000
00100000
01000000
00000000
10010000
,
00000000
10000000
01000000
00010000
00001000
00000010
00000001
00000000
,
00000001
00000010
00000100
00001000
00000010
00000100
00001000
00010000
,
00000010
00010000
00001000
00010000
00100000
01000000
00100000
00000000
,
10000000
01000000
00100000
00010000
01000000
00100000
00010000
00001000
,
00100000
00001000
00010000
00001000
00000010
00000100
00000010
00000000
,
00000001
00000100
00000001
00000100
00000001
00000100
00000001
00000100
00000001
00000100
00000001
00000100
00000001
00000100
00000001
00000100
,
00000010
00001000
00000010
00001000
00000010
00001000
00000010
00001000
00000010
00001000
00000010
00001000
00000010
00001000
00000010
00001000
,
00000001
00000001
00001000
00001000
,
00010000
00000000
00000000
00000000
00010000
00000000
00000000
00000000
10000000
00010000
10000000
00010000
10000000
00000000
00000000
00000000
,
00010000
00100000
00010000
00000000
10000000
00100000
10000000
00000000
00010000
00100000
00010000
00000000
10000000
00100000
10000000
00000000
,
00010000
01000000
00010000
00000000
10000000
01000000
10000000
00000000
00010000
01000000
00010000
00000000
10000000
01000000
10000000
00000000
,
00100000
10000000
01000000
00010000
00001000
00000010
00000001
00000100
,
00000110
00000000
00011000
00000000
,
00001000
00000010
00001000
00000000
00000001
00000010
00000001
00000000
00001000
00000010
00001000
00000000
00000001
00000010
00000001
00000000
,
00001000
00000100
00001000
00000000
00000001
00000100
00000001
00000000
00001000
00000100
00001000
00000000
00000001
00000100
00000001
00000000
,
00000010
00000001
00000100
00001000
00010000
00100000
10000000
01000000
,
01100000
00000000
00011000
00000000
,
00001000
00010000
00001000
00000000
00100000
01000000
00100000
00000000
00001000
00010000
00001000
00000000
01000000
00100000
01000000
00000000
,
00001000
00010000
00001000
00000000
00100000
01000000
00100000
00000000
00001000
00010000
00001000
00000000
01000000
00100000
01000000
00000000
,
00001000
00001000
00010000
00010000
00011000
00001000
00011000
00000000
,
00001000
00010000
00001000
00010000
00001000
00000000
00000000
00000000
00010000
00001000
00010000
00001000
00010000
00000000
00000000
00000000
,
00000010
00001000
00000010
00000100
00000010
00000000
00000000
00000000
00000100
00000001
00000100
00000010
00000100
00000000
00000000
00000000
,
00000001
00001000
00000001
00001000
00000001
00000000
00000001
00000000
00001000
00000000
00001000
00000000
00010000
00001000
00010000
00000000
,
00001000
01000000
00001000
01000000
00001000
01000000
00001000
01000000
00010000
01000000
00010000
01000000
00010000
01000000
00010000
01000000
,
00200000
00000000
02000000
03300000
,
10000000
01000000
00100000
00000000
01000000
00100000
00010000
00000000
00100000
00001000
00010000
00000000
00001000
00010000
00000100
00000000
,
00001000
00000100
00000010
00000000
00000100
00000010
00000001
00000000
00001000
00000000
00000000
00001000
00000000
00000000
00001000
00000000
,
00000001
00000010
00000100
00000000
00000010
00000100
00001000
00000000
00000100
00010000
00001000
00000000
00010000
00001000
00100000
00000000
,
00010000
00100000
01000000
00000000
00100000
01000000
10000000
00000000
00010000
01000000
00100000
00000000
10000000
01000000
00100000
00000000
,
00010000
10000000
01000000
00010000
00011000
00001000
00001010
00000000
,
00000011
00000001
00001000
00001100
00000100
00010000
00011000
00000000
,
01001000
00000000
01000000
00010000
00110000
00000000
00110000
00000000
,
11000000
01000000
00100000
00101000
00001000
00010000
00011000
00000000
,
00000100
00000100
00000001
00000000
,
00000100
00000100
00000001
00000000
,
01000000
01000000
00010000
00000000
00000000
00000000
00000000
00000000
,
01000000
01000000
00010000
00000000
00000000
00000000
00000000
00000000
,
00010000
00000000
10000000
00000000
,
00000000
00010000
10000000
00000000
,
00010000
00000000
10000000
00000000
,
00000000
00010000
10000000
00000000
,
00100000
00000000
01000000
00000000
,
00000000
00100000
01000000
00000000
,
00001000
00000000
00010000
00000000
,
00000000
00001000
00010000
00000000
,
00000010
00000000
00000100
00000000
,
00000010
00000000
00000100
00000000
,
00000001
00001000
00000001
00001000
,
00000001
00001000
00000001
00001000
,
00000001
00000010
00000100
00001000
00000001
00000010
00000100
00001000
,
00000001
00000010
00000100
00001000
00000001
00000010
00000100
00001000
,
00000001
00000000
00000000
00000000
00000000
00000000
00000100
00001000
,
00010000
00100000
10000000
00000000
,
00010000
00000000
00010000
00000000
01000000
00000000
10000000
01000000
00010000
10000000
00100000
00010000
00001000
00000000
00010000
00001000
,
00000000
00001000
00010000
00000100
00001000
00000010
00001000
00000100
00000000
00000100
00000010
00000001
00002000
00000001
00003001
00000000
,
00001000
00000000
00001000
00000000
00000100
00000000
00000001
00000100
00001000
00000001
00000010
00001000
00010000
00000000
00001000
00010000
,
00001000
00100000
00001000
00000000
01000000
00010000
01000000
00000000
00010000
00000000
00000000
00100000
00000000
00000000
01000000
00000000
02200000
00000000
00000000
00000000
00000000
00000000
00000000
00000000
00000000
00000000
00000000
00000000
03300000
00000000
00000000
00000000
,
11000000
01000000
00100000
00010000
00110000
00100000
00001000
00000010
,
00000110
00000100
00001000
00000001
00000101
00000100
00000010
00001000
,
00000001
00000000
00000100
00000010
00001000
00000000
00000010
00000100
00000001
00000000
00001000
00000000
00001100
00000000
00000100
00010000
,
00001000
00010000
00001000
00010000
00001000
01000000
00010000
01000000
00010000
00000000
00100000
00000000
01100000
00000000
00000000
00000000
,
11000000
10000000
00100000
01000000
01010000
00010000
00000100
00000001
,
00001001
00001000
00000010
00000100
00000110
00000010
00010000
00001000
,
00011000
00000000
00010000
00000100
00010000
00000100
00001000
00000010
00001000
00000000
00000010
00000100
00000000
00000010
00000100
00000000
,
00000001
00000001
00000010
00000010
00001000
00001000
00010000
00000000
,
00010010
00010000
00011000
00010000
01010000
00010000
00110000
00010000
,
00011000
00010000
00010100
00010000
00010010
00010000
00011000
00000000
,
00001000
00000000
00100000
00010000
00100000
01000000
00100000
00000000
00010000
10000000
00010000
10000000
00010000
00000000
01000000
00010000
,
01000000
00001000
01000000
00000000
00010000
00100000
00010000
00000000
00100000
00000000
00001000
00000000
00011000
00000000
00000000
00000000
,
00101000
00001000
00011000
00001000
00001100
00001000
00001010
00001000
,
00011000
00001000
01001000
00001000
00101000
00001000
00011000
00000000
,
00010000
00000000
00001000
00000000
00000010
00000000
00000100
00000000
00000010
00000000
00000001
00001000
00000000
00001000
00000001
00000000
,
00000100
00001000
00010000
00100000
10000000
10000000
10000000
00000000
,
20000000
00000000
32000000
00000000
03020000
00000000
00031000
00000010
,
00001000
00010000
00001000
00000100
00000001
00000000
00001000
00000001
,
00000000
00000001
00000100
00001000
00000100
00001000
00010000
00100000
,
00000000
00010000
00001000
00010000
02000000
10000000
13000000
00000000
,
20000000
00000000
30200000
00000000
00320000
00000000
00031000
00000100
,
00001000
00010000
00001000
00000010
00000001
00000000
00001000
00000001
,
00000000
00000000
00000001
00000000
00000010
00000000
00001000
00000000
00000010
00000000
00000000
00001000
00000000
00000000
00100000
00000000
,
01000000
01000000
01000000
01000000
01000000
01000000
01000000
00000000
,
10000000
01000000
00010000
00001000
00010000
00100000
01000000
00001000
,
00010000
01000000
00010000
00001000
00000010
00000110
00000000
00000000
,
00000001
00000100
00001000
00010000
00100000
01000000
00001000
00010000
,
01000000
00000000
00010000
00000000
00001000
00000000
00010000
00000000
00100000
01000000
00100000
01000000
00100000
00000000
00000000
00000000
,
10000000
00100000
00010000
00001000
00010000
01000000
00100000
00001000
,
00010000
00100000
00010000
00001000
00000100
00000110
00000000
00000000
,
00000001
00000010
00001000
00010000
01000000
00100000
00001000
00010000
,
00100000
00000000
00010000
00000000
00001000
00000000
00010000
00000000
01000000
00100000
01000000
00100000
01000000
00000000
00000000
00000000
,
10000000
00000000
00010000
01000000
00010000
00000000
10000000
00100000
10000000
00000000
00010000
01000000
00010000
00000000
00100000
00000000
,
00001000
00000000
00000010
00000000
00001000
00000000
00100000
00000000
00001000
00000000
00010000
00001000
00010000
00000000
00000100
00000000
,
00001000
00000100
00000010
00000000
00000001
00000000
00001000
00000000
00000001
00000100
00000010
00000000
00001000
00000000
00000100
00000000
,
00010000
00000000
00001000
00000000
00000100
00000000
00000001
00000000
00001000
00000001
00001000
00000001
00001000
00000000
00000000
00000000
,
00000001
00000000
00001000
00000100
00001000
00000000
00000001
00000010
00000001
00000000
00001000
00000100
00001000
00000000
00000010
00000000
,
00010000
00000000
00100000
00000000
00010000
00000000
00000010
00000000
00010000
00000000
00001000
00010000
00001000
00000000
01000000
00000000
,
00010000
01000000
00100000
00000000
10000000
00000000
00010000
00000000
10000000
00000000
01000000
00100000
00000000
00001000
00100000
00000000
,
01000000
00000000
00010000
00001000
00000010
00000000
00000001
00001000
00000010
00000100
00000010
00000100
00000010
00000000
00000000
00000000
,
00000220
00000000
00000000
00000000
00000000
00000000
00000000
00000000
00000000
00000330
00000000
00000000
00000000
00000000
00000000
00000000
,
00000000
00000000
00000000
00000000
;
