
//----- song ID: jdan -----//
#TITLE:Jungle Dance;
#ARTIST:NATSUMI;
#BANNER:Jungle Dance.png;
#BACKGROUND:Jungle Dance-bg.png;
#CDTITLE:./CDTitles/DDR A3.png;
#MUSIC:Jungle Dance.ogg;
#SAMPLESTART:77.42;
#SAMPLELENGTH:15;
#BPMS:0=155;
#STAGE:15;
#NOTES:
     dance-single:
     :
     Beginner:
     3:
     :
0000
0000
0000
0000
,
0000
0000
0000
0000
,
0000
0000
0000
0000
,
0000
0000
0000
0000
,
0000
0000
0000
0000
,
0000
0000
0000
0000
,
1000
0000
1000
0000
,
0100
0000
0000
0000
,
0010
0000
0010
0000
,
0001
0000
0000
0000
,
1001
0000
0000
0000
,
0001
0000
0001
0000
,
0100
0000
0000
0000
,
0010
0000
0010
0000
,
0100
0000
0000
0000
,
1000
0000
1000
0000
,
0100
0000
0000
0000
,
1001
0000
0000
0000
,
1000
0000
0010
0000
,
1000
0000
0000
0000
,
0020
0000
0000
0000
,
0030
0000
0000
0000
,
0001
0000
0010
0000
,
0001
0000
0000
0000
,
0020
0000
0000
0000
,
0030
0000
0000
0000
,
0100
0000
0100
0000
,
0100
0000
0000
0000
,
0010
0000
0010
0000
,
0010
0000
0000
0000
,
0001
0001
0100
0000
,
0001
0000
0000
0000
,
0010
0000
0100
0000
,
1001
0000
0000
0000
,
1000
1000
0100
0000
,
1000
0000
0000
0000
,
0010
0000
0100
0000
,
1001
0000
0000
0000
,
0001
0000
0100
0000
,
0001
0010
0001
0000
,
0100
0000
0010
0000
,
1001
0000
0000
0000
,
1000
0000
0100
0000
,
1000
0010
1000
0000
,
0100
0000
0010
0000
,
1001
0000
0000
0000
,
0002
0000
0000
0000
,
0003
0000
0000
0000
,
2000
0000
0000
0000
,
3000
0000
0000
0000
,
0001
0000
0010
0000
,
0001
0001
0010
0000
,
1000
0000
1000
0000
,
1000
0000
0000
0000
,
1000
0000
0100
0000
,
1000
1000
0100
0000
,
0001
0000
0001
0000
,
0001
0000
0000
0000
,
0001
0000
0100
0000
,
1000
0000
0000
0000
,
1000
1000
0100
0000
,
1001
0000
0000
0000
,
1000
0000
0010
0000
,
0001
0000
0000
0000
,
0001
0001
0010
0000
,
1001
0000
0000
0000
,
1001
0000
0000
0000
,
0000
0000
0000
0000
;
#NOTES:
     dance-single:
     :
     Easy:
     7:
     :
0000
0000
0000
0000
,
0000
0000
0000
0000
,
0000
0000
0000
0000
,
0000
0000
0000
0000
,
0000
0000
0000
0000
,
0000
0000
0000
0000
,
1000
0000
0100
0000
0010
0001
0010
0000
,
0001
0000
0100
0000
0010
1000
0010
0000
,
1000
0000
0001
0000
1000
0001
1000
0000
,
1001
0000
0000
0000
,
1001
0000
1000
0000
0010
0100
0001
0000
,
1000
0010
0100
0000
0001
0000
0000
0000
,
1001
0000
0001
0000
0010
0100
1000
0000
,
0001
1000
0110
0000
,
1001
0000
1000
0000
0100
0010
0001
0000
,
1000
0100
0010
0000
0001
0000
0000
0000
,
1001
0000
0001
0000
0100
0010
1000
0000
,
0001
1000
0110
0000
,
0001
0100
1000
0100
,
0001
0000
0001
1000
0001
0000
0000
0000
,
1000
0100
0001
0100
,
1000
0000
1000
0001
1000
0000
0000
0000
,
0010
0010
0110
0000
,
0100
0100
0110
0000
,
1000
0001
0100
0010
,
1000
0000
0000
0000
,
1000
0100
0010
0001
,
1000
0100
0010
0000
0001
0000
0000
0000
,
0001
0100
0010
0000
1000
0000
0001
0000
,
1001
0000
0000
0000
,
0002
0010
1003
0000
,
2000
0010
3001
0000
,
0002
0100
1003
0000
,
2000
0100
3001
0000
,
0002
0010
0103
0000
,
2000
0010
3100
0000
,
0002
0100
0013
0000
,
2000
0100
3010
0000
,
1000
0100
0001
0100
,
1000
0001
1000
0000
0001
0000
0000
0000
,
0001
0100
1000
0100
,
0001
1000
0001
0000
1000
0000
0000
0000
,
1000
0010
0100
0010
,
1000
0100
1000
0000
0001
0000
0000
0000
,
0001
0100
0010
0100
,
0001
0010
0001
0000
1000
0000
0000
0000
,
0001
0100
1000
0100
,
0001
1000
0001
0000
,
1000
0100
0001
0100
,
2000
0000
0000
3000
,
0001
0001
0010
0010
,
0100
1000
0100
0000
1000
0000
0000
0000
,
1000
1000
0010
0010
,
0100
0001
0100
0000
0001
0000
0000
0000
,
0001
1000
0010
0100
,
0001
1000
0100
0000
0010
0000
0000
0000
,
0001
0010
0100
1000
,
1001
1001
1001
0000
,
1000
0010
1000
0000
0001
0100
0001
0000
,
0010
0010
1001
0000
,
0001
0010
0001
0000
1000
0100
1000
0000
,
0010
0010
1001
0000
,
1000
0010
0100
0001
,
0010
0100
0010
0000
0110
0000
0000
0000
,
0001
0100
0010
1000
,
0100
0010
0100
0000
0110
0000
0000
0000
,
1001
0000
0000
0000
,
0000
0000
0000
0000
;
#NOTES:
     dance-single:
     :
     Medium:
     12:
     :
0000
0000
0000
0000
,
0000
0000
0000
0000
,
0000
0000
0000
0000
,
0000
0000
0000
0000
,
0000
0000
0000
0000
,
0000
0000
0000
0000
,
1000
0100
1000
0100
0010
0001
0010
0010
,
0001
0100
0001
0100
0010
1000
0010
0010
,
1000
0100
0010
0001
1000
0100
0010
0001
,
1001
0000
0000
0000
0000
0000
0000
0000
1000
0001
1000
0001
1000
0000
0000
0000
,
1001
0000
0001
0100
0010
1000
0001
0100
,
0010
1000
0001
0100
0010
1000
0002
0000
,
1003
0000
0100
1000
0001
0010
0100
1000
,
0001
0011
1010
0011
,
1001
0000
1000
0100
0010
0001
1000
0100
,
0010
0001
1000
0100
0010
0001
2000
0000
,
3001
0000
0100
0001
1000
0010
0100
0001
,
1000
0000
0000
0000
0110
0000
0000
0000
0001
1000
0001
0000
1000
0000
0000
0000
,
0110
0000
0002
0000
1003
1000
2000
0000
,
3001
0001
0002
0000
1003
0001
0100
0010
,
1000
1010
0001
0101
,
1000
0000
1000
0100
0010
0001
0010
0000
,
0100
0000
0120
0000
0130
0100
0200
0000
,
0310
0010
0020
0000
0130
0010
0100
0010
,
0100
0000
1001
0000
1000
0100
0001
0100
,
1000
0000
0001
0100
1000
0100
0001
0000
,
1000
0100
0010
0001
1000
0010
0100
0001
,
0010
0001
0100
0010
1000
0100
1000
0000
,
0001
0010
0100
1000
0001
0010
0100
1000
,
0001
0000
0100
1001
,
1000
0000
0010
0000
0100
0000
0001
0000
0010
0100
0000
1000
0001
0000
0000
0000
,
1000
0100
0001
0100
1000
0001
1000
0000
,
0001
0000
0010
0000
0100
0000
1000
0000
0010
0100
0000
0001
1000
0000
0000
0000
,
0001
0100
1000
0100
0001
0000
1001
0000
,
1000
0000
0100
0000
0010
0000
0001
0000
0100
0010
0000
1000
0100
0000
0000
0000
,
1000
0010
0001
0010
0100
0000
1001
0000
,
0001
0000
0010
0000
0100
0000
1000
0000
0010
0100
0000
0001
0010
0000
0000
0000
,
0001
0100
1000
0100
0010
0000
1001
0000
,
1000
0000
0001
0000
0010
0000
0001
1000
0000
0001
1000
0000
0010
0000
0000
0000
,
1000
0010
0100
0001
0020
0230
0302
0203
,
1300
0000
0001
0000
0100
0000
0010
0100
0000
0010
0100
0000
0001
0000
0000
0000
,
1000
0010
0001
0010
1000
0000
1001
0000
,
0001
0000
1000
0000
0100
0000
1000
0001
0000
1000
0001
0000
0100
0000
0000
0000
,
0001
0100
0010
1000
0200
0320
2030
3020
,
0031
0000
1000
0000
0010
0000
0100
0010
0000
0100
0010
0000
1000
0000
0000
0000
,
0001
0100
1000
0100
0001
0000
1001
0000
,
1000
0000
0100
0000
0010
0000
0100
1000
0000
0100
1000
0000
0100
0000
0010
0000
,
0001
0000
0010
0000
0100
0000
0010
0001
0000
0000
0000
0000
0000
0000
0000
0000
,
0001
0000
0100
0000
0010
0000
0100
0001
0000
0100
0001
0000
0100
0000
0010
0000
,
2000
0000
0000
3000
,
0001
0100
1000
0100
0001
0100
1000
0100
,
0001
0010
1000
0010
0001
0000
1001
0000
,
1000
0100
0001
0100
1000
0100
0001
0100
,
1000
0010
0001
0010
1000
0000
1001
0000
,
0001
0100
1000
0100
0001
0010
1000
0010
,
0001
0100
0010
1000
0100
0000
1001
0000
,
1000
0100
0001
0100
1000
0010
0001
0010
,
2000
3002
2003
3002
2003
3002
1003
0000
,
0001
0100
0001
0010
0001
0100
0010
0100
,
0001
0010
0100
0010
0001
0100
0001
0000
,
1000
0010
1000
0100
1000
0010
0100
0010
,
1000
0100
0010
0100
1000
0010
1000
0000
,
0001
0010
0100
1000
0001
0010
1000
0010
,
0001
0100
0010
1000
0100
1000
0010
0100
,
0001
0010
0100
0010
1000
0010
0100
0010
,
0001
0000
1000
0000
0100
0000
0010
0000
0001
1000
0001
0000
1000
0000
0000
0000
,
1001
0000
0000
0000
,
0000
0000
0000
0000
;
#NOTES:
     dance-single:
     :
     Hard:
     16:
     :
0000
0000
0000
0000
,
0000
0000
0000
0000
,
0000
0000
0000
0000
,
0000
0000
0000
0000
,
0000
0000
0000
0000
,
0000
0000
0000
0000
,
1000
0000
1000
0000
0100
0000
0100
0000
0010
0000
0010
0000
0001
0010
0001
0010
,
0001
0000
0001
0000
0010
0000
0010
0000
0100
0000
0100
0000
1000
0100
1000
0100
,
1000
0010
1000
0010
0100
0001
0100
0001
0010
0001
0010
0001
1000
0100
1000
0100
,
1000
0000
0000
0000
0000
0000
0000
0000
0001
0010
0100
1000
0001
0000
0000
0000
,
1001
0000
0000
0000
0100
0001
0100
0001
1000
0010
1000
0010
0100
0001
0100
0001
,
1000
0010
1000
0010
0100
0001
0100
0001
1000
0010
1000
0010
0200
0000
0300
0000
,
1001
0000
0000
0000
0100
1000
0100
1000
0001
0010
0001
0010
0100
1000
0100
1000
,
0001
0000
0001
0010
1000
0010
0001
0000
,
1001
0000
0000
0000
1000
0100
1000
0100
0010
0001
0010
0001
1000
0100
1000
0100
,
0010
0001
0010
0001
1000
0100
1000
0100
0010
0001
0010
0001
2000
0000
3000
0000
,
1001
0000
0000
0000
0001
0100
0001
0100
0010
1000
0010
1000
0001
0100
0001
0100
,
0010
0000
0000
0000
1001
0000
1000
0000
0001
0010
0100
1000
0001
0000
0000
0000
,
0110
0000
0000
0000
2000
0000
0000
0000
3001
0000
0001
0100
0001
0000
0001
0000
,
1000
0000
1000
0010
1000
0000
1000
0000
0001
0100
0001
0100
0010
1000
0001
0100
,
0010
0000
1010
0000
1000
0100
0110
0000
,
1001
0000
0001
0100
1000
0100
0001
0000
,
0110
0000
0000
0000
0002
0000
0000
0000
1003
0000
1000
0010
1000
0000
1000
0000
,
0001
0000
0001
0100
0001
0000
0001
0000
1000
0010
1000
0010
0100
0001
1000
0010
,
0100
0000
0101
0000
0001
0010
0110
0000
,
1001
0000
1000
0010
0001
0010
1000
0000
,
1010
0000
0000
0010
1000
0000
0100
0000
1100
0000
0000
0100
1000
0000
0001
0000
,
0011
0000
0000
0010
0001
0000
0100
0000
0101
0000
0000
0100
0001
0000
0000
0000
,
1000
0100
0010
0001
1000
0100
0010
0001
1000
0100
0010
0001
1000
0100
0010
0001
,
1000
0000
0000
0000
0000
0000
0000
0000
0001
1000
0000
1000
0001
0000
0000
0000
,
1000
0000
0010
0100
0001
0000
0010
0100
1000
0001
0000
0001
1000
0000
0000
0000
,
0001
0000
0100
0010
1000
0000
0100
0010
0002
0000
0023
0000
0230
0000
2300
0000
,
3001
0000
1000
0001
0010
0000
0001
1000
0010
1000
0000
1000
0001
0000
0000
0000
,
1000
0000
0001
1000
0010
0000
1000
0001
0010
0000
0000
0000
0110
0000
0000
0000
,
0001
0000
0100
0010
1000
0000
0100
0010
0001
1000
0000
1000
0001
0000
0000
0000
,
1000
0000
0010
0100
0001
0000
0010
0100
2000
0000
3200
0000
0320
0000
0032
0000
,
1003
0000
0001
1000
0100
0000
1000
0001
0100
0001
0000
0001
1000
0000
0000
0000
,
0001
0000
1000
0001
0100
0000
0001
1000
0100
0000
0000
0000
0110
0000
0000
0000
,
1000
0000
0001
0010
0001
0000
0100
0010
0000
0010
1000
0000
0001
0000
0100
0000
,
0010
0000
1000
0001
0100
0000
0010
1000
0020
0000
2030
0000
3200
0000
0320
0000
,
0031
0000
0010
0100
1000
0000
0001
0100
0000
0100
0010
0000
1000
0000
0010
0000
,
0100
0000
0001
0010
0100
0000
0010
0001
0100
0000
0000
0000
0110
0000
0000
0000
,
0001
0000
1000
0100
1000
0000
0010
0100
0000
0100
0001
0000
1000
0000
0010
0000
,
0100
0000
0001
1000
0010
0000
0100
0001
0200
0000
0302
0000
0023
0000
0230
0000
,
1300
0000
0100
0010
0001
0000
1000
0010
0000
0010
0100
0000
0001
0000
0100
0000
,
0010
0000
1000
0100
0010
0000
0100
1000
0010
0000
0000
0000
0110
0000
0000
0000
,
1000
0010
1000
0010
0100
0010
1000
0010
0000
0010
1000
0000
0001
0000
1000
0000
,
0001
0010
0001
0010
0100
0010
0001
0010
0000
0000
0000
0000
0000
0000
0000
0000
,
1000
0100
1000
0100
0010
0100
1000
0100
0000
0100
1000
0000
0001
0000
1000
0000
,
2002
0000
3003
1001
,
0001
0000
0010
0001
0100
0000
0010
1000
0100
0000
0010
0001
0100
0000
0010
1000
,
0100
0000
0001
0100
1000
0000
0001
0100
0010
1000
0000
1000
0001
0000
0000
0000
,
1000
0000
0010
1000
0100
0000
0010
0001
0100
0000
0010
1000
0100
0000
0010
0001
,
0100
0000
1000
0100
0001
0000
1000
0100
0010
0001
0000
0001
1000
0000
0000
0000
,
0001
0000
0100
0001
0010
0000
0100
1000
0010
0000
0100
0001
0010
0000
0100
1000
,
0010
0000
0001
0010
1000
0000
0001
0010
0100
1000
0000
1000
0001
0000
0000
0000
,
1000
0000
0100
1000
0010
0000
0100
0001
0010
0000
0100
1000
0010
0000
0100
0001
,
0020
2030
3020
0032
0023
2030
3010
0000
,
0001
0000
0100
0001
0010
0000
0100
0010
0001
0000
0100
0001
0010
0000
0100
0010
,
0001
0000
0100
0001
0010
0000
0100
0010
0001
0100
0000
0100
0010
0000
0000
0000
,
1000
0000
0100
1000
0010
0000
0100
0010
1000
0000
0100
1000
0010
0000
0100
0010
,
1000
0000
0100
1000
0010
0000
0100
0010
1000
0100
0000
0100
0010
0000
0000
0000
,
0001
0010
0001
0010
0100
1000
0100
1000
0001
0100
0010
1000
0010
0100
0001
0000
,
1000
0010
1000
0010
0100
0001
0100
0001
1000
0100
0010
0001
0010
0000
0000
0000
,
0001
0010
0100
1000
0001
0010
0100
0010
0001
0100
0010
1000
0001
0100
0010
0100
,
0001
0000
0010
0001
1000
0000
0100
1000
0001
0100
0010
1000
0100
0000
0000
0000
,
0110
0000
0000
0000
,
0000
0000
0000
0000
;
#NOTES:
     dance-double:
     :
     Easy:
     7:
     :
00000000
00000000
00000000
00000000
,
00000000
00000000
00000000
00000000
,
00000000
00000000
00000000
00000000
,
00000000
00000000
00000000
00000000
,
00000000
00000000
00000000
00000000
,
00000000
00000000
00000000
00000000
,
10000000
00100000
01000000
01000000
,
00010000
00100000
00001000
00001000
,
00010000
00000000
00000010
00000000
00001000
00000100
00001000
00000000
,
00001001
00000000
00000000
00000000
,
00001001
00000000
00000001
00000000
00000100
00000010
00000100
00000000
,
00001000
00010000
00001000
00000000
,
00011000
00000000
00010000
00000000
00100000
01000000
00100000
00000000
,
10000000
10000000
00010000
00000000
,
10010000
00000000
10000000
00000000
00100000
01000000
00100000
00000000
,
00010000
00001000
00010000
00000000
,
00011000
00000000
00001000
00000000
00000100
00000010
00000100
00000000
,
00000001
00000001
00001000
00000000
,
00000002
00000000
00000013
00000000
,
00000001
00001000
00000100
00000000
,
00020000
00000000
00031000
00000000
,
00010000
00001000
00011000
00000000
,
00002000
00000000
00103000
00000000
,
00100000
00010000
01000000
00000000
,
00200000
00000000
10300000
00000000
,
10010000
00000000
00000000
00000000
,
10000000
01000000
10000000
01000000
,
00100000
00010000
00100000
00000000
,
00010000
00100000
00001000
00010000
,
00011000
00000000
00000000
00000000
,
00010000
00001000
00010000
00001000
,
00000010
00000100
00000010
00000000
,
00000001
00000100
00001000
00000100
,
00000001
00000000
00001001
00000000
,
00000001
00000100
00000001
00000100
,
00001000
00010000
00001000
00000000
,
00010000
00100000
01000000
00100000
,
10000000
00000000
10010000
00000000
,
10000000
00000000
01000000
00000000
00100000
00001000
00100000
00000000
,
00001000
00010000
00011000
00000000
,
00001000
00000000
00010000
00000000
00000100
00001000
00000100
00000000
,
00000010
00000010
00000010
00000000
,
00000001
00000000
00000100
00000000
00000010
00010000
00000010
00000000
,
00010000
00001000
00011000
00000000
,
00010000
00000000
00001000
00000000
01000000
00010000
01000000
00000000
,
00100000
00100000
00100000
00000000
,
10000000
00100000
00010000
00100000
,
10000000
00010000
10000000
00000000
,
10000000
01000000
00010000
00001000
,
00011000
00000000
00000000
00000000
,
00010000
00000100
00001000
00000010
,
00001000
00000100
00010000
00000000
,
00001000
00100000
00010000
01000000
,
00010000
00100000
00001000
00000000
,
00010000
00001000
00000010
00000001
,
00001000
00000100
00000010
00000000
00000001
00000000
00000000
00000000
,
00000001
00000100
00001000
00010000
,
00001000
00001000
00011000
00000000
,
00010000
00001000
00010000
00000000
00001000
00000000
01000000
00000000
,
00010000
00100000
00010000
00000000
01000000
00000000
00000000
00000000
,
00010000
10000000
00010000
00000000
10000000
00000000
01000000
00000000
,
00100000
00001000
00010000
00000000
00001000
00000000
00000000
00000000
,
00010000
00000010
00001000
00000000
00000010
00000000
00000100
00000000
,
00000001
00001000
00000001
00000000
00001001
00000000
00000000
00000000
,
00001000
00000001
00000010
00000000
00000100
00000000
00010000
00000000
,
00001000
00100000
00010000
00000000
01000000
00000000
00000000
00000000
,
01100000
00000000
00000000
00000000
,
00000000
00000000
00000000
00000000
;
#NOTES:
     dance-double:
     :
     Medium:
     12:
     :
00000000
00000000
00000000
00000000
,
00000000
00000000
00000000
00000000
,
00000000
00000000
00000000
00000000
,
00000000
00000000
00000000
00000000
,
00000000
00000000
00000000
00000000
,
00000000
00000000
00000000
00000000
,
10000000
01000000
10000000
01000000
00100000
00010000
00100000
00000000
,
00001000
00010000
00001000
00010000
00000100
00001000
00000100
00000000
,
00001000
00000100
00000010
00000001
00001000
00000100
00000010
00000001
,
00001001
00000000
00000000
00000000
00000000
00000000
00000000
00000000
00001000
00000001
00001000
00000001
00001000
00000000
00000000
00000000
,
00001001
00000000
00000001
00000100
00000001
00000100
00001000
00010000
,
00001000
00010000
00100000
10000000
00100000
10000000
00020000
00000000
,
10030000
00000000
10000000
01000000
00100000
00010000
00100000
01000000
,
10000000
00000000
00010000
01000000
10000000
01000000
00010000
00000000
,
10010000
00000000
10000000
01000000
10000000
01000000
00010000
00001000
,
00010000
00001000
00000010
00000001
00000010
00000001
00002000
00000000
,
00003001
00000000
00000001
00000100
00000010
00001000
00000010
00000100
,
00000001
00000000
00001000
00000100
00000001
00000100
00001000
00000000
,
00001001
00000000
00000002
00000000
00001003
00000100
00002000
00000000
,
00003010
00010000
00002000
00000000
00013000
00000000
00011000
00000000
,
00001000
00000000
00011000
00000000
00010000
01000000
00010000
00000000
,
01000000
00000000
01000000
10000000
00100000
01000000
00010000
00000000
,
10010000
00000000
20000000
00000000
30010000
01000000
00020000
00000000
,
00130000
00001000
00020000
00000000
00031000
00000000
00011000
00000000
,
00010000
00000000
00011000
00000000
00001000
00000100
00001000
00000000
,
00000100
00000000
00000100
00000001
00000010
00000100
00001000
00000000
,
00000001
00000100
00000001
00000100
00000010
00001000
00000010
00001000
,
00000100
00010000
00001000
00010000
00000100
00010000
00001000
00000000
,
00010000
00001000
00100000
00010000
01000000
00100000
10000000
01000000
,
10000000
00000000
00100000
10010000
,
10000000
00000000
01000000
00000000
00100000
00000000
00010000
00000000
01000000
00100000
00000000
01000000
00100000
00000000
00000000
00000000
,
10000000
01000000
00010000
01000000
00010000
00001000
00010000
00000000
,
00001000
00000000
00010000
00000000
00001000
00000000
00000010
00000000
00000100
00000010
00000000
00000100
00000010
00000000
00000000
00000000
,
00000001
00001000
00000100
00000001
00000200
00000000
00001300
00000000
,
00000001
00000000
00000100
00000000
00000010
00000000
00001000
00000000
00000100
00000010
00000000
00000100
00000010
00000000
00000000
00000000
,
00000001
00000100
00001000
00000100
00001000
00010000
00001000
00000000
,
00010000
00000000
00001000
00000000
00010000
00000000
00100000
00000000
01000000
00100000
00000000
01000000
00100000
00000000
00000000
00000000
,
10000000
00010000
01000000
10000000
02000000
00000000
03010000
00000000
,
10000000
00000000
00100000
00000000
01000000
00000000
00010000
00100000
00000000
00010000
01000000
00000000
00010000
00000000
00100000
00000000
,
00001000
00010000
00001000
00010000
00000200
00002300
00003020
00000230
,
00000301
00000000
00000010
00000000
00000100
00000000
00001000
00000010
00000000
00001000
00000100
00000000
00000010
00000000
00000001
00000000
,
00000100
00000001
00001000
00000010
00000100
00000000
00001001
00000000
,
00000001
00000000
00000010
00000000
00000100
00000000
00001000
00000010
00000000
00001000
00000100
00000000
00001000
00000000
00000010
00000000
,
00010000
00001000
00010000
00001000
02000000
03020000
00230000
02300000
,
13000000
00000000
00100000
00000000
01000000
00000000
00010000
00100000
00000000
00010000
01000000
00000000
00100000
00000000
10000000
00000000
,
01000000
10000000
00010000
00100000
01000000
00000000
10010000
00000000
,
10000000
00000000
01000000
00000000
00010000
00000000
00001000
00010000
00000000
00010000
00001000
00000000
00010000
00000000
00100000
00000000
,
10000000
00000000
01000000
00000000
00010000
00000000
00001000
00010000
00000000
00000000
00000000
00000000
00000000
00000000
00000000
00000000
,
00010000
00000000
00001000
00000000
00000010
00000000
00000001
00001000
00000000
00001000
00000001
00000000
00000100
00000000
00001000
00000000
,
00020000
00000000
00000000
00030000
,
00001000
00010000
00100000
01000000
00100000
00010000
00001000
00010000
,
01000000
00100000
01000000
00010000
00001000
00000000
00011000
00000000
,
00010000
00001000
00000010
00000100
00000010
00001000
00010000
00001000
,
00000100
00000010
00000100
00001000
00010000
00000000
00011000
00000000
,
00001000
00010000
01000000
00100000
01000000
00010000
00001000
00010000
,
00100000
01000000
00100000
00010000
00001000
00000000
00011000
00000000
,
00010000
00001000
00000100
00000010
00000100
00001000
00010000
00001000
,
00000010
00000100
00000010
00001000
00010000
00000000
00011000
00000000
,
00001000
00100000
00010000
01000000
00100000
01000000
00010000
00100000
,
01000000
10000000
01000000
00010000
01000000
10000000
00010000
00000000
,
10000000
00100000
01000000
00010000
10000000
01000000
00100000
00010000
,
00100000
00001000
00010000
00001000
01000000
00001000
00010000
00000000
,
00010000
00000100
00001000
00000010
00000100
00000010
00001000
00000100
,
00000010
00000001
00000010
00001000
00000010
00000001
00001000
00000000
,
00000001
00000100
00000010
00001000
00000001
00000010
00000100
00001000
,
00000100
00010000
00001000
00010000
00000010
00010000
00001000
00000000
,
00011000
00000000
00000000
00000000
,
00000000
00000000
00000000
00000000
;
#NOTES:
     dance-double:
     :
     Hard:
     16:
     :
00000000
00000000
00000000
00000000
,
00000000
00000000
00000000
00000000
,
00000000
00000000
00000000
00000000
,
00000000
00000000
00000000
00000000
,
00000000
00000000
00000000
00000000
,
00000000
00000000
00000000
00000000
,
10000000
00000000
10000000
00000000
00100000
00000000
00100000
00000000
01000000
00000000
01000000
00000000
00010000
01000000
00010000
01000000
,
00010000
00000000
00010000
00000000
00100000
00000000
00100000
00000000
00001000
00000000
00001000
00000000
00010000
00001000
00010000
00001000
,
00010000
00000000
00000010
00001000
00000010
00000000
00001000
00000100
00001000
00000000
00000001
00000010
00000001
00000000
00001000
00000001
,
00001000
00000000
00000000
00000000
00000000
00000000
00000000
00000000
00000001
00000010
00000100
00001000
00000001
00000000
00000000
00000000
,
00001001
00000000
00000000
00000000
00000001
00000100
00000001
00000100
00000010
00000100
00000010
00000100
00001000
00000100
00001000
00000100
,
00000010
00000100
00000010
00000100
00000010
00010000
00000010
00010000
00001000
00010000
00001000
00010000
00001000
00000000
00000000
00000000
,
00011000
00000000
00000000
00000000
00010000
00001000
00100000
00000000
00010000
01000000
00100000
00000000
00010000
00001000
00100000
00000000
,
00010000
00000000
00010000
01000000
10000000
01000000
00010000
00000000
,
10010000
00000000
00000000
00000000
10000000
01000000
10000000
01000000
00100000
01000000
00100000
01000000
00010000
01000000
00010000
01000000
,
00100000
01000000
00100000
01000000
00100000
00001000
00100000
00001000
00010000
00001000
00010000
00001000
00010000
00000000
00000000
00000000
,
00011000
00000000
00000000
00000000
00001000
00010000
00000010
00000000
00001000
00000100
00000010
00000000
00001000
00010000
00000010
00000000
,
00001000
00000000
00000000
00000000
00001000
00000000
00000100
00000000
00000001
00000100
00000001
00000100
00001000
00000000
00000000
00000000
,
00000110
00000000
00000000
00000000
00000002
00000000
00000000
00000000
00001003
00000000
00001000
00000100
00002000
00000000
00000000
00000000
,
00003010
00000000
00010000
00001000
00010000
00000000
00001000
00000000
00011000
00000000
00000000
00000000
00010000
00001000
00100000
00010000
,
10000000
00000000
10010000
00000000
10000000
00100000
00010000
00001000
,
00010000
00000000
00001000
00010000
01000000
10000000
01000000
00000000
,
01100000
00000000
00000000
00000000
20000000
00000000
00000000
00000000
30010000
00000000
00010000
00100000
00020000
00000000
00000000
00000000
,
01030000
00000000
00001000
00010000
00001000
00000000
00010000
00000000
00011000
00000000
00000000
00000000
00001000
00010000
00000100
00001000
,
00000001
00000000
00001001
00000000
00000001
00000100
00001000
00010000
,
00001000
00000000
00010000
00001000
00000010
00000001
00000010
00000000
,
00000001
00000000
00000100
00000010
00000100
00000000
00001000
00000000
00010000
00000000
00001000
00010000
00001000
00000000
00010000
00000000
,
00100000
00000000
01000000
00100000
01000000
00000000
00010000
00000000
10000000
00000000
00010000
10000000
00010000
00000000
00000000
00000000
,
10000000
01000000
10000000
01000000
00100000
00010000
00100000
00010000
00001000
00000100
00001000
00000100
00000010
00000001
00000010
00000001
,
00001000
00000000
00000000
00000000
00000000
00000000
00000000
00000000
00000001
00001000
00000000
00001000
00000001
00000000
00000000
00000000
,
00000001
00000000
00000100
00000010
00001000
00000000
00000100
00000010
00000001
00001000
00000000
00001000
00000001
00000000
00000000
00000000
,
00000001
00000000
00000100
00001000
00000100
00000000
00001000
00010000
00002000
00000000
00023000
00000000
00230000
00000000
20300000
00000000
,
30010000
00000000
01000000
00010000
00100000
00000000
01000000
10000000
00100000
10000000
00000000
10000000
00010000
00000000
00000000
00000000
,
00100000
00000000
00001000
00010000
00001000
00000000
00100000
00010000
01000000
00000000
00000000
00000000
01100000
00000000
00000000
00000000
,
10000000
00000000
00100000
01000000
00010000
00000000
00100000
01000000
10000000
00010000
00000000
00010000
10000000
00000000
00000000
00000000
,
10000000
00000000
00100000
00010000
00100000
00000000
00010000
00001000
00020000
00000000
00032000
00000000
00003200
00000000
00000302
00000000
,
00001003
00000000
00000010
00001000
00000100
00000000
00000010
00000001
00000100
00000001
00000000
00000001
00001000
00000000
00000000
00000000
,
00000100
00000000
00010000
00001000
00010000
00000000
00000100
00001000
00000010
00000000
00000000
00000000
00000110
00000000
00000000
00000000
,
00000001
00000000
00000010
00001000
00000010
00000000
00000001
00000100
00000000
00000100
00001000
00000000
00010000
00001000
00010000
00000000
,
00100000
00000000
01000000
00100000
01000000
00000000
00010000
10000000
00020000
00000000
00230000
00000000
20300000
00000000
30200000
00000000
,
00310000
00000000
01000000
00001000
01000000
00000000
00001000
00010000
00000000
00010000
01000000
00000000
00100000
00000000
00010000
00000000
,
01000000
00000000
00100000
10000000
00100000
00000000
01000000
00010000
01000000
00000000
00000000
00000000
10010000
00000000
00000000
00000000
,
10000000
00000000
00100000
00010000
00100000
00000000
10000000
01000000
00000000
01000000
00010000
00000000
00001000
00010000
00001000
00000000
,
00000010
00000000
00000100
00000010
00000100
00000000
00001000
00000001
00002000
00000000
00003020
00000000
00000032
00000000
00000023
00000000
,
00001030
00000000
00000100
00010000
00000100
00000000
00010000
00001000
00000000
00001000
00000100
00000000
00000010
00000000
00001000
00000000
,
00000100
00000000
00000010
00000001
00000010
00000000
00000100
00001000
00000100
00000000
00000000
00000000
00001001
00000000
00000000
00000000
,
00000001
00000100
00000001
00000100
00000010
00000100
00000001
00000100
00000000
00000100
00000010
00000000
00001000
00000000
00000010
00000000
,
00010000
00001000
00010000
00000100
00010000
00001000
00010000
00000100
00000000
00000000
00000000
00000000
00000000
00000000
00000000
00000000
,
00010000
00001000
00010000
00001000
00100000
00010000
00100000
00001000
00000000
00001000
00010000
00000000
00100000
01000000
00100000
00000000
,
02200000
00000000
03300000
01100000
,
10000000
00000000
00010000
10000000
01000000
00000000
10000000
00010000
01000000
00000000
00100000
00000000
10000000
00000000
01000000
00000000
,
00100000
00001000
00100000
00001000
00010000
00000000
00001000
00000000
00000010
00000100
00001000
00000100
00000010
00000000
00000000
00000000
,
00000001
00000000
00001000
00000001
00000100
00000000
00000001
00001000
00000100
00000000
00000010
00000000
00000001
00000000
00000100
00000000
,
00000010
00010000
00000010
00010000
00001000
00000000
00010000
00000000
00100000
01000000
00010000
01000000
00100000
00000000
00000000
00000000
,
10000000
00000000
00010000
00100000
00010000
00000000
00100000
10000000
00100000
00000000
00010000
00100000
00010000
00000000
01000000
00000000
,
00001000
00010000
00000100
00000000
00010000
00001000
01000000
00000000
00001000
00010000
00000010
00001000
00000001
00000000
00000000
00000000
,
00000001
00000000
00001000
00000100
00001000
00000000
00000001
00000100
00000001
00000000
00000010
00000001
00000010
00000000
00000100
00000000
,
00020000
00032000
00023000
00230000
00320000
00032000
00013000
00000000
,
00001000
01000000
00001000
01000000
00010000
00000000
00100000
00000000
01000000
00100000
01000000
00100000
00001000
00000000
00010000
00000000
,
00100000
01000000
00010000
00000000
00100000
01000000
00010000
00000000
01000000
00100000
00001000
00010000
00001000
00000000
00000000
00000000
,
00010000
00000100
00010000
00000100
00001000
00000000
00000010
00000000
00000100
00000010
00000100
00000010
00010000
00000000
00001000
00000000
,
00000010
00000100
00001000
00000000
00000010
00000100
00001000
00000000
00000100
00000010
00010000
00001000
00010000
00000000
00000000
00000000
,
00001000
00010000
00001000
00010000
00000010
00001000
00000010
00001000
00000001
00000100
00000010
00001000
00000001
00000000
00000000
00000000
,
00000010
00000001
00000010
00000001
00001000
00000100
00001000
00000100
00001000
00000010
00010000
00001000
00010000
00000000
00000000
00000000
,
00001000
01000000
00010000
01000000
00010000
00100000
01000000
10000000
00100000
10000000
01000000
00100000
01000000
00100000
00010000
00100000
,
00001000
00000000
00010000
00000100
00001000
00000000
00000010
00000100
00000010
00010000
00001000
00010000
00001000
00000000
00000000
00000000
,
00011000
00000000
00000000
00000000
,
00000000
00000000
00000000
00000000
;
