
//----- song ID: jube -----//
#TITLE:JUST BELIEVE;
#ARTIST:Lea Drop feat.Marissa Ship;
#BANNER:JUST BELIEVE.png;
#BACKGROUND:JUST BELIEVE-bg.png;
#CDTITLE:./CDTitles/DDR HOTTEST PARTY2.png;
#MUSIC:JUST BELIEVE.ogg;
#SAMPLESTART:39;
#SAMPLELENGTH:15;
#BPMS:0=160;
#STAGE:4;
#NOTES:
     dance-single:
     :
     Beginner:
     2:
     :
0000
0000
0000
0000
,
0000
0000
0000
0000
,
0000
0000
0000
0000
,
0000
0000
0000
0000
,
0000
0000
0000
0000
,
0000
0000
0000
0000
,
0001
0000
0000
0000
,
0001
0000
0000
0000
,
0010
0000
0000
0000
,
0000
0000
0000
0000
,
0001
0000
0000
0000
,
0100
0000
0000
0000
,
0001
0000
0000
0000
,
0000
0000
0000
0000
,
0001
0000
0000
0000
,
0010
0000
0000
0000
,
0010
0000
0000
0000
,
0000
0000
0000
0000
,
1000
0000
0000
0000
,
0100
0000
0000
0000
,
1000
0000
0000
0000
,
0000
0000
0000
0000
,
1000
0000
0000
0000
,
1000
0000
0000
0000
,
0010
0000
0000
0000
,
0000
0000
0000
0000
,
1000
0000
0000
0000
,
0100
0000
0000
0000
,
0010
0000
0000
0000
,
0001
0000
0000
0000
,
0001
0000
0000
0000
,
0100
0000
0000
0000
,
0010
0000
0000
0000
,
1000
0000
0000
0000
,
2000
0000
0000
0000
,
3000
0000
0000
0000
,
1000
0000
0000
0000
,
0000
0000
0000
0000
,
0002
0000
0000
0000
,
0003
0000
0000
0000
,
0001
0000
0000
0000
,
0000
0000
0000
0000
,
1001
0000
0000
0000
,
0000
0000
0000
0000
,
1001
0000
0000
0000
,
0000
0000
0000
0000
,
0001
0000
0000
0000
,
0001
0000
0000
0000
,
0010
0000
0000
0000
,
0000
0000
0000
0000
,
0100
0000
0000
0000
,
0100
0000
0000
0000
,
1000
0000
0000
0000
,
0000
0000
0000
0000
,
1000
0000
0000
0000
,
1000
0000
0000
0000
,
0010
0000
0000
0000
,
0000
0000
0000
0000
,
0010
0000
0010
0000
,
0001
0000
0000
0000
,
0100
0000
0000
0000
,
0000
0000
0000
0000
,
0001
0000
0001
0000
,
0010
0000
0000
0000
,
1000
0000
0000
0000
,
1000
0000
0000
0000
,
1000
0000
0000
0000
,
0000
0000
0000
0000
;
#NOTES:
     dance-single:
     :
     Easy:
     7:
     :
0000
0000
0000
0000
,
0000
0000
0000
0000
,
0000
0000
0000
0000
,
0000
0000
0000
0000
,
0000
0000
0000
0000
,
0000
0000
0000
0000
,
1000
0100
1000
0100
,
0010
0001
0010
0001
,
2000
0000
0000
3000
,
0001
0001
1000
1000
,
0001
0100
0001
0010
,
0001
1000
0001
0000
,
1000
0100
1000
0010
,
1000
0001
1000
0000
,
0001
0100
0010
1000
,
0010
0100
0001
0000
,
1000
0100
0010
0001
,
0010
0100
1000
0000
,
0001
0000
0100
0000
0001
1000
0001
0000
,
1000
0100
1000
0000
,
0001
0010
0100
1000
,
0001
0100
0110
0000
,
1000
0000
0010
0000
1000
0001
1000
0000
,
0100
0010
0001
0000
,
1000
0010
0100
0001
,
1000
0001
1001
0000
,
0110
0000
1001
0000
,
1000
0010
0100
0001
,
0010
0000
0000
1001
0000
0000
0000
0000
,
0100
0000
0000
1001
0000
0000
0000
0000
,
0110
0000
1001
0000
,
0001
0100
0010
1000
,
0100
0000
0000
0000
,
0220
0000
0000
0330
,
0001
1000
0010
0100
,
0010
1000
0001
0010
,
0100
1000
0100
1000
,
0001
0100
0001
0000
,
1000
0001
0100
0010
,
0100
0001
1000
0100
,
0010
0001
0010
0001
,
1000
0010
1000
0000
,
0002
0000
0000
0003
,
0200
0000
0000
0300
,
0020
0000
0000
0030
,
2000
0000
0000
3000
,
1000
0000
1000
0000
,
0100
0000
0100
0000
,
0010
0000
0010
0000
,
0002
0000
0000
0003
,
0001
1000
0010
0100
,
0001
1000
0100
0010
,
0001
0100
1000
0000
,
1000
0100
0001
0000
,
1000
0001
0010
0100
,
1000
0001
0100
0010
,
1000
0100
0001
0000
,
0001
0100
1000
0000
,
0001
0010
0001
1000
,
0100
1000
0100
0000
,
1000
0010
1000
0001
,
0100
0001
0100
0000
,
0001
1000
0100
1000
,
0001
1000
0010
1000
,
0001
0000
0000
0001
,
0100
0010
0100
0010
,
2000
0000
0000
0000
,
0000
0000
0000
0000
,
3000
0000
0000
0000
,
0000
0000
0000
0000
;
#NOTES:
     dance-single:
     :
     Medium:
     10:
     :
0000
0000
0000
0000
,
0000
0000
0000
0000
,
0000
0000
0000
0000
,
0000
0000
0000
0000
,
0000
0000
0000
0000
,
0000
0000
0000
0000
,
1000
0100
0010
0000
0001
0010
0100
0000
,
1000
0010
1000
0001
0100
0001
0010
0000
,
0002
0000
0000
0003
,
0001
1000
0001
1001
,
1000
0010
1000
0010
0000
0000
0100
0000
,
0001
1000
0000
2002
0000
0000
3003
0000
,
0001
0010
0001
0010
0000
0100
0000
1000
,
0000
0001
1000
0001
0000
1001
0000
0000
,
1000
0100
1000
0100
0000
0000
0010
0000
,
0001
1000
0000
2002
0000
0000
3003
0000
,
0001
0100
0001
0100
0000
0010
0000
1000
,
0000
0001
0000
2002
0000
0000
3003
0000
,
0000
0001
0100
0001
0010
0000
0100
0000
,
0010
0001
1000
0001
0100
0000
1001
0000
,
0000
1000
0010
0000
0100
0000
0001
1000
,
0000
0001
0100
0001
1000
0000
0110
0000
,
0000
0001
1000
0000
0100
0000
0010
0001
,
0000
0010
0000
0100
0010
0000
0001
0000
,
0000
1000
0001
1000
0001
0010
0001
0010
,
0000
0001
1000
0000
0110
0000
1001
0000
,
0001
0010
0100
1000
0001
0010
0100
0000
,
1000
0100
0010
0001
1000
0100
0010
0000
,
0001
0100
0000
0010
0000
0000
1000
0001
,
1000
0100
0000
0010
0000
0000
0000
0000
,
0101
0000
1100
0000
0001
1000
0001
0000
,
1000
0010
0100
0001
0000
1000
0001
0000
,
1001
0000
0000
0000
0000
0000
0001
0010
,
0000
0010
0100
0000
1000
0001
1000
0000
,
0001
0100
0010
0000
1000
0001
0010
0001
,
0000
1000
0100
0010
0100
1000
0010
0000
,
0100
0001
0000
0100
0000
0000
0000
0000
,
0010
1000
0000
0010
0000
0000
0000
0000
,
1000
1010
0001
0011
,
1000
0010
0100
0001
0000
0010
0100
0000
,
0110
0000
0000
0000
0000
1000
0000
0001
,
0000
0001
0100
0100
,
0002
0000
0023
0000
,
0230
0000
2300
0000
,
3020
0000
0230
0000
,
0302
0000
0003
0000
,
0001
0010
0000
0010
0100
0000
,
0100
1000
0000
1000
0001
0000
,
0100
0000
0010
0000
,
0220
0000
0000
0330
,
1000
0001
0010
0000
0001
1000
0010
0000
,
1000
0001
0100
0010
0000
1001
0000
0000
,
1000
0100
0000
0001
0000
0000
0100
0000
,
1000
0010
0000
0001
0000
0000
0000
0000
,
1000
0001
0100
0000
0001
1000
0100
0000
,
1000
0001
0010
0100
0000
1001
0000
0000
,
0001
0010
0000
1000
0000
0010
0000
0001
,
0000
0100
0000
0000
0001
1000
0001
0000
,
0000
0000
0001
0100
0010
1000
0100
0010
,
0000
0001
0100
0001
0000
1000
0001
0000
,
1000
0100
0000
1000
0000
0000
0110
0000
,
0001
0100
0000
0001
0000
0000
0110
0000
,
1000
0001
0010
0000
0001
1000
0010
0000
,
1000
0000
0001
0100
0000
0001
0010
0000
,
0110
0000
0000
0000
0000
1000
0000
0001
,
0000
0100
0010
0000
1000
0000
0001
2000
,
0000
0000
0000
0000
,
0000
0000
0000
0000
,
3000
0000
0000
0000
,
0000
0000
0000
0000
;
#NOTES:
     dance-single:
     :
     Hard:
     14:
     :
0000
0000
0000
0000
,
0000
0000
0000
0000
,
0000
0000
0000
0000
,
0000
0000
0000
0000
,
0000
0000
0000
0000
,
0000
0000
0000
0000
,
0010
1001
0100
1001
,
1000
0100
0010
0001
1000
0001
0010
0100
,
2000
0000
0010
0000
0001
0000
3100
1000
,
0100
1100
0101
1001
,
0001
0010
0001
0100
0000
0000
0001
1000
,
0100
0001
0000
0220
0000
0000
0330
0000
,
1000
0010
1000
0100
0000
1000
0000
0001
,
0000
0100
1000
0200
0000
0010
0310
0000
,
0001
0100
0001
0010
0000
0000
0001
1000
,
0010
0001
0000
0220
0000
0000
0330
0000
,
1000
0100
1000
0010
0000
1000
0000
0001
,
0000
0010
1000
0020
0000
0100
0130
0000
,
1000
0000
0010
0100
0001
0000
1000
0000
0100
0000
0010
0000
0100
0000
1000
0000
,
0001
0000
0010
0100
1000
0000
0001
0000
0100
0000
0010
0000
0100
0000
0000
0000
,
0001
0000
1000
0001
0010
0000
0100
0000
1000
0000
0001
1000
0100
0000
0010
0000
,
0000
0000
0001
1000
0001
0000
0100
0000
0010
0000
1000
0000
0001
0000
0000
0000
,
1000
0000
0100
0010
0001
0000
1000
0000
0010
0000
0100
0000
0010
0000
1000
0000
,
0001
0000
0100
0010
1000
0000
0001
0000
0010
0000
0100
0000
0010
0000
0000
0000
,
0001
1000
0100
0010
0001
1000
0100
0020
,
0000
0031
0101
1010
,
1000
0000
0001
0010
0001
0000
1000
0010
1000
0000
0001
0010
0001
0000
0000
0000
,
1000
0000
0010
0100
0010
0000
1000
0000
0100
0010
0001
0010
0001
0000
0000
0000
,
1000
0010
0000
0002
0000
0000
0013
1000
,
0001
0100
0000
2000
0000
0000
3000
0000
,
0101
0000
1010
0000
1000
0100
0011
0000
,
0001
0000
0100
0010
0100
0000
0010
0000
0000
0000
1000
0010
1000
0000
0001
0000
,
0010
0000
0100
1000
0001
0000
1001
0000
0000
0000
0000
0000
1000
0000
0010
0000
,
0000
0000
0010
0000
0100
0001
0100
0000
0001
0000
0000
0000
1001
0000
0000
0000
,
1000
0000
0001
0010
0100
0000
1000
0000
0001
0000
0100
0010
1000
0000
0001
0000
,
0000
0000
1000
0010
0100
0000
0010
1000
0001
1000
0001
0000
1000
0000
0000
0000
,
0001
0100
0000
0220
0000
0330
0010
1000
,
0100
0010
0000
0220
0000
0000
0330
0000
,
0011
1100
1010
0101
,
0001
0010
1000
0001
0100
1000
0001
0000
,
0110
0000
0000
0000
0000
1000
0000
0001
,
0000
0001
0100
0000
0010
0000
1000
0001
,
1000
0100
1000
0001
0010
0001
,
0100
0010
0100
0001
1000
0001
,
0010
0100
1000
0010
0100
0001
,
2000
0000
3001
0000
,
0001
0010
0100
1000
0001
1000
,
0010
0100
0001
1000
0001
1000
,
0001
0000
0100
0000
,
0020
0000
2000
3030
,
1000
0000
0001
0010
0001
0000
0010
0100
0010
0000
0100
1000
0100
0000
1000
0000
,
0000
0001
0100
0001
0000
1000
0100
0000
,
1000
0000
0010
0100
0001
0000
1000
0000
0000
0000
0000
0000
0001
0000
1000
0000
,
0001
0000
0010
0100
1000
0000
0002
0000
0000
0000
0000
0000
0003
0000
0000
0000
,
0001
0000
0010
0001
0010
0000
0100
0010
0100
0000
1000
0100
1000
0000
0001
0000
,
0000
1000
0010
1000
0000
0001
1000
0000
,
0001
0000
1000
0010
0100
0000
0010
0000
0000
0000
1000
0001
0100
0000
0010
0000
,
0000
0000
1000
0001
0010
0000
0000
0000
0100
0000
0010
0000
0100
0000
0000
0000
,
1000
0000
0000
0000
0010
0100
0001
0100
0010
0000
1000
0010
0100
0000
0001
0000
,
0000
0100
1000
0100
0000
0001
1000
0000
,
0001
0010
0001
0000
0100
0000
0010
0000
0000
0000
0010
0000
0100
0000
0010
0000
,
1000
0100
1000
0000
0010
0000
0100
0000
0000
0000
0100
0000
0010
0000
0000
0000
,
1000
0000
0010
0100
0001
0000
0100
0010
1000
0000
0010
0100
0001
0000
0000
0000
,
1000
0100
0010
0001
0000
0001
1000
0000
,
0001
0010
0000
0000
0000
0001
0000
1001
,
0000
1000
0001
0010
0100
0000
1000
0002
,
0000
0000
0000
0000
,
0000
0000
0000
0000
,
0003
0000
0000
0000
,
0000
0000
0000
0000
;
#NOTES:
     dance-double:
     :
     Easy:
     7:
     :
00000000
00000000
00000000
00000000
,
00000000
00000000
00000000
00000000
,
00000000
00000000
00000000
00000000
,
00000000
00000000
00000000
00000000
,
00000000
00000000
00000000
00000000
,
00000000
00000000
00000000
00000000
,
10000000
00100000
10000000
00000000
,
00010000
00100000
00010000
00100000
,
00002000
00000000
00000000
00003000
,
00010000
00010000
00001000
00001000
,
00010000
00000100
00010000
00000000
,
00000100
00001000
00000100
00000000
,
00001000
00000010
00000100
00000001
,
00001000
00000001
00001000
00000000
,
00000001
00000010
00000001
00000000
,
00001000
00000100
00001000
00000000
,
00000010
00001000
00000100
00010000
,
00001000
00010000
00001000
00000000
,
00100000
00000000
00010000
00000000
01000000
00100000
01000000
00000000
,
00100000
10000000
00010000
00000000
,
10000000
01000000
00100000
00001000
,
00010000
00000000
00011000
00000000
,
00001000
00000000
00010000
00000000
00000100
00001000
00000100
00000000
,
00000010
00000001
00001000
00000000
,
00000001
00000100
00000010
00000000
,
00010000
00000000
00011000
00000000
,
00001000
00010000
00100000
00000000
,
00100000
00010000
00001000
00000000
,
01000000
00000000
00000000
00010000
00000000
00000000
00100000
00000000
,
00001000
00000000
00000000
00011000
00000000
00000000
00000000
00000000
,
00010000
00001000
00000010
00000000
,
00000010
00001000
00010000
00000000
,
00001000
00000000
00000010
00000000
,
00000001
00001000
00000001
00000000
,
00000001
00000100
00000001
00000100
,
00000010
00010000
00001000
00000000
,
00010000
00001000
00010000
00001000
,
01000000
00010000
10000000
00000000
,
00010000
10000000
00100000
01000000
,
00010000
10000000
01000000
00100000
,
00001000
00000000
00010000
00000100
,
00001000
00000000
00000010
00000100
,
00000002
00000000
00000000
00000003
,
00002000
00000000
00000000
00003000
,
00000200
00000000
00000000
00000300
,
00020000
00000000
00000000
00030000
,
00001000
00000000
00001000
00000000
,
01000000
00000000
01000000
00000000
,
00010000
00000000
00010000
00000000
,
20000000
00000000
00000000
30000000
,
10000000
01000000
10000000
01000000
,
00010000
00001000
00010000
00000000
,
00001000
00010000
00001000
00000010
,
00000001
00001000
00000001
00000000
,
00000001
00000100
00000001
00000100
,
00001000
00010000
00001000
00000000
,
00010000
00001000
00010000
00100000
,
10000000
00010000
10000000
00000000
,
10010000
00000000
01100000
00000000
,
10000000
00010000
01000000
00001000
,
00020000
00000000
00000000
00030000
,
00002000
00000000
00000000
00003000
,
00001000
00010000
00000010
00010000
,
00001000
00010000
00000100
00001000
,
00000010
00000000
00000000
00000010
,
00000100
00000010
00000100
00000010
,
00000200
00000000
00000000
00000000
,
00000000
00000000
00000000
00000000
,
00000300
00000000
00000000
00000000
,
00000000
00000000
00000000
00000000
;
#NOTES:
     dance-double:
     :
     Medium:
     10:
     :
00000000
00000000
00000000
00000000
,
00000000
00000000
00000000
00000000
,
00000000
00000000
00000000
00000000
,
00000000
00000000
00000000
00000000
,
00000000
00000000
00000000
00000000
,
00000000
00000000
00000000
00000000
,
10000000
00100000
10000000
00000000
00010000
00100000
00010000
00000000
,
10000000
01000000
10000000
01000000
00100000
00010000
00100000
00001000
,
00020000
00000000
00000000
00030000
,
00001000
00010000
00001000
00011000
,
00010000
00000100
00001000
00000100
00000000
00000000
00000010
00000000
,
00000001
00001000
00000000
00002002
00000000
00000000
00003003
00000000
,
00000001
00000100
00000001
00000100
00000000
00000010
00001000
00000010
,
00000000
00010000
00000000
00001000
00000000
00011000
00000000
00000000
,
00001000
00010000
00001000
01000000
00000000
00000000
00010000
00000000
,
00100000
00010000
00000000
20020000
00000000
00000000
30030000
00000000
,
10000000
01000000
10000000
00010000
00000000
00100000
00000000
00001000
,
00000000
00010000
00000000
00022000
00000000
00000000
00033000
00000000
,
00000000
00010000
00000010
00000000
00001000
00000010
00001000
00000000
,
00000100
00000010
00000001
00000000
00000100
00000010
00001000
00000000
,
00000000
00000001
00000100
00000000
00000010
00001000
00000010
00010000
,
00000000
00001000
00000000
00010000
00001000
00000000
00011000
00000000
,
00000000
00001000
00100000
00000000
00010000
00100000
00010000
00000000
,
01000000
00100000
10000000
00000000
01000000
00100000
00010000
00000000
,
00000000
10000000
01000000
00000000
00100000
00010000
00100000
00001000
,
00000000
00010000
00001000
00000000
00010000
00000000
00011000
00000000
,
00010000
00000100
00000010
00000000
00001000
00010000
00000100
00000000
,
00000010
00001000
00010000
00000100
00000010
00001000
00010000
00000000
,
00001000
00000100
00000000
00000001
00000000
00000000
00001000
00000001
,
00000100
00001000
00000000
00010000
00000000
00000000
00000000
00000000
,
00001000
00000000
00011000
00000000
00100000
00001000
00011000
00000000
,
00001000
01000000
00010000
00100000
00000000
00100000
00001000
00000000
,
00011000
00000000
00000000
00000000
00000000
00000000
00010000
00000100
,
00000000
00000100
00001000
00000000
00000010
00010000
00001000
00000000
,
00001000
00100000
01000000
00000000
00010000
00001000
00100000
01000000
,
00000000
00010000
00001000
00100000
01000000
00010000
00001000
00000000
,
00010000
00100000
00000000
10000000
00000000
00000000
00010000
10000000
,
00100000
00010000
00000000
00001000
00000000
00000000
00000000
00000000
,
00010000
00000000
00011000
00000000
00000100
00010000
00011000
00000000
,
00010000
00000010
00001000
00000100
00000000
00000100
00010000
00000000
,
00011000
00000000
00000000
00000000
00000000
00000000
00001000
00100000
,
00000000
00100000
00010000
00000000
01000000
00001000
00010000
00000000
,
00002000
00000000
00003020
00000000
,
00000230
00000000
00020300
00000000
,
00032000
00000000
02003000
00000000
,
03200000
00000000
00300000
00000000
,
00100000
01000000
00000000
01000000
00010000
00000000
,
00010000
00100000
00000000
00100000
00001000
00000000
,
00001000
00000000
00010000
00000000
,
00022000
00000000
00000000
00033000
,
00010000
00000010
00000100
00000000
00000001
00001000
00000100
00000000
,
00000010
00000001
00000010
00001000
00000000
00010000
00001000
00000000
,
00010000
00001000
00000000
01000000
00000000
00000000
10000000
00000000
,
01000000
00010000
00000000
10000000
00000000
00000000
00000000
00000000
,
00010000
10000000
00100000
00000000
10000000
00010000
00100000
00000000
,
00010000
10000000
01000000
00100000
00000000
00001000
00010000
00000000
,
00000010
00001000
00000000
00000100
00000000
00000010
00000000
00000001
,
00000000
00000100
00000000
00000000
00000001
00001000
00000001
00000000
,
00000000
00000000
00000001
00000010
00000100
00010000
00001000
00100000
,
00000000
00010000
01000000
00010000
00000000
10000000
00010000
00000000
,
10000000
01000000
00000000
01100000
00000000
00000000
10000000
01000000
,
00010000
00001000
00000000
00011000
00000000
00000000
00000000
00000000
,
00010000
00000010
00001000
00000000
00000001
00000100
00000010
00000000
,
00001000
00000100
00010000
00000100
00000000
00000100
00010000
00000000
,
00011000
00000000
00000000
00000000
00000000
00001000
00000000
00100000
,
00000000
00010000
01000000
00000000
00100000
00000000
10000000
00020000
,
00000000
00000000
00000000
00000000
,
00000000
00000000
00000000
00000000
,
00030000
00000000
00000000
00000000
,
00000000
00000000
00000000
00000000
;
#NOTES:
     dance-double:
     :
     Hard:
     14:
     :
00000000
00000000
00000000
00000000
,
00000000
00000000
00000000
00000000
,
00000000
00000000
00000000
00000000
,
00000000
00000000
00000000
00000000
,
00000000
00000000
00000000
00000000
,
00000000
00000000
00000000
00000000
,
00000000
01100000
00000000
10010000
,
10000000
01000000
00100000
00010000
00001000
00000100
00000010
00000001
,
00002000
00000000
00000000
00003000
,
00000001
00000100
00000010
00000000
00001000
00000100
00000010
00000000
,
00000001
00000100
00010000
00000100
00000000
00000000
00000010
00010000
,
00001000
00010000
00000000
00022000
00000000
00000000
00033000
00000000
,
00001000
01000000
10000000
01000000
00000000
00100000
10000000
00010000
,
00000000
10000000
01000000
00100000
00000000
00010000
10000000
00000000
,
10000000
00100000
00010000
00001000
00000000
00000000
00010000
00001000
,
00000010
00000001
00000000
00002002
00000000
00000000
00003003
00000000
,
00000001
00000100
00001000
00010000
00000000
00001000
00000000
01000000
,
00000000
10000000
01000000
00010000
00000000
00010000
10000000
00000000
,
10000000
01000000
00100000
00010000
01000000
00100000
00010000
00001000
,
00000010
00001000
00010000
00001000
00000100
00000001
00001000
00000000
,
00000001
00000010
00000100
00001000
00000010
00000100
00001000
00010000
,
00100000
00010000
00001000
00010000
01000000
10000000
00010000
00000000
,
10000000
01000000
00010000
00001000
00100000
01000000
00010000
00001000
,
00010000
00100000
00010000
00001000
00000100
00000001
00001000
00000000
,
00000001
00000010
00001000
00000010
00000001
00000100
00001000
00010000
,
00000000
00010000
00100000
10000000
01000000
00000000
01100000
00000000
,
10000000
00000000
01000000
00100000
00010000
00000000
00000000
00000000
00100000
00000000
01000000
00010000
00001000
00000000
00000000
00000000
,
00000010
00000001
00000010
00001000
00010000
00001000
00000100
00000000
,
00000001
00001000
00000000
00002002
00000000
00003003
00000001
00000100
,
00001000
00010000
00000000
00022000
00000000
00000000
00033000
00000000
,
00101000
00000000
00011000
00000000
00000010
00010000
00011000
00000000
,
00001000
00000000
01000000
00000000
00100000
00000000
10000000
00000000
00000000
00000000
10000000
00100000
01000000
00000000
00010000
00000000
,
10000000
01000000
00000000
00000000
00000000
00000000
10000000
00010000
,
00000000
00100000
00001000
00000010
00000001
00000000
00001001
00000000
,
00000001
00000000
00000100
00000010
00000100
00000000
00001000
00000000
00010000
00000000
00001000
00010000
00001000
00000000
00100000
00000000
,
00000000
00000000
00010000
01000000
00010000
00000000
10000000
00100000
10000000
00100000
10000000
00000000
00010000
00000000
00000000
00000000
,
01000000
00100000
00000000
02200000
00000000
03300000
10000000
00100000
,
00010000
00001000
00000000
00022000
00000000
00000000
00033000
00000000
,
00010100
00000000
00011000
00000000
01000000
00001000
00011000
00000000
,
00010000
00001000
00000100
00000001
00001000
00000100
00000001
00000000
,
00000110
00000000
00000000
00000000
00000000
00000001
00000100
00001000
,
00000000
00010000
00100000
10000000
00010000
00000000
10000000
00010000
,
10000000
00100000
01000000
00010000
00100000
01000000
,
10000000
00100000
00010000
00001000
00000100
00000001
,
00000010
00000100
00001000
00000010
00000100
00000001
,
00002000
00000000
00003001
00000000
,
00000001
00000100
00001000
00010000
00000100
00000010
,
00001000
00010000
01000000
00100000
00001000
00010000
,
00100000
00000000
01000000
00000000
,
00020000
00000000
20000000
30030000
,
10000000
00000000
00010000
01000000
00010000
00000000
00100000
00001000
00100000
00000000
00001000
00010000
00001000
00000000
00010000
00000000
,
00000000
00001000
00000010
00000100
00000000
00000010
00000001
00000000
,
00001000
00000000
00000001
00000100
00000010
00000000
00010000
00000000
00000000
00000000
00010000
00000000
00001000
00000000
00000100
00000000
,
00000001
00000000
00000010
00000100
00001000
00000000
00000002
00000000
00000000
00000000
00000000
00000000
00000003
00000000
00000000
00000000
,
00000001
00000000
00001000
00000100
00001000
00000000
00000010
00010000
00000010
00000000
00010000
00001000
00010000
00000000
00001000
00000000
,
00000000
00010000
00100000
01000000
00000000
00100000
10000000
00000000
,
00010000
00000000
10000000
01000000
00100000
00000000
00001000
00000000
00000000
00000000
00001000
00000000
00010000
01000000
00100000
00000000
,
00010000
10000000
01000000
00000000
00100000
00000000
00010000
00000000
01000000
00000000
10000000
00000000
01000000
00000000
00000000
00000000
,
01100000
00000000
00000000
00000000
10000000
00100000
10000000
00100000
01000000
00000000
00010000
01000000
00001000
00000000
00010000
00000000
,
00000000
00001000
00000010
00000001
00000000
00000001
00001000
00000000
,
00000001
00000100
00000010
00000000
00001000
00000000
00000010
00000000
00000000
00000000
00000100
00000000
00001000
00000000
00010000
00000000
,
00100000
01000000
00100000
00000000
10000000
00000000
00010000
00000000
00000000
00000000
00010000
00000000
01000000
00000000
00000000
00000000
,
00100000
00000000
10000000
00010000
01000000
00000000
00010000
00100000
00001000
00000000
00010000
00001000
00010000
00000000
00000000
00000000
,
00010000
00001000
00000010
00001000
00000000
00000010
00000001
00000000
,
00001000
00000010
00000000
00000000
00000000
00000010
00000000
00000110
,
00000000
00000001
00000100
00001000
00010000
01000000
10000000
00020000
,
00000000
00000000
00000000
00000000
,
00000000
00000000
00000000
00000000
,
00030000
00000000
00000000
00000000
,
00000000
00000000
00000000
00000000
;
