
//----- song ID: indi -----//
#TITLE:Indigo Nocturne;
#ARTIST:BEMANI Sound Team "Power Of Nature";
#BANNER:Indigo Nocturne.png;
#BACKGROUND:Indigo Nocturne-bg.png;
#CDTITLE:./CDTitles/NOSTALGIA Op.3.png;
#MUSIC:Indigo Nocturne.ogg;
#SAMPLESTART:94.363;
#SAMPLELENGTH:15;
#BPMS:0=150;
#BGSTAGE:3;
#NOTES:
     dance-single:
     :
     Beginner:
     2:
     :
0000
0000
0000
0000
,
0000
0000
0000
0000
,
0000
0000
0000
0000
,
0000
0000
0000
0000
,
0000
0000
0000
0000
,
1000
0000
0000
0000
,
1000
0000
0000
0000
,
0010
0000
0000
0000
,
0000
0000
0000
0000
,
0010
0000
0000
0000
,
0010
0000
0000
0000
,
0001
0000
0000
0000
,
0000
0000
0000
0000
,
0001
0000
0000
0000
,
0010
0000
0000
0000
,
0001
0000
0000
0000
,
0000
0000
0000
0000
,
0001
0000
0000
0000
,
0001
0000
0000
0000
,
0010
0000
0000
0000
,
0000
0000
0000
0000
,
0010
0000
0000
0000
,
1000
0000
0000
0000
,
0010
0000
0000
0000
,
0000
0000
0000
0000
,
0010
0000
0000
0000
,
0010
0000
0000
0000
,
1000
0000
0000
0000
,
0000
0000
0000
0000
,
2000
0000
0000
0000
,
3000
0000
0000
0000
,
1001
0000
0000
0000
,
0000
0000
0000
0000
,
0002
0000
0000
0000
,
0003
0000
0000
0000
,
1001
0000
0000
0000
,
0000
0000
0000
0000
,
0001
0000
0000
0000
,
0001
0000
0000
0000
,
0100
0000
0000
0000
,
0000
0000
0000
0000
,
0001
0000
0000
0000
,
0001
0000
0000
0000
,
0010
0000
0000
0000
,
0000
0000
0000
0000
,
1000
0000
0000
0000
,
0000
0000
0000
0000
,
1001
0000
0000
0000
,
0000
0000
0000
0000
,
1000
0000
1000
0000
,
0010
0000
0000
0000
,
2000
0000
0000
0000
,
3000
0000
0000
0000
,
1000
0000
0000
0000
,
0010
0000
0000
0000
,
0002
0000
0000
0000
,
0003
0000
0000
0000
,
0001
0000
0000
0000
,
0000
0000
0000
0000
,
1001
0000
0000
0000
,
0000
0000
0000
0000
,
1001
0000
0000
0000
,
0000
0000
0000
0000
,
0001
0000
0000
0000
,
0100
0000
0000
0000
,
0010
0000
0000
0000
,
0000
0000
0000
0000
,
0010
0000
0000
0000
,
1001
0000
0000
0000
,
1000
0000
0000
0000
,
1000
0000
0000
0000
,
0010
0000
0000
0000
,
0010
0000
0000
0000
,
0001
0000
0000
0000
,
0000
0000
0000
0000
,
0100
0000
0000
0000
,
0100
0000
0000
0000
,
0000
0000
0000
0000
;
#NOTES:
     dance-single:
     :
     Easy:
     6:
     :
0000
0000
0000
0000
,
0000
0000
0000
0000
,
0000
0000
0000
0000
,
0000
0000
0000
0000
,
0000
0000
0000
0000
,
1000
0000
0000
0001
0000
0000
0000
0000
,
1000
0100
0010
0001
,
1000
0000
0000
0001
0000
0000
1000
0000
,
0000
0000
0000
0000
,
0001
0000
0000
1000
0000
0000
0000
0000
,
0001
0100
0010
1000
,
0001
0000
0000
1000
0000
0000
0000
0000
,
0001
0000
0000
1000
0000
0000
0000
0000
,
0001
0010
0001
0100
,
0010
1000
0001
0100
,
0010
0010
1000
1000
,
1001
0000
0110
0000
,
1000
0100
0010
0000
,
0001
0010
0100
0000
,
1000
0001
0100
0220
,
0000
0000
0330
0000
,
0001
0001
0100
0100
,
0010
1000
0100
1000
,
0002
0000
0000
0003
,
2000
0000
0000
3000
,
0001
0100
1000
0000
,
1000
0100
0001
0000
,
0001
0010
0100
1000
,
0000
0000
0000
0000
,
2000
0000
0000
3000
,
0020
0000
0000
0030
,
0200
0000
0000
0300
,
0002
0000
0000
0003
,
0001
0000
1000
0000
,
0010
0100
0010
0000
,
1000
0000
0001
0000
,
0010
0100
0010
0000
,
0001
1000
0100
1000
,
0010
0010
0010
0000
,
1000
0001
0100
0001
,
0010
0010
0010
0000
,
0001
1000
0010
0100
,
0001
1000
0100
0010
,
0002
0000
0000
0003
,
2000
0000
0000
3000
,
0020
0000
0000
0030
,
0200
0000
0000
0300
,
0110
0000
0000
0000
,
0000
0000
0000
0000
,
0001
0010
0001
1000
,
0100
1000
0010
0100
,
0002
0000
0000
0003
,
2000
0000
0000
3000
,
0100
0000
0110
0000
,
1000
0001
1001
0000
,
1000
1000
1000
0000
,
0001
0001
0001
0000
,
1000
0010
1000
0100
,
1000
0100
0010
0001
,
0002
0000
0000
0003
,
0001
0100
0010
1000
,
2000
0000
0000
3000
,
1000
0100
0010
0010
,
0001
0001
1000
1000
,
0010
0010
0100
0100
,
0001
0000
0000
0001
0000
0000
0001
0000
,
0000
0000
1000
1000
,
1000
0000
0000
1001
0000
0000
0000
0000
,
0001
0010
0100
1000
,
0100
0000
0000
0100
0000
0000
0010
0000
,
0000
0001
1001
0000
,
1000
0000
0000
1000
0000
0000
0000
0000
,
1000
0100
0001
0100
,
1000
0000
0000
0001
0000
0000
0001
1000
,
0000
0000
0000
0000
,
0001
0010
0100
1000
,
0000
0000
0000
0000
;
#NOTES:
     dance-single:
     :
     Medium:
     12:
     :
0000
0000
0000
0000
,
0000
0000
0000
0000
,
0000
0000
0000
0000
,
0000
0000
0000
0000
,
0000
0000
0000
0000
,
1000
0000
0000
0001
0000
0000
0000
0001
,
0100
0001
0100
0010
1000
0010
1000
0000
,
0001
0000
0000
0010
0000
0000
2002
0000
,
0000
0000
0000
3003
,
0001
0000
0000
1000
0000
0000
0000
1000
,
0010
1000
0010
0100
0001
0100
0001
0000
,
1000
0000
0000
0100
0000
1000
0100
0010
,
0001
0000
0000
0100
0002
0000
2003
0000
,
3001
0010
0001
0010
1000
0010
0001
0000
,
1000
0100
1000
0100
0001
0100
1000
0000
,
0001
0100
0010
1000
0100
0010
0001
0100
,
0010
0000
1000
1000
0020
0000
0030
0000
,
1000
0100
0001
0000
0001
0100
1000
0000
,
0001
0100
1000
0100
0002
0000
2003
0000
,
3010
0100
0100
0001
1000
1000
0020
0000
,
1000
1030
1010
0101
,
0001
0000
0100
0000
0010
0000
1000
0000
0001
0000
0100
0000
0000
0001
0000
0001
,
0000
1000
0000
0000
1000
0000
0100
0000
0010
0000
0001
0000
0100
0000
0000
0000
,
0001
0000
0010
0000
0100
0000
1000
0000
0010
0000
0000
0010
0000
0010
0000
0010
,
0000
1010
1100
0101
,
0002
0000
0103
1000
0200
0000
0301
1000
,
0200
0000
0301
0100
2000
0000
3001
0000
,
1000
0001
0001
0100
0010
0010
2000
0000
,
3000
0001
1000
0001
2000
0000
3001
0000
,
2000
3000
0020
0030
,
0101
0011
1100
1010
,
0002
0000
0003
0000
0001
0100
0001
0000
,
0002
0000
0003
0000
1000
0100
1000
0000
,
2000
0000
3100
0010
,
0011
1010
0101
1100
,
2000
0000
3000
0000
0002
0000
1003
0010
,
2000
3000
0100
0110
,
0001
0010
0100
0010
0100
1000
0001
0000
,
1000
0010
0100
0010
0100
0001
1000
0000
,
0001
0010
1000
0000
1000
0010
0001
0000
,
1000
0100
0010
0001
0100
0000
1001
0000
,
1000
0010
1000
0010
1000
0100
0010
0000
,
0001
1000
0100
0010
0100
1000
0001
0000
,
2000
0000
0000
0001
3002
0000
0000
0100
,
0203
0000
0000
0010
0320
0000
0000
1000
,
2030
0000
3001
0100
0002
0000
1003
0100
,
2000
0000
3001
0010
0002
0000
1003
0010
,
1000
0000
0000
0000
,
0000
0000
0000
0000
,
0001
0000
0010
0001
0000
0000
1000
0000
0001
0000
0100
0000
0010
0000
1000
0010
,
1000
0100
1000
1000
0001
0100
0001
0001
,
2000
0000
3002
0000
0013
0100
1000
0010
,
0100
0000
0001
0000
0010
0001
0000
1000
0000
0000
0000
0000
1001
0000
0000
0000
,
0001
0100
1000
0100
0001
0100
1000
0100
,
0001
0000
0000
0000
1001
0000
0000
0000
1000
0001
0000
1000
0000
0001
0000
0000
,
1000
0000
0100
0100
0100
0000
1001
0000
,
0001
0000
0100
0100
0100
0000
1001
0000
,
0001
0100
0001
0010
0001
0001
1000
0100
,
1000
0010
1000
1000
0010
0000
1001
0000
,
0001
0100
0001
0100
0010
1000
0010
1000
,
0100
1000
0100
1000
0001
0010
0001
0010
,
0001
0000
1000
0000
0010
0000
0100
0000
0001
0000
0000
1000
0000
0001
0000
1000
,
0000
0000
1001
0000
0100
0010
0100
0000
,
0110
0000
0001
1000
0100
0000
0001
0100
,
1000
0000
0001
0100
1000
0100
0001
0000
,
1000
0010
0010
0100
0010
0010
2000
0000
,
0000
0000
3000
0000
0001
1000
0001
0000
,
1001
0000
0000
0220
0000
0000
0330
0000
,
0001
0000
1000
0000
0100
0000
0000
0000
0010
0001
0000
1000
0001
0000
0000
0000
,
0100
0000
0000
0110
0000
0000
1001
0000
,
0000
0000
1000
0000
0000
1000
0000
0000
0001
0000
0100
0000
0001
0000
0000
0000
,
0011
0000
0000
1100
0000
0000
0000
1000
,
0000
0001
0100
0001
0010
0100
1000
0000
,
0001
0000
0000
0101
0000
0100
0010
2000
,
0000
0000
0000
3000
,
1000
0100
0010
0000
0001
0010
0100
1000
,
0000
0000
0000
0000
;
#NOTES:
     dance-single:
     :
     Hard:
     15:
     :
0000
0000
0000
0000
,
0000
0000
0000
0000
,
0000
0000
0000
0000
,
0000
0000
0000
0000
,
0000
0000
0000
0000
,
1010
0000
0000
0000
0000
0000
2002
0000
0000
0000
0000
0000
3003
0000
0001
1000
,
0001
0000
0100
0010
1000
0000
0100
0010
0000
0000
0001
1000
0001
0000
0010
0100
,
1000
0000
0000
1100
0000
0000
2002
0000
,
0000
0000
0000
3003
,
0001
0000
0000
1000
0000
0000
0100
0000
0000
0000
0001
0000
0100
0000
1000
0000
,
0000
0000
0001
0000
0010
0000
0100
0000
0000
0000
1000
0000
0010
0100
0010
0000
,
1000
0000
0000
0000
0000
0000
1001
0000
0000
0000
0001
0100
0010
1000
0001
0000
,
0010
0000
0000
0000
0000
0000
0110
0000
1000
0100
0010
0000
0100
0010
0001
0000
,
1000
0000
0100
0000
0010
0000
0001
0100
0010
0000
1000
0010
0100
0000
0001
0000
,
1000
0001
0010
0000
0001
1000
0010
0000
0100
0001
1000
0000
0100
1000
0001
0000
,
0100
0010
0100
0000
0010
0100
0010
0000
1000
0001
1000
0001
1000
0000
0001
0000
,
0020
0000
0000
0000
0031
0100
0010
1000
0010
0000
1000
0000
0001
1000
0001
0000
,
1000
0000
1000
0100
1000
0000
1000
0000
0001
0000
0001
0100
0001
0000
0001
0000
,
1000
0010
1000
0000
1000
0010
1000
0000
0001
0010
0001
0010
0001
0000
0010
0000
,
0011
0001
0100
0101
0001
1000
1100
0000
,
1000
0000
0100
0010
0001
0010
0000
0010
0001
0000
0100
0000
1001
0000
0000
0000
,
1000
0000
0010
0000
0001
0000
0010
1000
0010
0100
0001
0000
0000
0101
0000
1010
,
0000
0010
1000
0000
0100
1000
0100
0000
0010
0000
0000
0001
1000
0001
0100
0000
,
0001
0010
0001
0000
0010
0100
0010
0000
0100
1000
0000
0010
0000
0100
0000
0110
,
0000
0000
0000
0000
1001
0000
0000
0000
0001
0010
0100
1000
0001
0010
0100
0000
,
1000
0000
0100
0010
0100
0000
1000
0001
1000
0000
0001
0000
0100
0010
0100
0000
,
0001
0100
0010
1000
0000
0000
0001
0100
0010
1000
0010
0000
0100
0000
0100
0000
,
0101
0001
0010
0011
0001
1000
2020
0000
,
3030
0010
1000
0010
2000
0000
3002
0000
,
0103
0000
0000
0010
0000
0000
1001
0000
0000
1000
0000
0001
,
0010
0000
0010
0100
0000
0100
1000
0000
1000
0001
0000
0000
,
1000
0010
0100
0000
0001
0100
1000
0100
,
0001
0010
1000
0010
0011
0001
1001
0000
,
2000
0000
0000
0000
0000
0000
0000
0000
0000
0000
0000
0000
3100
0000
0000
0010
0000
0000
0001
0000
0000
0000
1000
0000
,
0100
0000
0100
0010
0000
0010
0001
0000
0001
1000
0000
0000
,
0002
0000
0203
0000
0320
0000
1030
0001
,
2000
0000
3001
1000
0001
0010
0010
0100
,
0110
0000
0000
0000
0000
0000
1000
0000
0000
0010
0000
0000
0100
0000
0000
0001
0000
0000
1000
0000
0000
0000
0001
0000
,
0010
0000
1000
0010
0000
0001
0010
0000
1000
0010
0000
0000
,
0001
0100
0001
0100
0010
1000
0100
0001
,
0100
1000
0010
0100
1000
0100
0001
0000
,
0110
0000
0000
0000
0000
0000
0001
0000
0000
0100
0000
0000
0010
0000
0000
1000
0000
0000
0001
0000
0000
0000
1000
0000
,
0100
0000
0001
0100
0000
1000
0100
0000
0001
0100
0000
0000
,
2002
0000
0000
0000
3003
0000
1000
0100
0020
0000
0000
0000
0030
0000
0001
0000
,
2002
0000
0000
0000
3003
0000
0001
0100
0020
0000
0000
0000
0030
0000
1000
0000
,
2002
0000
0000
0000
3003
0000
0001
0010
0200
0000
0000
0000
0300
0000
1000
0000
,
2002
0000
0000
0000
3003
0000
1000
0010
0200
0000
0000
0000
0300
0000
0001
0000
,
1001
0000
1000
0001
0000
1000
0010
0100
0001
0000
1000
0010
1000
0000
0001
0010
,
0001
0010
0001
0000
0100
0010
1000
0000
0100
0010
0000
0000
0100
0010
0100
0000
,
0010
0001
0010
0001
0000
1000
0010
1000
0010
0100
0010
0100
0010
0000
1000
0001
,
1000
0100
1000
0000
0100
0010
0100
0010
0001
0010
0001
0000
1000
0001
1000
0000
,
0001
0000
0010
0000
1000
0010
0000
0001
0000
1000
0100
0000
0010
0001
0100
0000
,
0010
1000
0010
0000
0100
0001
0000
0001
0000
1000
0001
0000
0100
0010
0100
0000
,
0001
0010
0001
0010
0001
0000
0001
0000
1000
0010
1000
0010
0000
0010
1000
0010
,
0000
0100
0001
0000
0010
0100
0000
1000
0010
0100
0000
0100
0000
0100
0000
0000
,
0001
1000
0100
0000
0010
0100
0010
0100
0020
0000
0032
0000
0203
0000
0320
0000
,
1030
0100
1000
0000
1000
0000
1000
0000
0001
0100
0000
0010
1000
0010
0000
0000
,
1010
1000
0100
1100
1000
0001
0101
0100
,
0001
0000
0011
0000
0010
0000
0001
0000
1000
0010
1000
0010
1000
0000
0000
0000
,
0001
0100
0000
0010
0000
0010
0000
0010
1000
0100
0000
0010
0000
0010
0000
0010
,
0001
1000
0000
0100
0000
0100
0000
0100
1000
0001
0000
0100
0000
0100
0000
0100
,
0010
1000
0000
0001
0000
0001
0000
0001
1000
0010
0000
0100
0000
0001
0000
1001
,
0000
1000
0100
0000
0010
0001
0100
0000
0010
1000
0100
0000
0010
0001
0100
0000
,
0010
1000
0000
0010
1000
0000
0100
0000
0010
0001
0000
0010
0001
0000
0100
0000
,
0001
0000
0100
1000
0100
0000
0001
0000
1000
0000
0100
0001
0100
0000
1000
0000
,
0001
0010
0100
1000
0001
0000
1000
0010
0100
0001
1000
0000
0002
0000
0000
0000
,
0003
0000
0001
0000
1000
0000
0001
0000
1000
0001
1000
0001
1000
0001
1000
0000
,
1001
0000
0000
0000
0000
0000
0220
0000
0000
0000
0000
0000
0330
0000
1000
0001
,
0010
0000
0100
0000
0001
0000
0100
1000
0001
0100
0000
1000
0100
0000
0001
0100
,
0001
0000
0010
0100
0000
0100
1000
0000
0000
0000
0001
1000
0001
0000
0000
0000
,
0000
0000
0011
0000
0000
0101
0000
0000
1000
0100
0010
0000
0001
0010
0100
0000
,
1000
0000
0000
0010
0000
0000
0100
0000
0000
0001
0000
0000
1000
0000
0001
0000
,
0010
0100
1000
0000
0100
0000
0001
0000
0000
0000
0001
0100
1000
0000
0001
0000
,
0101
0000
0000
0000
0000
0000
0110
0000
0000
0000
0010
1000
0100
0010
0002
0000
,
0000
0000
0000
0003
,
0001
0000
0010
0000
0100
0000
1000
0000
0001
0000
0010
0000
0001
0010
0100
1000
,
0000
0000
0000
0000
;
#NOTES:
     dance-double:
     :
     Easy:
     6:
     :
00000000
00000000
00000000
00000000
,
00000000
00000000
00000000
00000000
,
00000000
00000000
00000000
00000000
,
00000000
00000000
00000000
00000000
,
00000000
00000000
00000000
00000000
,
00001000
00000000
00000000
00010000
00000000
00000000
00000000
00000000
,
00001000
00010000
00000100
00001000
,
00000010
00000000
00000000
00000100
00000000
00000000
00000110
00000000
,
00000000
00000000
00000000
00000000
,
00000001
00000000
00000000
00001000
00000000
00000000
00000000
00000000
,
00000001
00000100
00000010
00010000
,
00001000
00000000
00000000
00010000
00000000
00000000
00000000
00000000
,
00010000
00000000
00000000
00001000
00000000
00000000
00000000
00000000
,
00001000
00010000
00001000
00100000
,
00010000
01000000
00010000
00000000
,
10000000
10000000
00100000
00100000
,
01100000
00000000
10010000
00000000
,
10000000
01000000
00100000
00000000
,
01000000
00100000
00010000
00000000
,
00100000
00001000
00010000
00022000
,
00000000
00000000
00033000
00000000
,
00001000
00001000
00010000
00000000
,
00000100
00000100
00001000
00000000
,
00000002
00000000
00000000
00000003
,
00002000
00000000
00000000
00003000
,
00000001
00000000
00000100
00000000
,
00001000
00010000
00001000
00000000
,
00010000
00100000
10000000
10000000
,
00000000
00000000
00000000
00000000
,
20000000
00000000
00000000
30000000
,
00020000
00000000
00000000
00030000
,
02000000
00000000
00000000
03000000
,
00002000
00000000
00000000
00003000
,
00010000
00000000
00001000
00000000
,
00010000
00000100
00001000
00000000
,
00001000
00000000
00000001
00000000
,
00000100
00000010
00000100
00000000
,
00000001
00001000
00000001
00000000
,
00001000
00000100
00001000
00000000
,
00000100
00010000
00000100
00010000
,
00001000
00000000
00011000
00000000
,
00010000
00001000
00100000
00000000
,
00010000
00100000
01000000
00000000
,
20000000
00000000
00000000
30000000
,
00020000
00000000
00000000
00030000
,
00200000
00000000
00000000
00300000
,
00002000
00000000
00000000
00003000
,
00011000
00000000
00000000
00000000
,
00000000
00000000
00000000
00000000
,
00001000
00010000
00001000
00000010
,
00000001
00001000
00000001
00000000
,
00000002
00000000
00000000
00000003
,
00002000
00000000
00000000
00003000
,
00001000
00000100
00010000
00000000
,
00011000
00000000
00010000
00010000
,
00001000
01000000
00001000
00000000
,
00001000
00100000
00001000
00000000
,
00001000
00100000
00010000
00100000
,
01000000
10000000
00010000
00000000
,
20000000
00000000
00000000
30000000
,
10000000
00100000
01000000
00001000
,
00020000
00000000
00000000
00030000
,
00010000
00000100
00001000
00000100
,
00000010
00000001
00000100
00000000
,
00000100
00000010
00001000
00000000
,
00001000
00000000
00000000
00000100
00000000
00000000
00010000
00000000
,
00000000
00000000
00001000
00010000
,
00001000
00000000
00000000
00011000
00000000
00000000
00000000
00000000
,
00010000
00001000
00010000
01000000
,
00100000
00000000
00000000
00100000
00000000
00000000
01100000
00000000
,
00000000
10000000
10010000
00000000
,
10000000
00000000
00000000
00010000
00000000
00000000
00000000
00000000
,
10000000
01000000
00010000
00000000
,
00001000
00000000
00000000
00010000
00000000
00000000
00010000
00001000
,
00000000
00000000
00000000
00000000
,
00010000
00001000
00000010
00000001
,
00000000
00000000
00000000
00000000
;
#NOTES:
     dance-double:
     :
     Medium:
     12:
     :
00000000
00000000
00000000
00000000
,
00000000
00000000
00000000
00000000
,
00000000
00000000
00000000
00000000
,
00000000
00000000
00000000
00000000
,
00000000
00000000
00000000
00000000
,
00010000
00000000
00000000
00001000
00000000
00000000
00000000
00001000
,
00010000
00001000
01000000
00010000
01000000
00100000
10000000
00000000
,
00010000
00000000
00000000
00100000
00000000
00000000
20020000
00000000
,
00000000
00000000
00000000
30030000
,
10000000
00000000
00000000
00010000
00000000
00000000
00000000
00010000
,
01000000
00010000
01000000
00001000
00010000
00001000
00010000
00000000
,
00001000
00000000
00000000
00010000
00000000
00000100
00001000
00000010
,
00000100
00000000
00000000
00000001
00002000
00000000
00003002
00000000
,
00000013
00000100
00001000
00000000
00000010
00000100
00000001
00000000
,
00000010
00000100
00001000
00000100
00010000
00001000
00010000
00000000
,
00001000
01000000
00010000
01000000
00100000
01000000
00010000
01000000
,
00200000
20300000
30020000
00030000
,
00010000
01000000
10000000
00000000
10000000
01000000
00010000
00000000
,
10000000
01000000
10000000
01000000
00020000
00000000
00032000
00000000
,
00003010
00000001
00000001
00000100
00000001
00000001
00002000
00000000
,
00000010
00003010
00001010
00000101
,
00000001
00000000
00000100
00000000
00000010
00000000
00000000
00000000
00001000
00000000
00000010
00000000
00000000
00010000
00000000
00010000
,
00000000
00001000
00000000
00000000
00001000
00000000
00010000
00000000
00001000
00000000
01000000
00000000
00010000
00000000
00000000
00000000
,
10000000
00000000
00100000
00000000
01000000
00000000
00010000
00000000
10000000
00000000
00000000
01000000
00000000
01000000
00000000
01000000
,
00000000
11000000
01100000
00110000
,
00020000
00000000
00130000
00001000
00020000
00000000
00030100
00001000
,
00000020
00000000
00000130
00000001
00002000
00000000
00003100
00000010
,
00000001
00001000
00001000
00000100
00010000
00010000
00002000
00000000
,
00003000
00001000
00010000
00001000
00020000
00000000
00032000
00000000
,
02003000
03000000
00020000
00030000
,
10000000
01000000
00010000
00001000
,
00000020
00000000
00000030
00000000
00000001
00001000
00000010
00000100
,
00000002
00000000
00000003
00000000
00001000
00000001
00001000
00000000
,
00000200
00000000
00010300
00001000
,
00010000
00001000
01000000
00000000
00010000
00100000
00010000
00000000
,
20000000
00000000
30000000
00000000
00020000
00000000
01030000
00100000
,
20000000
00000000
31000000
00010000
00001000
00000000
00011000
00000000
,
00010000
00001000
00010000
00001000
00000010
00001000
00000010
00000000
,
00000001
00001000
00000010
00000100
00000010
00001000
00000001
00000000
,
00000010
00000100
00001000
00000100
00010000
00001000
00010000
00000000
,
00001000
01000000
00010000
00100000
00010000
01000000
00100000
00000000
,
10000000
00000000
01000000
00000000
00010000
00001000
00010000
00000000
,
00001000
00000000
00000010
00000000
00000001
00001000
00000001
00000000
,
00002000
00000000
00000000
00000100
00003200
00000000
00000000
00010000
,
00020300
00000000
00000000
00001000
00032000
00000000
00000000
00100000
,
00203000
00000000
00310000
01000000
00200000
00000000
10300000
01000000
,
00200000
00000000
00301000
00010000
00002000
00000000
00013000
00000000
,
00011000
00000000
00000000
00000000
,
00000000
00000000
00000000
00000000
,
00001000
00000000
00010000
00000100
00000000
00000000
00001000
00000000
00000100
00000000
00000010
00000000
00000001
00000000
00000100
00000010
,
00000100
00000001
00000010
00001000
00010000
00000000
00011000
00000000
,
00001000
00100000
00001000
00000000
00010000
00001000
01000000
00010000
,
01000000
00000000
00000000
00000000
00100000
10000000
00000000
00010000
00000000
00000000
00000000
00000000
10010000
00000000
00000000
00000000
,
10000000
01000000
00010000
01000000
00010000
00001000
00010000
00001000
,
00000010
00000000
00000000
00000000
00000110
00000000
00000000
00000000
00000001
00001000
00000000
00000001
00000000
00001000
00000000
00000000
,
00000001
00000000
00000100
00000100
00000100
00000000
00000010
00010000
,
00000010
00000000
00010000
00010000
00010000
00000000
00011000
00000000
,
00001000
00100000
00010000
01000000
00100000
00100000
10000000
01000000
,
00100000
00010000
10000000
10000000
00100000
00000000
10010000
00000000
,
10000000
01000000
10000000
01000000
00100000
00010000
00100000
00001000
,
00010000
00001000
00010000
00000100
00001000
00000010
00001000
00000010
,
00000100
00000000
00000001
00000000
00000010
00000000
00000100
00000000
00001000
00000000
00000000
00000010
00000000
00000100
00000000
00000010
,
00000000
00000000
00001001
00000000
00000100
00000010
00000100
00000000
,
00000110
00000000
00000001
00000100
00001000
00000000
00001000
00010000
,
00100000
00000000
10000000
01000000
00010000
01000000
10000000
00000000
,
00010000
00100000
00100000
00001000
00010000
00010000
00002000
00000000
,
00000000
00000000
00003000
00000000
00010000
00000100
00000010
00000000
,
00000110
00000000
00000000
00002002
00000000
00000000
00003003
00000000
,
00000001
00000000
00000010
00000000
00000100
00000000
00000000
00000000
00001000
00000100
00000000
00010000
00001000
00000000
00000000
00000000
,
00010000
00000000
00001000
00100000
00000000
00001000
01000000
00000000
,
00000000
00000000
00010000
00000000
00000000
00010000
00000000
00000000
10000000
00000000
01000000
00000000
00100000
00000000
00000000
00000000
,
00110000
00000000
00000000
11000000
00000000
00000000
00000000
10000000
,
00000000
01000000
00010000
00010000
00001000
00000010
00000001
00000000
,
00001000
00000000
00000000
00001001
00000000
00001000
00000100
00020000
,
00000000
00000000
00000000
00030000
,
00010000
00001000
00100000
00010000
01000000
00001000
00010000
00000100
,
00000000
00000000
00000000
00000000
;
#NOTES:
     dance-double:
     :
     Hard:
     15:
     :
00000000
00000000
00000000
00000000
,
00000000
00000000
00000000
00000000
,
00000000
00000000
00000000
00000000
,
00000000
00000000
00000000
00000000
,
00000000
00000000
00000000
00000000
,
00001000
00000000
00000000
00000000
00000000
00000000
00020000
00000000
00000000
00000000
00000000
00000000
00030000
00000000
00010000
00001000
,
00010000
00000000
00000100
00001000
00000100
00000000
00000010
00000001
00000000
00000000
00001000
00000001
00001000
00000000
00000001
00000000
,
00000100
00000000
00000000
00001000
00000000
00000000
00022000
00000000
,
00000000
00000000
00000000
00033000
,
00010000
00000000
00000000
00001000
00000000
00000000
00100000
00000000
00000000
00000000
00010000
00000000
01000000
00000000
10000000
00000000
,
00000000
00000000
00010000
00000000
00100000
00000000
10000000
00000000
00000000
00000000
00010000
00000000
01000000
00100000
01000000
00000000
,
00010000
00000000
00000000
00000000
00000000
00000000
10010000
00000000
00000000
00000000
10000000
01000000
00100000
00000000
00001000
00000000
,
00010000
00000000
00000000
00000000
00000000
00000000
00011000
00000000
00010000
00000010
00010000
00000000
00000010
00001000
00000010
00000000
,
00001000
00000000
00000100
00000000
00000001
00000000
00000100
00000010
00000001
00000000
00000100
00000010
00001000
00000000
00000001
00000000
,
00000100
00001000
00000100
00000000
00001000
00000000
00010000
00000000
00001000
00010000
00001000
00000000
00100000
00000000
00010000
00000000
,
01000000
00100000
01000000
00000000
00100000
01000000
00100000
00000000
10000000
00010000
10000000
00010000
10000000
00000000
00010000
00000000
,
00200000
00000000
00000000
00000000
01300000
10000000
01000000
10000000
00010000
00000000
01000000
00000000
00001000
00010000
00001000
00000000
,
00010000
00000000
00010000
00000010
00010000
00000000
00001000
00000000
00010000
00000000
00001000
00100000
00001000
00000000
00001000
00000000
,
00010000
00000010
00010000
00000010
00001000
00000010
00001000
00000000
00000001
00000100
00000001
00000100
00000001
00000000
00000010
00000000
,
00000011
00000001
00001000
00001100
00000100
00010000
00011000
00000000
,
00001000
00000000
00100000
00010000
00100000
01000000
00000000
01000000
10000000
00000000
00010000
00000000
10010000
00000000
00000000
00000000
,
10000000
00000000
00100000
00000000
00010000
00000000
00001000
00010000
00001000
00100000
00001000
00000000
00000000
00010000
00000000
00011000
,
00000000
00001000
00010000
00000000
00000100
00001000
00000010
00000000
00000100
00000000
00000000
00000001
00000010
00000001
00001000
00000000
,
00000001
00000010
00000100
00000000
00001000
00000010
00000100
00000000
00001000
00010000
00000000
00100000
00000000
10000000
00000000
10010000
,
00000000
00000000
00000000
00000000
01100000
00000000
00000000
00000000
10000000
00100000
01000000
00010000
10000000
00100000
01000000
00000000
,
00010000
00000000
00100000
00001000
00100000
00000000
00001000
00010000
00001000
00000000
00010000
00000000
00000100
00001000
00000100
00000000
,
00000010
00000001
00001000
00000100
00000010
00000000
00000001
00000010
00000100
00001000
00000100
00000000
00010000
00000000
00000000
00000000
,
00011000
00001000
01000000
01010000
00010000
10000000
20200000
00000000
,
30300000
00100000
10000000
10000000
00020000
00000000
02030000
00000000
,
03001000
00000000
00000000
00010000
00000000
00000000
00011000
00000000
00000000
00010000
00000000
00010000
,
00001000
00000000
00001000
00000010
00000000
00000010
00000001
00000000
00000001
00001000
00000000
00000000
,
00000001
00000100
00001000
00000000
00010000
00100000
10000000
00100000
,
00010000
00000000
00001000
00010000
01000000
10000000
10010000
00000000
,
20000000
00000000
00000000
00000000
00000000
00000000
00000000
00000000
00000000
00000000
00000000
00000000
30100000
00000000
00000000
01000000
00000000
00000000
00100000
00000000
00000000
00000000
10000000
00000000
,
01000000
00000000
01000000
00010000
00000000
00010000
00001000
00000000
00001000
00000010
00000000
00000000
,
00000002
00000000
00000023
00000000
00002030
00000000
00013000
00001000
,
00000200
00000000
00001300
00010000
00100000
01000000
01000000
00100000
,
01100000
00000000
00000000
00000000
00000000
00000000
10000000
00000000
00000000
00100000
00000000
00000000
01000000
00000000
00000000
00010000
00000000
00000000
00100000
00000000
00000000
00000000
01000000
00000000
,
10000000
00000000
01000000
00100000
00000000
00001000
00010000
00000000
00001000
00000010
00000000
00000000
,
00000001
00000100
00000001
00000100
00001000
00010000
00000100
00010000
,
00001000
00000000
01000000
00010000
00100000
00010000
01000000
00000000
,
01100000
00000000
00000000
00000000
00000000
00000000
00100000
00000000
00000000
10000000
00000000
00000000
01000000
00000000
00000000
00100000
00000000
00000000
00010000
00000000
00000000
00000000
00100000
00000000
,
00001000
00000000
00001000
00010000
00000000
00010000
00000100
00000000
00000100
00001000
00000000
00000000
,
00002002
00000000
00000000
00000000
00003003
00000000
00000001
00000010
00000200
00000000
00000000
00000000
00000300
00000000
00001000
00000000
,
00002020
00000000
00000000
00000000
00003030
00000000
00000010
00010000
00002000
00000000
00000000
00000000
00003000
00000000
00010000
00000000
,
00022000
00000000
00000000
00000000
00033000
00000000
00010000
00001000
02000000
00000000
00000000
00000000
03000000
00000000
00100000
00000000
,
20200000
00000000
00000000
00000000
30300000
00000000
10000000
01000000
00200000
00000000
00000000
00000000
00300000
00000000
00100000
00000000
,
00101000
00000000
00001000
00010000
00000000
00000010
00001000
00000010
00000100
00000000
00000001
00000010
00000001
00000000
00000010
00000100
,
00000010
00000100
00000010
00000000
00000100
00001000
00000100
00000000
00010000
00000100
00000000
00000000
00010000
00001000
00010000
00000000
,
00001000
01000000
00001000
01000000
00000000
00010000
00100000
00010000
00100000
01000000
00100000
01000000
00100000
00000000
00010000
10000000
,
00010000
01000000
00010000
00000000
10000000
01000000
10000000
01000000
00100000
01000000
00100000
00000000
00010000
00100000
00001000
00000000
,
00010000
00000000
00001000
00000000
00000100
00000001
00000000
00000010
00000000
00000001
00001000
00000000
00000100
00000010
00000001
00000000
,
00000100
00000010
00001000
00000000
00000010
00010000
00000000
00010000
00000000
00001000
00010000
00000000
00011000
00000000
00001000
00100000
,
00010000
01000000
00010000
01000000
00010000
01000000
00100000
00000000
10000000
01000000
10000000
01000000
00000000
01000000
00100000
00010000
,
00000000
00100000
00001000
00000000
00010000
00001000
00000000
00010000
00000100
00001000
00000000
00000010
00000000
00001000
00000000
00000100
,
00000010
00000001
00000010
00000000
00000001
00001000
00000001
00000000
00000200
00000000
00002300
00000000
00023000
00000000
00230000
00000000
,
10300000
01000000
10000000
00000000
10000000
00000000
10000000
00000000
00010000
01000000
00000000
00100000
00000000
00010000
00000000
00000000
,
00011000
00001000
00010000
00010100
00000100
00001000
00001010
00000010
,
00000100
00000000
00000101
00000000
00000001
00000000
00000010
00000000
00000001
00001000
00000001
00001000
00000001
00000000
00000000
00000000
,
00000001
00000100
00000000
00001000
00000000
00001000
00000000
00001000
00010000
00100000
00000000
10000000
00000000
10000000
00000000
10000000
,
01000000
00010000
00000000
00001000
00000000
00001000
00000000
00001000
00000010
00000001
00000000
00000100
00000000
00000100
00000000
00000100
,
00001000
00010000
00000000
00010000
00000000
00010000
00000000
00100000
10000000
00010000
00000000
01000000
00000000
00100000
00000000
01100000
,
00000000
00100000
10000000
00000000
01000000
00100000
01000000
00000000
00010000
00000000
00001000
00000000
00000010
00000100
00000010
00000000
,
00000001
00000010
00000000
00000100
00001000
00000000
00000001
00000000
00000100
00000010
00000000
00000100
00001000
00000000
00010000
00000000
,
00100000
00000000
01000000
10000000
01000000
00000000
00010000
10000000
00010000
00000000
10000000
01000000
00100000
00000000
00001000
00000000
,
00010000
00000000
00000100
00000010
00000100
00000000
00010000
00000000
00000010
00000100
00000010
00000000
00002000
00000000
00000000
00000000
,
00003000
00000000
00001000
00000000
00000001
00000000
00000010
00000000
00000100
00000010
00000100
00000010
00000100
00000010
00000100
00000000
,
00000110
00000000
00000000
00000000
00000000
00000000
00002002
00000000
00000000
00000000
00000000
00000000
00003003
00000000
00000001
00000100
,
00000010
00000000
00001000
00000100
00000010
00000000
00000001
00000000
00000100
00001000
00000100
00000000
00001000
00000000
00010000
00001000
,
00010000
00000000
00001000
01000000
00000000
01000000
00010000
00000000
00000000
00000000
10000000
00010000
10000000
00000000
00000000
00000000
,
00000000
00000000
11000000
00000000
00000000
01100000
00000000
00000000
00100000
01000000
10000000
00000000
00100000
01000000
00010000
00000000
,
00100000
00000000
00000000
00001000
00000000
00000000
00010000
00000000
00000000
00000100
00000000
00000000
00001000
00000000
00000010
00000000
,
00000100
00000001
00000100
00000000
00000001
00000000
00000010
00000000
00000000
00000000
00000010
00001000
00000010
00000000
00001000
00000000
,
00011000
00000000
00000000
00000000
00000000
00000000
01100000
00000000
00000000
00000000
10000000
00010000
10000000
00010000
20000000
00000000
,
00000000
00000000
00000000
30000000
,
10000000
00000000
01000000
00000000
00100000
00000000
00010000
00000000
00001000
00000000
00000100
00000000
00000010
00000001
00000010
00000001
,
00000000
00000000
00000000
00000000
;
