
//----- song ID: itiz -----//
#TITLE:一途;
#TITLETRANSLIT:Ichizu;
#BANNER:Ichizu.png;
#BACKGROUND:Ichizu-bg.png;
#CDTITLE:./CDTitles/jubeat Ave.png;
#MUSIC:Ichizu.ogg;
#SAMPLESTART:32.063;
#SAMPLELENGTH:15;
#BPMS:0=160;
#STAGE:1;
#NOTES:
     dance-single:
     :
     Beginner:
     2:
     :
0000
0000
0000
0000
,
0000
0000
0000
0000
,
0000
0000
0000
0000
,
0000
0000
0000
0000
,
0000
0000
0000
0000
,
0001
0000
0000
0000
,
0100
0000
0000
0000
,
0010
0000
0000
0000
,
1000
0000
0000
0000
,
1001
0000
0000
0000
,
0000
0000
0000
0000
,
1001
0000
0000
0000
,
0000
0000
0000
0000
,
0010
0000
0010
0000
,
0100
0000
0000
0000
,
1000
0000
0000
0000
,
0000
0000
0000
0000
,
0100
0000
0100
0000
,
0001
0000
0000
0000
,
0010
0000
0000
0000
,
0000
0000
0000
0000
,
0000
0000
0001
0000
,
0000
0000
0100
0000
,
0000
0000
0001
0000
,
0000
0000
0001
0000
,
0000
0000
0010
0000
,
0000
0000
0100
0000
,
0000
0000
1000
0000
,
0000
0000
0000
0000
,
0000
0000
1001
0000
,
0000
0000
0000
0000
,
0000
0000
1000
0000
,
1000
0000
0010
0000
,
0000
0000
0100
0000
,
0000
0000
1000
0000
,
0000
0000
0100
0000
,
0100
0000
0001
0000
,
0000
0000
0000
0000
,
0001
0000
0000
0000
,
0010
0000
0000
0000
,
0100
0000
0000
0000
,
0000
0000
0000
0000
,
1000
0000
0000
0000
,
0010
0000
0000
0000
,
0100
0000
0000
0000
,
0000
0000
0000
0000
,
0002
0000
0000
0000
,
0003
0000
0000
0000
,
0001
0000
0000
0000
,
0100
0000
0000
0000
,
0020
0000
0000
0000
,
0030
0000
0000
0000
,
0010
0000
0000
0000
,
1000
0000
0000
0000
,
1000
0000
0000
0000
,
0000
0000
0000
0000
,
0000
0000
0000
0000
,
0000
0000
0000
0000
,
1000
0000
0000
0000
,
0010
0000
0000
0000
,
0100
0000
0100
0000
,
0010
0000
0000
0000
,
0001
0000
0000
0000
,
0100
0000
0000
0000
,
0010
0000
0000
0000
,
0000
0000
0000
0000
,
0001
0000
0000
0000
,
0100
0000
0000
0000
,
1000
0000
0000
0000
,
0000
0000
0000
0000
,
1000
0000
0000
0000
,
0100
0000
0000
0000
,
0001
0000
0000
0000
,
0000
0000
0000
0000
,
1001
0000
0000
0000
,
0000
0000
0000
0000
;
#NOTES:
     dance-single:
     :
     Easy:
     6:
     :
0000
0000
0000
0000
,
0000
0000
0000
0000
,
0000
0000
0000
0000
,
0000
0000
0000
0000
,
0000
0000
0000
0000
,
0001
0100
0010
0100
,
0001
0010
0001
0000
,
1000
0100
0010
0100
,
1000
0010
1000
0000
,
1001
0000
0000
0000
,
0110
0000
0000
0000
,
1001
0000
0000
0000
,
0110
0000
0000
0000
,
0001
0100
0001
0100
,
0001
0010
0001
0010
,
0100
1000
0001
0100
,
0001
1000
0100
0000
,
1000
0100
1000
0100
,
1000
0010
1000
0010
,
0100
0001
1000
0100
,
1000
0001
0100
0000
,
0000
0000
0001
0100
,
0010
1000
0010
0100
,
0001
0010
0100
0100
,
0010
0010
0110
0000
,
1001
0000
1000
0100
,
0010
0001
0010
0100
,
1000
0010
0100
0100
,
0010
0010
0110
0000
,
1000
0000
1001
0000
,
0000
0000
0001
0100
,
0001
0000
1000
0010
,
1000
0100
0010
0001
,
1000
0000
0001
0010
,
0100
1000
0100
0010
,
0001
0000
1000
0100
,
0010
0001
1000
1000
,
0001
0001
1001
0000
,
1000
0001
0100
0001
,
1000
0100
1000
0010
,
1000
1000
0100
0100
,
0010
0000
1001
0000
,
0001
1000
0100
1000
,
0001
0100
0001
0010
,
0001
0001
0100
0100
,
0010
0000
1001
0000
,
1000
0010
1000
0001
,
0100
0001
1000
0001
,
0010
0010
0100
0100
,
0110
0000
1001
0000
,
0001
0100
0001
1000
,
0010
1000
0001
1000
,
0100
0100
0010
0010
,
0110
0000
0001
0000
,
2002
0000
0000
0000
,
0000
0000
0000
0000
,
3003
0000
0000
0000
,
0000
0000
0000
0000
,
0001
0000
1000
0000
,
0010
0100
0010
0000
,
1000
0100
0010
0001
,
0100
0000
1001
0000
,
1000
0000
0001
0000
,
0100
0010
0100
0000
,
0001
0010
0100
1000
,
0010
0000
1001
0000
,
1000
0100
1000
0010
,
0100
0010
0100
0001
,
0010
0001
0100
0001
,
0010
0100
1000
0000
,
0001
0100
0001
0010
,
0100
0010
0100
1000
,
0010
1000
0100
1000
,
0010
0100
0001
0000
,
1001
0000
0000
0000
,
0000
0000
0000
0000
;
#NOTES:
     dance-single:
     :
     Medium:
     12:
     :
0000
0000
0000
0000
,
0000
0000
0000
0000
,
0000
0000
0000
0000
,
0000
0000
0000
0000
,
0000
0000
0000
0000
,
1000
0100
0000
0010
0001
0000
0000
0000
,
0000
0001
1000
0000
0010
0100
0010
0000
,
1000
0010
0000
0100
0001
0000
0000
0000
,
0000
0001
1000
0000
0100
0010
0100
0000
,
1001
0000
0001
0010
0000
0001
0010
0000
,
0001
0000
1000
0010
0000
1000
0010
0000
,
1000
0000
0100
1000
0000
0100
1000
0000
,
0001
0000
0100
0001
0000
0100
0001
0000
,
1001
0000
0001
0100
1000
0100
0001
0000
,
0100
0000
0010
1000
0100
0010
0001
0000
,
1000
0000
0100
0010
0001
0100
0001
0010
,
0100
0000
0000
1000
0000
0000
0001
0000
0000
0000
0100
0000
0000
0000
0010
0000
,
0110
0000
1000
0100
0001
0100
1000
0000
,
0100
0000
0010
0001
0100
0010
1000
0000
,
0001
0000
0100
0010
1000
0100
1000
0010
,
0100
0000
0000
0001
0000
0000
1000
0000
0000
0000
0100
0000
0000
0000
0010
0000
,
0110
0000
0000
0000
1000
0100
1000
0100
,
0010
0001
1000
0010
0000
0110
0000
0001
,
1000
0100
0010
0000
0001
0100
0001
0100
,
1000
0100
0010
1000
0000
1000
0100
0010
,
0000
0011
0000
0000
0001
0010
0001
0010
,
0100
1000
0001
0100
0000
0110
0000
1000
,
0001
0010
0100
0000
1000
0010
1000
0010
,
0001
0010
0100
0001
0000
0001
0010
0100
,
0000
1100
0000
1000
0002
0000
0000
0000
,
0000
0000
0000
0000
0003
0000
0000
0000
0001
0000
0000
0001
0100
0000
0000
0100
,
0010
0000
1000
0000
0010
0000
0000
0000
1000
0000
0000
1000
0100
0000
0000
0100
,
0010
0000
0001
0000
0010
0000
0000
0000
0001
0000
0000
0100
0000
0000
1000
0000
,
0000
0000
0100
0000
0000
0000
0001
0000
1001
0000
0000
1000
0010
0000
0000
0010
,
0100
0000
0001
0000
0010
0000
0000
0000
0001
0000
0000
0001
0100
0000
0000
0100
,
0010
0000
1000
0000
0100
0000
0000
0000
1000
0000
0000
1000
0010
0000
0000
0010
,
0100
0000
0001
0000
0100
0000
0000
0000
0001
0000
0000
0001
0010
0000
0000
0010
,
0100
1000
0100
1000
0002
0000
0000
0000
,
1003
0010
1000
0010
0100
0001
0010
0100
,
0010
0001
1000
0100
0010
0001
0100
1000
,
0100
0001
0010
0001
0000
1000
0100
0010
,
0000
0011
0000
0001
0000
1001
0000
0000
,
0001
0100
0001
0100
0010
1000
0100
0010
,
0100
1000
0001
0010
0100
1000
0010
0001
,
0010
1000
0100
1000
0000
0001
0010
0100
,
1000
0000
0000
0010
0000
0000
1000
0000
0000
0000
1001
0000
0000
0000
0000
0000
,
0002
0000
0203
0000
0310
1000
0010
1000
,
0100
0010
0001
0010
0000
0001
1000
0100
,
0000
1000
0001
0100
0000
0001
1000
0010
,
0000
1000
0001
0010
0100
0010
0100
0000
,
2000
0000
3020
0000
0130
0001
0100
0001
,
0010
0100
1000
0100
0000
1000
0001
0010
,
0000
0001
1000
0010
0000
1000
0001
0100
,
0000
0001
1000
0100
0010
0100
0010
0000
,
0220
0000
0000
0330
,
0001
0000
0100
0001
0000
0100
0001
0000
,
1000
0000
0010
1000
0000
0010
1000
0000
,
0001
0010
0100
1000
0010
0010
0010
0000
,
1001
0000
1000
0010
0100
0010
1000
0010
,
0100
0000
0001
0100
1000
0100
0001
0010
,
0100
0000
1000
0010
1000
0100
1000
0000
,
0001
0000
0000
0010
0000
0000
1000
0000
0000
0000
0010
0000
0000
0000
0001
0000
,
1001
0000
0001
0010
0100
0010
0001
0010
,
0100
0000
1000
0100
0001
0100
1000
0010
,
0100
0000
0001
0010
0001
0100
0001
0000
,
1000
0000
0000
0010
0000
0000
0001
0000
0000
0000
0010
0000
0000
0000
1000
0000
,
1001
0000
0001
0010
1000
0010
0001
1000
,
0100
0000
1000
0010
0001
0010
1000
0001
,
0100
0000
0001
0100
1000
0100
0001
1000
,
0010
0000
0000
1000
0000
0000
0100
0000
0000
0000
0010
0000
0000
0000
0001
0000
,
1001
0000
1000
0010
0100
0001
0010
0100
,
1000
0001
0000
0100
0010
1000
0100
0010
,
0001
0000
1000
0100
0001
0100
0010
0100
,
1000
0000
0000
0010
0000
0000
0001
0000
0000
0000
0010
0000
1000
0000
0000
0000
,
1001
0000
0000
0000
,
0000
0000
0000
0000
;
#NOTES:
     dance-single:
     :
     Hard:
     15:
     :
0000
0000
0000
0000
,
0000
0000
0000
0000
,
0000
0000
0000
0000
,
0000
0000
0000
0000
,
0000
0000
0000
0000
,
1000
0100
1000
0000
0000
0000
0001
0010
0001
0000
0000
0000
0000
0000
0000
0000
,
0000
0000
1000
0001
1000
0000
0000
0000
0001
0100
0010
0000
1000
0100
0010
0000
,
0001
0100
0001
0000
0000
0000
1000
0010
1000
0000
0000
0000
0000
0000
0000
0000
,
0000
0000
0001
1000
0001
0000
0000
0000
1000
0010
0100
0000
0001
0010
0100
0000
,
1000
0000
0000
0000
0010
0000
1000
0000
0000
0000
1000
0000
0100
0000
0100
0010
,
0001
0000
0000
0000
0010
0000
0001
0000
0000
0000
0001
0000
0100
0000
0100
0010
,
1000
0000
0000
0000
0001
0000
0010
0000
0000
0000
0010
0000
1000
0000
1000
0010
,
0001
0000
0000
0000
1000
0000
0010
0000
0000
0000
0010
0000
0001
0000
0001
0010
,
1000
0000
0000
0000
0001
0100
0010
0100
0001
0000
0010
0000
0100
0000
1000
0000
,
0000
0000
0000
0000
1000
0100
0010
0001
0100
0000
1000
0000
0100
0000
0001
0000
,
0000
0000
0000
0000
1000
0010
0100
0010
1000
0000
0100
0000
0010
0000
0001
0000
,
2000
0000
0000
3200
0000
0000
0302
0000
0000
0000
0203
0000
0000
0000
1300
0000
,
1001
0000
0000
0000
1000
0100
0010
0100
1000
0000
0010
0000
0100
0000
0001
0000
,
0000
0000
0000
0000
0001
0100
0010
1000
0100
0000
0001
0000
0100
0000
1000
0000
,
0000
0000
0000
0000
0001
0010
0100
0010
0001
0000
0100
0000
0010
0000
1000
0000
,
0002
0000
0000
0203
0000
0000
2300
0000
0000
0000
3100
0000
0001
0000
1000
0000
,
0001
1000
0001
1000
0001
1000
0001
1000
0001
0000
0100
0010
1000
0000
0010
0100
,
0001
0000
1000
0100
0010
0000
0110
0000
0000
0000
0001
0100
0010
0000
1000
0010
,
0100
0000
0001
1000
0001
0000
0100
0000
0010
0000
1000
0100
0010
0000
0011
0000
,
0000
0000
0001
0100
0010
0000
1010
0000
0000
0000
1000
0000
0100
0000
0110
0000
,
0000
0000
1001
0000
0000
0000
0000
0000
1000
0000
0010
0100
0001
0000
0100
0010
,
1000
0000
0001
0010
0100
0000
0110
0000
0000
0000
1000
0010
0100
0000
0001
0100
,
0010
0000
1000
0001
1000
0000
0010
0000
0100
0000
0001
0010
0100
0000
1100
0000
,
0000
0000
1000
0010
0100
0000
0101
0000
0000
0000
0001
0000
0010
0000
0110
0000
,
0000
1001
0000
0000
1001
0000
0000
0000
,
0000
0000
0000
0000
0001
0100
0010
1000
0001
0000
0000
0001
0100
0000
0000
0100
,
0010
1000
0001
1000
0010
0000
1000
0100
0010
0000
0000
0010
0001
0000
0000
0001
,
0100
0001
1000
0100
1000
0000
0001
0010
0100
0000
0000
0100
1000
0000
0000
1000
,
0010
0100
0010
1000
0001
0000
0100
0001
1000
0000
0000
1000
0010
0000
0100
0001
,
0010
0001
0010
0001
0010
0000
0001
1000
0001
0000
0000
0001
0100
0000
0010
1000
,
0100
1000
0100
1000
0100
0000
0010
0100
0010
0000
0000
0010
0001
0000
1000
0001
,
1000
0100
1000
0001
1000
0000
0010
1000
0010
0000
0000
0010
0100
0000
0001
1000
,
0001
0100
0001
1000
0001
0000
1000
0001
1000
0000
0100
0000
0100
0000
0000
0000
,
1000
0000
0001
0100
0001
0000
0010
0001
0010
0000
0100
1000
0100
0000
1000
0000
,
0000
1010
0000
0101
0001
0100
0010
1000
,
0100
0010
0001
0010
0001
0000
1000
0000
0000
0000
0001
0100
0010
1000
0010
0000
,
0000
1010
0000
1100
0000
1001
0000
1000
,
0001
0000
0100
0010
0100
0001
0100
0000
0000
0000
0010
1000
0010
0100
0010
0000
,
0000
0000
1000
0100
0010
0001
1000
0001
0100
0000
0100
0000
0010
0000
0000
0000
,
1010
0001
0010
0011
0000
0101
1000
1100
,
0001
0000
0000
0010
0000
0000
0100
0000
0000
0000
0110
0000
0000
0000
0000
0000
,
1001
0000
2000
0000
3100
0001
0100
1000
,
0001
0010
0001
0100
0000
0100
0001
1010
,
0000
1000
0100
0011
0000
0110
0000
1001
,
0000
0001
0010
1000
0001
0100
1000
0001
,
1001
0000
0110
0000
1000
0010
0100
0001
,
0100
1000
0100
0001
0000
0101
1000
1010
,
0000
1100
0001
0011
0000
0110
0000
1001
,
0000
1000
0010
0001
1000
0100
0010
0100
,
0001
0000
0000
0000
,
0000
0000
0000
0000
,
0000
0000
0000
0000
,
0001
0100
0010
1000
0000
0001
0000
0001
1000
0000
1000
0000
0001
0010
0100
1000
,
0001
0000
0000
0000
1000
0010
1000
0010
1000
0000
0001
0010
0100
0000
1000
0000
,
1001
0000
0000
0000
0001
0100
0010
0100
0001
0000
1000
0100
0010
0000
0001
0000
,
1001
0000
0000
0000
1000
0100
1000
0100
1000
0000
0001
0010
0100
0000
1000
0000
,
0010
0000
0100
0001
0000
0100
0010
0000
1000
0000
1010
0000
0000
0000
0001
0000
,
1001
0000
0000
0000
0001
0010
0001
0010
0001
0000
1000
0010
0100
0000
0001
0000
,
1001
0000
0000
0000
1000
0100
0010
0100
1000
0000
0001
0100
0010
0000
1000
0000
,
1001
0000
0000
0000
0001
0100
0001
0100
0001
0000
1000
0010
0100
0000
0001
0000
,
0010
0000
0100
1000
0000
0100
0010
0000
0001
0000
0011
0000
1000
0000
0100
0000
,
1000
0100
1000
0000
0010
1000
0010
1000
0010
0100
0010
0100
0010
0000
1000
0000
,
0001
0000
0000
0000
0010
0001
0010
0001
0010
0100
0010
0100
0010
0000
0001
0000
,
1000
0000
0000
0000
0001
0100
0001
0100
0010
1000
0010
1000
0010
0000
1000
0000
,
0001
0000
0100
0010
0000
1000
0001
0000
1000
0000
0100
0010
0001
0000
0001
0000
,
1000
0000
0000
0000
0001
0100
0010
1000
0001
1000
0010
0100
0001
0000
1000
0000
,
0100
0000
0110
0000
0000
0000
1000
0100
0010
0000
0001
0000
1000
0000
0010
0000
,
1010
0000
0000
0000
1000
0001
0100
0001
1000
0010
0100
0010
1000
0000
0100
0000
,
0010
0000
0001
0010
0000
0100
1000
0000
0010
0100
0010
1000
0001
0100
0010
0000
,
0110
0000
0000
0000
,
0000
0000
0000
0000
;
#NOTES:
     dance-double:
     :
     Easy:
     6:
     :
00000000
00000000
00000000
00000000
,
00000000
00000000
00000000
00000000
,
00000000
00000000
00000000
00000000
,
00000000
00000000
00000000
00000000
,
00000000
00000000
00000000
00000000
,
00000001
00000100
00000001
00000000
,
00001000
00000100
00001000
00000000
,
00000010
00010000
00000010
00000000
,
00010000
00001000
00010000
00000000
,
00011000
00000000
00000000
00000000
,
01000000
00000000
00000000
00000000
,
01100000
00000000
00000000
00000000
,
10010000
00000000
00000000
00000000
,
10000000
01000000
10000000
01000000
,
00100000
00010000
00100000
00000000
,
00001000
00010000
00001000
00010000
,
00000100
00001000
00000010
00000000
,
00001000
00000001
00001000
00000001
,
00000100
00000010
00000100
00000000
,
00000010
00010000
00000010
00010000
,
00001000
00010000
00001000
00000000
,
00000000
00000000
00001000
00100000
,
00010000
00100000
01000000
10000000
,
00100000
00000000
10000000
10000000
,
00010000
00010000
00100000
00001000
,
00011000
00000000
00010000
00010000
,
00000010
00000010
00001000
00000100
,
00000010
00000000
00000001
00000001
,
00000100
00000100
00000010
00001000
,
00000001
00000000
00001001
00000000
,
00000000
00000000
00000001
00000100
,
00001000
00000000
00001000
00010000
,
00001000
00000000
00010000
00100000
,
10000000
00000000
10000000
01000000
,
00100000
00010000
01000000
00001000
,
00010000
00000000
00001000
00010000
,
00000100
00001000
00000001
00000010
,
00000100
00000000
00000110
00000000
,
00000001
00000100
00000010
00001000
,
00010000
01000000
00100000
10000000
,
00010000
00010000
00100000
00100000
,
01000000
00000000
10010000
00000000
,
10000000
01000000
00100000
00010000
,
00001000
00000100
00000010
00000001
,
00001000
00001000
00000010
00000010
,
00000100
00000000
00001001
00000000
,
00000002
00000000
00002003
00000000
,
00003100
00010000
00000100
00000000
,
00010000
00010000
00001000
00001000
,
00100000
00010000
01000000
00000000
,
00020000
00000000
20030000
00000000
,
30100000
10000000
00100000
00000000
,
10000000
10000000
00010000
00010000
,
00100000
00001000
00010000
00000000
,
00022000
00000000
00000000
00000000
,
00000000
00000000
00000000
00000000
,
00033000
00000000
00000000
00000000
,
00000000
00000000
00000000
00000000
,
00010000
00001000
00010000
00000000
,
00000100
00000010
00000100
00000000
,
00001000
00000001
00000010
00001000
,
00010000
00001000
00010000
00000000
,
00001000
00010000
00001000
00000000
,
01000000
00100000
01000000
00000000
,
00010000
10000000
00100000
00010000
,
00001000
00010000
00001000
00000000
,
00010000
00000010
00001000
00000010
,
00000100
00000010
00000001
00000010
,
00000100
00000010
00001000
00000010
,
00010000
00000000
00011000
00000000
,
00001000
00100000
00010000
00100000
,
01000000
00100000
10000000
00100000
,
01000000
00100000
00010000
00100000
,
00001000
00010000
00001000
00000000
,
00011000
00000000
00000000
00000000
,
00000000
00000000
00000000
00000000
;
#NOTES:
     dance-double:
     :
     Medium:
     12:
     :
00000000
00000000
00000000
00000000
,
00000000
00000000
00000000
00000000
,
00000000
00000000
00000000
00000000
,
00000000
00000000
00000000
00000000
,
00000000
00000000
00000000
00000000
,
00000001
00000100
00000000
00000001
00000100
00000000
00000000
00000000
,
00000000
00000001
00001000
00000000
00000100
00010000
00001000
00000000
,
00010000
00001000
00000000
00010000
00001000
00000000
00000000
00000000
,
00000000
00100000
00010000
00000000
01000000
00100000
01000000
00000000
,
10010000
00000000
10000000
01000000
00000000
01000000
00100000
00000000
,
00001000
00000000
00010000
00001000
00000000
00001000
01000000
00000000
,
00010000
00000000
00100000
00001000
00000000
00001000
00010000
00000000
,
00000010
00000000
00001000
00000100
00000000
00000100
00000010
00000000
,
00001001
00000000
00000001
00000100
00000010
00001000
00000010
00000000
,
00010000
00000000
00001000
01000000
00010000
00100000
00010000
00000000
,
10000000
00000000
00010000
00100000
10000000
00100000
00010000
00000000
,
10000000
00000000
00000000
01000000
00000000
00000000
00100000
00000000
00000000
00000000
00001000
00000000
00000000
00000000
00010000
00000000
,
00011000
00000000
00001000
00010000
00000010
00010000
00001000
00000000
,
00000010
00000000
00000100
00001000
00000010
00000100
00000001
00000000
,
00001000
00000000
00000001
00000010
00000001
00000010
00001000
00010000
,
00001000
00000000
00000000
00010000
00000000
00000000
01000000
00000000
00000000
00000000
10000000
00000000
00000000
00000000
00010000
00000000
,
10010000
00000000
00000000
00000000
10000000
01000000
00010000
00000000
,
00001000
00000010
00000001
00001000
00000000
00000110
00000000
00000001
,
00001000
00000001
00000010
00000000
00000001
00000100
00000001
00000100
,
00001000
00000100
00000001
00001000
00000000
00000100
00010000
00001000
,
00000000
00000010
00000110
00000000
00000001
00000100
00001000
00000000
,
00010000
00100000
10000000
00010000
00000000
01100000
00000000
10000000
,
00010000
10000000
00100000
00000000
10000000
01000000
10000000
01000000
,
00010000
01000000
10000000
00010000
00000000
01000000
00001000
00010000
,
00000000
00100000
01100000
00000000
20020000
00000000
00000000
00000000
,
00000000
00000000
00000000
00000000
30030000
00000000
00000000
00000000
10000000
00000000
00000000
10000000
01000000
00000000
00000000
01000000
,
00010000
00000000
00001000
00000000
00010000
00000000
00000000
00000000
00001000
00000000
00000000
00001000
00000010
00000000
00000000
00000010
,
00000001
00000000
00001000
00000000
00000001
00000000
00000000
00000000
00000100
00000000
00000000
00001000
00000000
00000000
00010000
00000000
,
00000000
00000000
00001000
00000000
00000000
00000000
00000010
00000000
00000011
00000000
00000000
00000001
00000100
00000000
00000000
00000100
,
00001000
00000000
00010000
00000000
00001000
00000000
00000000
00000000
00010000
00000000
00000000
00010000
00100000
00000000
00000000
00100000
,
10000000
00000000
00010000
00000000
10000000
00000000
00000000
00000000
10000000
00000000
00000000
10000000
01000000
00000000
00000000
01000000
,
00100000
00000000
00001000
00000000
00010000
00000000
00000000
00000000
00001000
00000000
00000000
00001000
00000010
00000000
00000000
00000010
,
00000001
00001000
00000100
00000010
00000002
00000000
00000000
00000000
,
00001003
00000100
00001000
00000100
00000010
00001000
00000010
00001000
,
00010000
00001000
00100000
00010000
01000000
00100000
10000000
00000000
,
00010000
01000000
10000000
01000000
00000000
00001000
00010000
01000000
,
00000000
00010000
00001000
00000010
00000000
00000110
00000000
00000000
,
00000001
00000010
00000001
00000010
00000100
00010000
00000100
00010000
,
00001000
00100000
00001000
00100000
00010000
01000000
00100000
00000000
,
10000000
00100000
00010000
00100000
00000000
10000000
01000000
00100000
,
00010000
00000000
00000000
00001000
00000000
00000000
00000100
00000000
00000000
00000000
00000010
00000000
00000001
00000000
00000000
00000000
,
00000002
00000000
00000203
00000000
00001300
00000100
00000010
00010000
,
00001000
00010000
00100000
01000000
00000000
00100000
10000000
01000000
,
00000000
00100000
00010000
01000000
00000000
00100000
10000000
01000000
,
00000000
00010000
00001000
00000010
00001000
00010000
00100000
00000000
,
20000000
00000000
32000000
00000000
03010000
01000000
00100000
00001000
,
00010000
00001000
00000010
00000100
00000000
00000010
00000001
00000100
,
00000000
00000010
00001000
00000100
00000000
00000010
00000001
00000100
,
00000000
00001000
00010000
00100000
00010000
00001000
00000010
00000000
,
00000220
00000000
00000000
00000330
,
00000001
00000000
00001000
00000010
00000000
00001000
00000010
00000000
,
00010000
00000000
00001000
00010000
00000000
00001000
00010000
00000000
,
00001000
01000000
00010000
01000000
00100000
00100000
00100000
00000000
,
10010000
00000000
10000000
01000000
00010000
00001000
00100000
00000000
,
01100000
00000000
10000000
00100000
00010000
00001000
00010000
00000000
,
00011000
00000000
00001000
00010000
00000100
00001000
00000100
00000010
,
00000001
00000000
00000000
00000100
00000000
00000000
00000001
00000000
00000000
00000000
00000010
00000000
00000000
00000000
00000100
00000000
,
00000110
00000000
00000001
00000100
00001000
00010000
00000010
00000000
,
00000110
00000000
00000001
00000010
00001000
00010000
00001000
00000000
,
00011000
00000000
00010000
00001000
01000000
00010000
01000000
00100000
,
10000000
00000000
00000000
01000000
00000000
00000000
10000000
00000000
00000000
00000000
00100000
00000000
00000000
00000000
01000000
00000000
,
01100000
00000000
10000000
01000000
00100000
00010000
00100000
00010000
,
00001000
00000000
00000100
00000010
00000001
00000100
00000010
00001000
,
00000001
00000000
00000001
00000100
00000001
00000100
00000010
00001000
,
00010000
00000000
00000000
01000000
00000000
00000000
00010000
00000000
00000000
00000000
00100000
00000000
00000000
00000000
01000000
00000000
,
10010000
00000000
10000000
00100000
01000000
00010000
00100000
01000000
,
10000000
01000000
00000000
00010000
00001000
00010000
00000100
00001000
,
00000010
00000000
00001000
00000100
00000001
00000100
00001000
00000001
,
00000100
00000000
00000000
00001000
00000000
00000000
00010000
00000000
00000000
00000000
00100000
00000000
01000000
00000000
00000000
00000000
,
01100000
00000000
00000000
00000000
,
00000000
00000000
00000000
00000000
;
#NOTES:
     dance-double:
     :
     Hard:
     15:
     :
00000000
00000000
00000000
00000000
,
00000000
00000000
00000000
00000000
,
00000000
00000000
00000000
00000000
,
00000000
00000000
00000000
00000000
,
00000000
00000000
00000000
00000000
,
00001000
00010000
00001000
00000000
00000000
00000000
00010000
00001000
00010000
00000000
00000000
00000000
00000000
00000000
00000000
00000000
,
00001000
00000000
00010000
00000000
00100000
00000000
10000000
00000000
01000000
00100000
00010000
00000000
01000000
00100000
10000000
00000000
,
01000000
00100000
01000000
00000000
00000000
00000000
10000000
00010000
10000000
00000000
00000000
00000000
00000000
00000000
00000000
00000000
,
10000000
00000000
01000000
00000000
00010000
00000000
00001000
00000000
00000010
00000100
00001000
00000000
00000001
00000010
00000100
00000000
,
00001000
00000000
00000001
00000100
00000000
00000100
00001000
00011000
,
00010000
00000000
00001000
00010000
00000000
00010000
00100000
01100000
,
01000000
00000000
00010000
10000000
00000000
10000000
01000000
01100000
,
00100000
00000000
00100000
00001000
00000000
00001000
00011000
00010000
,
00000100
00000000
00000000
00000000
00001000
00000001
00000010
00000001
00001000
00000000
00000001
00000000
00000100
00000000
00001000
00000000
,
00010000
00000000
00000000
00000000
00001000
00010000
00001000
00100000
00001000
00000000
00010000
00000000
00100000
00000000
10000000
00000000
,
00010000
00000000
00000000
00000000
10000000
01000000
00100000
01000000
10000000
00000000
00100000
00000000
01000000
00000000
00100000
00000000
,
00020000
00000000
00000000
00032000
00000000
00000000
00003020
00000000
00000000
00000000
00000230
00000000
00000000
00000000
00001300
00000000
,
00001001
00000000
00000000
00000000
00000001
00001000
00000100
00001000
00000001
00000000
00000010
00000000
00001000
00000000
00010000
00000000
,
00001000
00000000
00000000
00000000
01000000
00010000
01000000
00001000
01000000
00000000
00010000
00000000
00100000
00000000
01000000
00000000
,
10000000
00000000
00000000
00000000
00010000
01000000
00100000
01000000
00010000
00000000
10000000
00000000
00100000
00000000
00010000
00000000
,
00002000
00000000
00000000
00003200
00000000
00000000
00000320
00000000
00000000
00000000
00001030
00000000
00000100
00000000
00000010
00000000
,
00000002
00000000
00000000
00000000
00000003
00000000
00000000
00000000
00000001
00000000
00000010
00000100
00001000
00000000
00000001
00000100
,
00000010
00000000
00001000
00000100
00010000
00000000
00001000
00000000
00010000
00000000
00100000
00000000
01000000
00000000
00001000
00000000
,
00010000
01000000
00100000
00010000
10000000
01000000
00010000
01000000
,
00000000
00000000
10000000
00100000
01000000
00000000
01010000
00000000
00000000
00000000
00110000
00000000
00100000
00000000
00001000
00000000
,
00000000
00000000
00011000
00000000
00000000
00000000
00000000
00000000
00010000
00000000
00000100
00001000
00000010
00000000
00000100
00000001
,
00000010
00000000
00000100
00010000
00001000
00000000
00000100
00000000
00001000
00000000
00010000
00000000
00100000
00000000
10000000
00000000
,
00010000
00000000
01000000
10000000
01000000
00000000
00010000
00000000
00100000
00000000
00001000
00000000
00010000
00000000
00000100
00000000
,
00000000
00000000
00001000
00000010
00000100
00000000
00000101
00000000
00000000
00000000
00000011
00000000
00000001
00000000
00001000
00000000
,
00000000
00000001
00000100
00001000
00011000
00000000
00000000
00000000
,
00000000
00000000
00000000
00000000
00001000
00010000
00001000
00010000
00001000
00000000
00000000
00001000
00100000
00000000
00000000
00100000
,
00010000
01000000
00100000
01000000
00010000
00000000
10000000
01000000
10000000
00000000
00000000
10000000
01000000
00000000
00000000
01000000
,
00010000
00001000
00100000
00001000
00010000
00000000
00000100
00001000
00000001
00000000
00000000
00000001
00000100
00000000
00000000
00000100
,
00000010
00001000
00000010
00000100
00000001
00000000
00000010
00000100
00000010
00000000
00000000
00000010
00000001
00000000
00000000
00000001
,
00001000
00000100
00001000
00000100
00001000
00000000
00000100
00010000
00000100
00000000
00000000
00000100
00010000
00000000
00000000
00010000
,
00001000
01000000
00001000
01000000
00001000
00000000
00100000
00010000
00100000
00000000
00000000
00100000
00010000
00000000
00000000
00010000
,
01000000
00100000
01000000
00010000
01000000
00000000
00100000
10000000
00100000
00000000
00000000
00100000
10000000
00000000
01000000
00100000
,
00010000
00100000
00001000
00100000
00010000
00000000
10000000
00010000
10000000
00000000
01000000
00000000
01000000
00000000
00000000
00000000
,
10000000
00000000
01000000
00000000
00010000
00000000
00001000
00000000
00000010
00000000
00000001
00001000
00000100
00000000
00000110
00000000
,
00000000
00000000
00000001
00000100
00000001
00000000
00001000
00000010
00001000
00000000
00000001
00000010
00000100
00000000
00001000
00000000
,
00000010
00000100
00001000
00010000
00100000
01000000
00001000
00010000
,
00000100
00001000
00000100
00000010
00000000
00000110
00000000
00000000
,
00000001
00000000
00000100
00000000
00001000
00000000
00010000
00000000
00000000
00000000
00100000
10000000
01000000
00000000
01100000
00000000
,
00000000
00000000
10000000
01000000
10000000
00000000
00010000
00100000
00010000
00000000
10000000
00100000
01000000
00000000
00010000
00000000
,
00100000
01000000
00010000
00001000
00000010
00000100
00010000
00001000
,
01000000
00000000
00000000
00010000
00000000
00000000
00100000
00000000
00000000
00000000
01100000
00000000
00000000
00000000
00000000
00000000
,
10010000
00000000
20000000
00000000
31000000
01000000
00010000
00010000
,
00001000
00000010
00001000
00000010
00000000
00000001
00000100
00001000
,
00000000
00000001
00000010
00001000
00000000
00000001
00000100
00001000
,
00000000
00010000
00100000
10000000
00100000
01000000
00001000
00010000
,
01000000
00000000
01100000
00000000
10000000
10000000
00010000
00010000
,
00100000
00001000
00000010
00001000
00000000
00001000
00010000
00001000
,
00000000
00000100
00000001
00000100
00000000
00000001
00000010
00001000
,
00000000
00011000
00000000
00010000
00100000
00100000
10000000
10000000
,
00010000
00000000
00000000
00000000
,
00000000
00000000
00000000
00000000
,
00000000
00000000
00000000
00000000
,
10000000
01000000
00100000
00010000
00000000
01000000
00000000
01000000
00001000
00000000
00001000
00000000
00010000
00000100
00001000
00000100
,
00000010
00000000
00000000
00000000
00000001
00001000
00000001
00001000
00000001
00000000
00000100
00000010
00001000
00000000
00000100
00000000
,
00010100
00000000
00000000
00000000
00010000
00001000
00010000
00000100
00010000
00000000
00001000
01000000
00010000
00000000
00100000
00000000
,
01100000
00000000
00000000
00000000
10000000
01000000
10000000
01000000
10000000
00000000
01000000
00000000
00010000
00000000
00001000
00000000
,
00010000
00000000
00000000
00100000
00000000
00000000
00010000
00000000
00000000
00000000
00001000
00000000
00000100
00000000
00000001
00000000
,
00001001
00000000
00000000
00000000
00000001
00000100
00000010
00001000
00000001
00000000
00000010
00000100
00001000
00000000
00000010
00000000
,
00010010
00000000
00000000
00000000
00010000
00001000
00010000
00000010
00010000
00000000
00001000
00100000
00010000
00000000
01000000
00000000
,
01100000
00000000
00000000
00000000
10000000
00100000
01000000
00100000
10000000
00000000
00100000
00000000
00010000
00000000
00001000
00000000
,
00010000
00000000
01000000
00010000
00000000
00001000
00010000
00000000
00000000
00000000
00001000
00000000
00000010
00000000
00000001
00000000
,
00001000
00000010
00000100
00000000
00000001
00001000
00000001
00001000
00000100
00001000
00000100
00000000
00010000
00000000
00001000
00000000
,
00011000
00000000
00000000
00000000
00100000
00001000
00100000
00001000
01000000
00010000
01000000
00000000
00010000
00000000
00100000
00000000
,
01000000
00000000
00000000
00000000
10000000
00100000
10000000
00100000
01000000
00100000
01000000
00000000
00010000
00000000
00100000
00000000
,
10000000
00000000
00100000
00010000
00000000
00100000
00001000
00000000
00010000
00000000
00001000
00000010
00000100
00000000
00001000
00000000
,
00001001
00000000
00000000
00000000
00000001
00000100
00000010
00000100
00000001
00001000
00000100
00001000
00000100
00000000
00010000
00000000
,
00001000
00000000
00011000
00000000
00000000
00000000
00010000
00100000
10000000
00000000
00010000
00000000
01000000
00000000
00100000
00000000
,
01100000
00000000
00000000
00000000
10000000
01000000
00100000
01000000
10000000
00010000
00100000
00010000
00100000
00000000
00001000
00000000
,
00010000
00000000
00000100
00001000
00000000
00000100
00000010
00000000
00000001
00000000
00000100
00001000
00010000
00001000
00010000
00000000
,
00011000
00000000
00000000
00000000
,
00000000
00000000
00000000
00000000
;
