
//----- song ID: inwo -----//
#TITLE:INFINITE WORLD;
#ARTIST:SOUND HOLIC feat. Nana Takahashi;
#BANNER:INFINITE WORLD.png;
#BACKGROUND:INFINITE WORLD-bg.png;
#CDTITLE:./CDTitles/BeatStream.png;
#MUSIC:INFINITE WORLD.ogg;
#SAMPLESTART:59.642;
#SAMPLELENGTH:15;
#BPMS:0=167;
#NOTES:
     dance-single:
     :
     Beginner:
     3:
     :
0000
0000
0000
0000
,
0000
0000
0000
0000
,
1001
0000
0000
0000
,
0000
0000
0000
0000
,
2000
0000
3000
0000
,
0010
0000
0100
0000
,
0010
0000
0000
0000
,
1000
0000
0001
0000
,
1000
0000
0001
0000
,
0100
0000
0001
0000
,
0100
0000
0010
0000
,
0100
0000
0000
0000
,
0001
0000
1000
0000
,
0001
0000
1000
0000
,
0100
0000
1000
0000
,
0010
0000
0100
0000
,
0010
0000
1000
0000
,
1001
0000
0000
0000
,
0001
0000
0001
0000
,
0100
0000
0000
0000
,
0010
0000
0010
0000
,
1000
0000
0000
0000
,
0100
0000
0100
0000
,
0010
0000
0000
0000
,
0110
0000
0000
0000
,
1001
0000
0000
0000
,
0001
0000
0000
0000
,
0100
0000
0010
0000
,
0200
0000
0300
0000
,
0001
0000
1000
0000
,
0001
0000
0000
0000
,
0010
0000
0100
0000
,
0020
0000
0030
0000
,
0001
0000
1000
0000
,
0100
0000
1000
0000
,
0100
0000
0000
0000
,
1000
0000
0010
0000
,
1000
0000
0000
0000
,
0001
0000
0010
0000
,
0001
0000
0000
0000
,
0100
0000
0010
0000
,
0110
0000
0000
0000
,
1000
0000
0010
0000
,
2000
0000
3000
0000
,
0002
0000
0003
0000
,
0100
0000
0010
0000
,
0110
0000
0000
0000
,
1001
0000
0000
0000
,
0001
0000
1000
0000
,
1001
0000
0000
0000
,
0001
0000
0010
0000
,
0002
0000
0003
0000
,
2000
0000
3000
0000
,
0100
0000
0010
0000
,
0110
0000
0000
0000
,
1001
0000
0000
0000
,
1000
0000
0001
0000
,
1001
0000
0000
0000
,
1000
0000
0001
0000
,
1000
0000
0001
0000
,
0100
0000
0010
0000
,
0100
0000
0010
0000
,
1000
0000
0001
0000
,
1000
0000
0001
0000
,
0100
0000
0000
0000
,
0010
0000
0100
0000
,
0001
0000
1000
0000
,
0001
0000
1000
0000
,
0010
0000
0100
0000
,
0010
0000
0100
0000
,
0001
0000
1000
0000
,
0001
0000
1000
0000
,
0010
0000
0100
0000
,
0110
0000
0000
0000
,
1000
0000
0010
0000
,
1000
0000
0010
0000
,
0100
0000
0000
0000
,
0001
0000
0010
0000
,
0001
0000
1000
0000
,
0010
0000
0100
0000
,
0001
0000
0000
0000
,
1000
0000
0001
0000
,
1001
0000
0000
0000
,
0000
0000
0000
0000
;
#NOTES:
     dance-single:
     :
     Easy:
     5:
     :
0000
0000
0000
0000
,
0000
0000
0000
0000
,
0110
0000
0000
0000
,
0001
0000
1000
0000
,
2002
0000
0000
3003
,
0001
0100
0001
0100
,
0010
1000
0010
0000
,
1000
0100
1000
0100
,
0010
0001
0010
0000
,
0110
0000
1001
0000
,
1000
0010
1000
0010
,
0100
0001
0100
0000
,
0001
0010
0001
0010
,
0100
1000
0100
0000
,
1000
0001
0100
0001
,
1000
0100
0010
0000
,
0100
0000
0110
0000
,
0001
1000
1001
0000
,
0001
0100
0001
0000
,
1000
0010
1000
0010
,
0100
0010
0100
0000
,
0010
0001
0010
0001
,
0100
0010
0100
0000
,
0010
1000
0010
1000
,
0001
0000
0100
0000
,
0010
0000
1001
0000
,
1000
0000
0010
0000
,
0100
0100
0001
1000
,
0002
0000
0000
0003
,
0100
0010
0100
0000
,
0001
0000
0100
0000
,
0010
0010
1000
0001
,
2000
0000
0000
3000
,
0100
0010
0100
0000
,
2000
3000
0002
0003
,
0100
0010
0100
0000
,
0001
0000
0010
0000
,
0200
0000
0300
0000
,
0020
0030
0200
0300
,
1000
0001
1000
0010
,
0110
0000
0110
0000
,
1001
0000
0000
0000
,
0001
0010
0001
1000
,
0020
0030
0200
0300
,
0002
0000
0000
0000
,
0003
1000
0010
0000
,
0100
0001
0001
0000
,
1000
0100
0100
0000
,
1000
1000
0001
0001
,
0100
0010
0010
0000
,
1000
0100
1000
0001
,
0200
0300
0020
0030
,
2000
0000
0000
0000
,
3000
0001
0100
0000
,
0010
1000
1000
0000
,
0001
0010
0010
0000
,
0001
0001
1000
1000
,
0001
0100
0010
0000
,
0000
0110
0110
0000
,
1000
0001
1001
1001
,
0000
1001
1001
0000
,
0100
0010
0110
0110
,
0000
0110
0110
0000
,
0001
1000
1001
1001
,
0001
0000
0100
0000
,
0010
0010
1000
0001
,
0000
1001
1001
0000
,
0010
0100
0110
0110
,
0000
0110
0110
0000
,
1000
0001
1001
1001
,
0000
1001
1001
0000
,
0100
0010
0110
0110
,
0001
1000
0100
0010
,
0001
0000
1000
0000
,
0001
0100
0001
0000
,
1000
0010
1000
0000
,
0001
0010
0001
0000
,
1000
0100
1000
0000
,
0001
0001
1000
1000
,
0100
0100
0010
0010
,
0001
0000
1001
0000
,
0100
0000
0110
0000
,
1001
0000
0000
0000
,
0000
0000
0000
0000
;
#NOTES:
     dance-single:
     :
     Medium:
     11:
     :
0000
0000
0000
0000
,
0000
0000
0000
0000
,
1001
0000
0000
0000
0000
0000
0000
0001
,
0000
0100
0000
0110
0000
1010
0000
2002
,
0000
0000
0000
3003
,
1000
0000
0100
0000
0010
0001
0010
0000
,
0001
0000
1000
0000
0010
0100
0010
0000
,
1000
0100
1000
0000
0100
0010
0100
0000
,
0010
0001
1000
0000
0010
0100
0001
0000
,
1000
0001
1000
0000
0100
0010
0100
0000
,
1000
0000
0010
0000
1000
0100
1000
0001
,
0000
0100
0000
0110
0000
1001
0000
1000
,
0100
0000
0010
0000
0001
1000
0010
0000
,
0100
0000
0010
0000
1000
0100
0010
0000
,
0001
0000
0100
0000
0010
1000
0001
0000
,
1000
0100
1000
0000
0001
0100
0001
0000
,
1000
0010
0100
0000
0001
0010
0100
1000
,
0000
1001
0000
0110
0000
1000
0001
0000
,
1000
0010
1000
0000
0100
0000
0010
0001
,
1000
0001
0100
0000
0010
1000
0010
0000
,
0100
0001
0100
0000
0010
0000
1000
0100
,
1000
0001
0100
0000
0001
0010
0001
0000
,
0010
0100
0010
0000
0001
0000
0100
0010
,
1000
0000
0100
0000
1000
0000
0000
0000
0001
0000
0000
0100
0000
0000
0001
0000
,
1000
0000
0010
0000
0000
1000
0000
0000
0001
0000
0000
0100
0000
0000
0010
0000
,
1000
0000
0100
0000
0000
1000
0000
0000
0001
0000
0000
0100
0000
0000
0010
0000
,
1000
0001
0100
0000
0001
0010
0000
0011
,
0000
1010
0000
1100
0000
0101
0000
2001
,
0000
3010
0100
0010
0010
0200
0000
0301
,
0010
0100
1000
0001
0001
2000
0000
0000
,
3001
1000
0010
0000
1000
0100
0000
1100
,
0000
0101
0000
0011
0000
1010
0000
1002
,
0000
0103
0010
0100
0100
0020
0000
1030
,
0100
0010
0001
1000
0001
0100
0100
0000
,
0020
0000
1030
0001
0020
0000
0031
1000
,
0010
0000
1000
0000
0001
0000
0010
0000
0100
0000
0000
1000
0000
0000
0001
0000
,
0000
0000
0100
0000
0010
0000
0000
0000
0100
0000
0000
0001
0000
0000
1000
0000
,
0002
0000
0010
0000
0103
0000
1000
0001
,
0200
0000
0301
1000
0200
0000
1300
0001
,
0100
0001
1000
0100
0010
0000
0110
0000
,
1001
0000
0000
0010
0000
0000
0100
0000
0110
0000
0000
0001
0000
0000
1000
0000
,
1001
0000
0000
0000
,
0001
0100
0010
0010
0100
0000
0002
0000
,
2003
3200
0320
0032
,
0103
0010
0100
0002
0010
0000
1000
0000
,
0103
0001
0100
0010
0100
0001
0000
1002
,
0000
0013
0100
1000
0100
0000
0000
2001
,
0000
3010
0100
0001
1000
0000
0000
1002
,
0000
0013
0001
1000
0100
1000
0001
0100
,
0001
1000
0010
0000
0100
0001
0100
0001
,
1000
0010
0100
0100
0010
0000
2000
0000
,
3002
0023
0230
2300
,
3010
0100
0010
2000
0100
0000
0001
0000
,
3010
1000
0010
0100
0010
1000
0000
2001
,
0000
3100
0010
0001
0010
0000
0000
1002
,
0000
0103
0010
1000
0001
0000
0000
2001
,
0000
3100
1000
0001
0010
0001
1000
0010
,
1000
0001
0100
0000
0010
0100
0001
0100
,
0010
0000
1000
0010
1000
0000
0000
0001
,
0010
0001
0000
0100
0010
0100
0110
0000
,
1000
0000
0001
0100
0001
0000
0000
1000
,
0100
1000
0000
0010
0100
0010
0110
0000
,
0001
0000
1000
0100
1000
0000
0000
0001
,
0100
0001
0000
0100
0010
0100
0110
0000
,
0001
0000
1000
0010
0000
0100
0010
0000
,
1000
0001
0100
0001
0100
0010
1000
0000
,
0001
0000
0010
0100
0010
0000
0000
0001
,
0010
0001
0000
1000
0010
1000
1010
0000
,
0001
0000
0100
0010
0100
0000
0000
0001
,
0100
0001
0000
1000
0100
1000
1100
0000
,
1000
0000
0100
0010
0100
0000
0000
1000
,
0010
1000
0000
0001
0010
0001
0011
0000
,
1000
0010
1000
0010
0100
0001
1000
0001
,
1000
0100
0010
0001
0100
0010
0100
0000
,
0001
0010
0100
1000
,
1100
0000
0101
0000
1001
0000
1000
0010
,
2000
0000
3010
0000
0101
0000
1000
0002
,
0000
0013
0100
0010
0000
0001
0200
0000
,
0310
1000
0010
0100
0001
0100
0010
1000
,
0001
0000
0000
0010
0000
0000
0001
0000
0100
0000
0000
0001
0000
0000
1000
0000
,
0100
0000
0010
0000
0000
0001
0000
0000
1000
0000
0000
0010
0000
0000
0100
0000
,
0010
0000
1000
0000
0001
0100
0000
0000
0001
0000
0000
0010
0000
0000
0100
0000
,
1000
0000
0000
0000
,
0000
0000
0000
0000
;
#NOTES:
     dance-single:
     :
     Hard:
     14:
     :
0000
0000
0000
0000
,
0000
0000
0000
0000
,
1001
0000
0000
0000
0000
0000
0000
1010
,
0000
0101
0000
0011
0000
1100
0000
1001
,
0000
1000
0100
0010
0001
0100
0010
1000
,
0001
1000
0100
0010
0100
1000
0001
0100
,
0001
1000
0100
1000
0001
0010
0100
1000
,
0001
0010
1000
0010
0100
0001
0100
1000
,
0001
0100
1000
0001
1000
0100
0010
1000
,
0002
0000
0103
0010
0100
0000
0000
0000
2000
0000
3010
0100
0010
0000
0000
0000
,
0001
1000
0100
0010
0001
0100
0010
1000
,
0001
0010
0001
1000
0100
1000
0010
0100
,
0010
0100
0001
0010
0100
1000
0010
0100
,
0001
0100
0010
0100
0001
0010
0100
1000
,
0001
0100
1000
0100
0010
0001
0010
1000
,
0001
0100
0001
0010
1000
0001
0100
1000
,
0001
1000
0100
1000
0001
0100
0001
1001
,
0000
0000
0110
0000
0000
0000
0010
1000
0010
0000
1000
0000
0100
0000
0000
0000
,
0010
0001
0011
0000
1001
0000
1000
0010
,
1000
0001
0100
0001
1000
0100
0010
0001
,
1000
0010
1010
0000
1001
0000
0001
0100
,
0001
0000
1000
0000
0100
0000
1000
0000
0010
0100
0010
0000
0100
0000
0100
0000
,
0001
0000
1000
0010
1000
0000
0010
0100
0010
0000
1000
0000
0100
0000
0010
0000
,
0100
0000
1000
0000
0001
0000
0100
0000
0010
0000
1000
0010
0000
0100
0001
0000
,
1000
0000
0100
0000
0010
0001
0000
1000
0010
0000
1000
0001
0000
0100
0001
0000
,
1000
0000
0100
1000
0001
1000
0000
0001
0010
0000
0100
1000
0000
0001
0100
0000
,
0001
1000
0100
0010
0001
1000
0000
1001
,
0000
0110
0000
0101
0000
1100
0000
0012
,
0000
0000
1003
0000
0100
0000
0010
0001
0010
0000
0002
0000
0000
0000
0103
0000
,
0010
0000
0100
0000
0001
0000
1000
0010
1000
0000
0001
0000
0010
0000
0100
0000
,
1000
0001
0100
0010
1000
0001
0000
1001
,
0000
0110
0000
1010
0000
0011
0000
2100
,
0000
0000
3001
0000
0010
0000
0100
1000
0100
0000
2000
0000
0000
0000
3001
0000
,
0100
0000
0010
0000
1000
0000
0100
0000
1000
0000
0001
0100
0001
0000
0100
0010
,
0200
0001
0301
1000
0200
0010
0310
0001
,
1000
0000
0001
0000
0010
0000
0100
0000
1000
0000
0000
1010
0000
0000
1001
0000
,
0000
0000
0001
0000
0100
0000
1000
0000
0100
0000
0000
0110
0000
0000
0101
0000
,
0001
0100
0010
1000
0001
1000
0100
0010
,
0200
1000
1300
0001
0200
0010
0310
1000
,
0001
1000
0100
0010
0001
0000
1100
0000
,
1001
0000
0000
0101
0000
0000
0110
0000
1010
0000
0000
1001
0000
0000
0011
0000
,
0110
0000
0000
0000
,
1000
0000
0001
0000
0100
0010
0100
0000
0001
0000
0010
0000
0002
0000
0103
0000
,
0020
1030
0200
0301
2000
3010
0002
1003
,
0001
0000
0010
0000
0100
0000
1000
0000
0001
0000
0100
0000
0010
0100
0010
0000
,
1000
0001
1000
0010
0100
0001
0000
2010
,
0000
3100
0010
0001
0100
0010
0010
0102
,
0000
0013
0100
1000
0010
0100
0100
1020
,
0000
0130
0001
0010
0001
0100
0010
1000
,
0100
0000
0001
0000
0100
0000
1000
0000
0010
0000
1000
0010
1000
0000
0001
0100
,
0001
0000
1000
0000
0010
0100
0010
0000
1000
0000
0100
0000
2000
0000
3010
0000
,
0200
0301
0020
1030
0002
0103
2000
3001
,
1000
0000
0100
0000
0010
0000
0001
0000
1000
0000
0010
0000
0100
0010
0100
0000
,
0001
1000
0001
0100
0010
1000
0000
0102
,
0000
0013
0100
1000
0010
0100
0100
2010
,
0000
3100
0010
0001
0100
0010
0010
0201
,
0000
0310
1000
0100
1000
0010
0100
0001
,
0010
0000
1000
0000
0010
0000
0001
0000
1000
0000
0001
0010
0100
0000
1000
0010
,
0100
0010
1000
0001
1001
0000
1000
0010
,
0100
0110
0000
0001
0010
0100
1001
0000
,
1000
0001
0100
0010
0110
0000
0100
0001
,
1000
1001
0000
0010
1000
0001
0110
0000
,
1000
0100
0010
0001
1001
0000
1000
0010
,
0100
0110
0000
0001
0010
0100
1001
0000
,
1000
0000
0100
0000
0010
0000
0001
0000
1000
0000
0001
0000
0010
0100
1000
0000
,
0001
0000
1000
0000
0010
0000
0100
0000
0001
0000
1000
0010
0000
1000
0010
0000
,
0100
0001
1000
0010
0101
0000
1000
0001
,
0010
1100
0000
1000
0001
0100
1001
0000
,
1000
0001
1000
0100
0011
0000
1000
0001
,
0100
1010
0000
1000
0001
0010
1001
0000
,
0001
1000
0001
0100
1010
0000
0001
1000
,
0100
0011
0000
0001
1000
0010
1001
0000
,
1000
0000
0010
0000
0100
0000
0010
0000
1000
0000
0100
0000
0010
0000
0001
0010
,
0001
0000
0010
0100
0010
0000
0001
0000
0100
0000
0010
1000
0010
0000
1000
0000
,
0001
0100
0010
1000
0001
1000
0001
0100
,
0010
0000
1000
0000
0100
0000
0010
0000
0001
0000
0100
0000
0010
0100
0010
0000
,
1000
0000
0001
0000
1001
0000
0000
0000
1100
0000
0000
0000
0001
0100
0020
0000
,
0000
0000
1030
0000
0100
0010
0100
0000
1000
0010
0100
0000
0002
0000
0000
0000
,
1003
0000
0010
1000
0010
0000
0100
0000
0001
0010
0001
0010
0001
0000
0100
0000
,
0001
0010
0000
1000
0010
0000
0100
0010
0100
0000
1000
0100
0000
0001
0100
0000
,
1000
0000
0010
0000
0100
0001
0000
0100
0010
0000
1000
0100
0000
0010
0001
0000
,
0100
0000
0010
0000
1000
0100
0000
0001
0100
0000
1000
0010
0000
0000
0100
0001
,
1000
0000
0000
0000
,
0000
0000
0000
0000
;
#NOTES:
     dance-double:
     :
     Easy:
     5:
     :
00000000
00000000
00000000
00000000
,
00000000
00000000
00000000
00000000
,
10010000
00000000
00000000
00000000
,
10000000
00000000
00010000
00000000
,
00200000
00000000
00000000
00300000
,
00001000
00010000
00001000
00000000
,
00010000
00000100
00010000
00000000
,
00000100
00001000
00000100
00000000
,
00000010
00000001
00001000
00000000
,
00001001
00000000
00000110
00000000
,
00001000
00000100
00001000
00000000
,
00000100
00010000
00000100
00000000
,
00010000
00001000
00010000
00000000
,
00001000
01000000
00001000
00000000
,
01000000
00010000
10000000
00000000
,
00010000
00100000
00010000
00000000
,
10000000
00000000
01000000
00000000
,
00010000
00001000
00011000
00000000
,
00010000
00000100
00001000
00000000
,
00000001
00000100
00000001
00000100
,
00000010
00010000
00001000
00000000
,
01000000
00010000
01000000
00010000
,
10000000
00100000
01000000
00000000
,
00001000
00010000
00001000
00010000
,
00000010
00000000
00001000
00000000
,
00000001
00000000
00001001
00000000
,
00001000
00000000
00000100
00000000
,
00010000
00010000
00001000
00100000
,
00020000
00000000
00000000
00030000
,
10000000
00100000
10000000
00000000
,
00010000
00000000
00100000
00000000
,
00001000
00001000
00010000
00000100
,
00002000
00000000
00000000
00003000
,
00000001
00000100
00000001
00000000
,
00000200
00000300
00002000
00003000
,
00010000
00001000
00010000
00000000
,
00001000
00000000
00010000
00000000
,
00200000
00000000
00300000
00000000
,
20000000
30000000
00200000
00300000
,
00010000
00001000
00010000
00000000
,
00011000
00000000
00001100
00000000
,
00000110
00000000
00000000
00000000
,
00000001
00001000
00000100
00010000
,
00002000
00003000
00020000
00030000
,
02000000
00000000
00000000
00000000
,
03000000
10000000
00010000
00000000
,
10000000
00100000
00100000
00000000
,
00010000
00001000
00001000
00000000
,
00010000
00010000
00001000
00001000
,
01000000
00010000
00010000
00000000
,
10000000
00010000
00100000
00001000
,
00020000
00030000
00002000
00003000
,
00000020
00000000
00000000
00000000
,
00000030
00000001
00001000
00000000
,
00000001
00000100
00000100
00000000
,
00001000
00010000
00010000
00000000
,
00001000
00001000
00010000
00010000
,
00000100
00001000
00000001
00000000
,
00000000
00001001
00001001
00000000
,
00001000
00000100
00010000
00011000
,
00000000
00011000
00011000
00000000
,
00001000
01000000
00010000
01010000
,
00000000
10010000
10010000
00000000
,
00010000
00100000
00001000
00011000
,
00010000
00000000
00001000
00000000
,
00100000
00100000
00010000
10000000
,
00000000
10010000
10010000
00000000
,
00010000
00100000
00001000
00011000
,
00000000
00011000
00011000
00000000
,
00010000
00000010
00001000
00001010
,
00000000
00001001
00001001
00000000
,
00001000
00000100
00010000
00011000
,
00001000
00010000
00000100
00001000
,
00000001
00000000
00001000
00000000
,
00000100
00010000
00001000
00000000
,
01000000
00010000
10000000
00000000
,
00010000
01000000
00001000
00000000
,
00010000
00000010
00001000
00000000
,
00000001
00000001
00000100
00000100
,
00001000
00001000
00010000
00010000
,
00100000
00000000
01100000
00000000
,
10000000
00000000
00010000
00000000
,
10010000
00000000
00000000
00000000
,
00000000
00000000
00000000
00000000
;
#NOTES:
     dance-double:
     :
     Medium:
     11:
     :
00000000
00000000
00000000
00000000
,
00000000
00000000
00000000
00000000
,
00001001
00000000
00000000
00000000
00000000
00000000
00000000
00000001
,
00000000
00001000
00000000
00000100
00000000
00010000
00000000
00022000
,
00000000
00000000
00000000
00033000
,
00001000
00100000
00010000
10000000
,
01000000
00000000
00100000
00000000
00010000
00100000
00001000
00000000
,
00010000
00000000
00010000
00000000
00000010
00001000
00000010
00000000
,
00000100
00000000
00000001
00000000
00001000
00000100
00010000
00000000
,
00001000
00010000
01000000
00000000
00100000
00010000
10000000
00000000
,
00010000
00000000
01000000
00000000
00100000
10000000
00100000
10000000
,
00000000
00010000
00000000
01000000
00000000
00001000
00000000
00010000
,
00000010
00000000
00001000
00000000
00000001
00000100
00001000
00000000
,
00010000
00100000
10000000
00010000
,
10000000
00000000
01000000
00000000
00010000
00001000
00010000
00000000
,
00000100
00000000
00000100
00000000
00001000
00000001
00000100
00000000
,
00000001
00000010
00001000
00000000
00010000
01000000
10000000
01000000
,
00000000
01100000
00000000
10010000
00000000
10000000
01000000
00000000
,
00010000
00000100
00001000
00000000
00000010
00000000
00001000
00000000
,
00000001
00000100
00000001
00000000
00001000
00000100
00001000
00000000
,
00000010
00010000
00001000
00000000
01000000
00000000
00010000
00000000
,
10000000
00100000
10000000
00000000
00010000
00100000
00010000
00000000
,
10000000
01000000
00010000
00000000
00001000
00000000
00010000
00000000
,
00000010
00000000
00001000
00000000
00000001
00000000
00000000
00000000
00001000
00000000
00000000
00000100
00000000
00000000
00010000
00000000
,
00001000
00000000
00010000
00000000
00000000
01000000
00000000
00000000
10000000
00000000
00000000
00010000
00000000
00000000
01000000
00000000
,
00001000
00000000
00010000
00000000
00000000
00001000
00000000
00000000
00000100
00000000
00000000
00000001
00000000
00000000
00001000
00000000
,
00000001
00000000
00001000
00000000
00000100
00010000
00000000
00011000
,
00000000
00101000
00000000
00110000
00000000
10010000
00000000
21000000
,
00000000
30010000
01000000
00001000
00001000
00020000
00000000
00030010
,
00001000
00000100
00000010
00000001
00000010
00000002
00000000
00000000
,
00001003
00000000
00000100
00000000
00010000
00001000
00000000
01001000
,
00000000
01010000
00000000
00110000
00000000
10100000
00000000
10020000
,
00000000
01030000
00010000
00100000
00100000
00002000
00000000
00013000
,
00001000
00010000
01000000
10000000
00010000
01000000
01000000
00000000
,
00002000
00000000
00013000
00000100
00020000
00000000
00031000
01000000
,
00010000
00000000
01000000
00000000
00001000
00000000
00010000
00000000
00000010
00000000
00000000
00001000
00000000
00000000
00000001
00000000
,
00000000
00000000
00000010
00000000
00001000
00000000
00000000
00000000
00010000
00000000
00000000
00001000
00000000
00000000
00010000
00000000
,
02000000
00000000
00010000
00000000
03100000
00000000
10000000
00100000
,
00020000
00000000
00031000
00000100
00000002
00000000
00001003
00000010
,
00010000
00001000
00100000
00010000
10000000
00000000
10010000
00000000
,
10000000
00000000
00000000
01000000
00000000
00000000
00010000
00000000
00001000
00000000
00000000
00000100
00000000
00000000
00000001
00000000
,
00001001
00000000
00000000
00000000
,
00001000
00000010
00001000
00000010
00010000
00000000
00002000
00000000
,
02003000
03020000
00230000
02300000
,
13000000
00100000
10000000
00020000
00100000
00000000
10000000
00000000
,
01030000
00001000
00010000
00001000
00010000
00000100
00000000
00002000
,
00000000
00003001
00000010
00000100
00001000
00000000
00000000
00020000
,
00000000
00130000
01000000
10000000
00010000
00000000
00000000
20000000
,
00000000
31000000
00010000
00001000
00000010
00000001
00001000
00000001
,
00000100
00000000
00001000
00000000
00010000
00001000
00010000
00001000
,
01000000
00010000
01000000
00010000
10000000
00000000
02000000
00000000
,
03200000
00320000
00032000
00003200
,
00000310
00000001
00001000
00000002
00000010
00000000
00001000
00000000
,
00000103
00000001
00001000
00000100
00001000
00000100
00000000
00020000
,
00000000
00031000
00010000
00100000
00010000
00000000
00000000
00002000
,
00000000
00013000
00001000
00000100
00001000
00000000
00000000
00020000
,
00000000
00031000
00010000
01000000
10000000
00010000
01000000
00100000
,
10000000
00000000
00010000
00000000
00100000
00001000
00010000
00000000
,
00000100
00000000
00001000
00000001
00001000
00000000
00000000
00000001
,
00000010
00000001
00000000
00000100
00000001
00000100
00001000
00000000
,
00010000
00000000
00001000
00010000
00001000
00000000
00000000
01000000
,
00010000
01000000
00000000
00010000
00100000
10000000
00100000
00000000
,
00010000
00000000
10000000
01000000
10000000
00000000
00000000
00010000
,
01000000
00010000
00000000
10000000
00100000
00010000
00001000
00000000
,
00000100
00000000
00000001
00001000
00000000
00000100
00010000
00000000
,
00001000
00100000
00010000
00100000
00010000
01000000
00100000
00000000
,
10000000
00000000
01000000
00100000
01000000
00000000
00000000
00100000
,
00010000
00100000
00000000
00001000
00010000
00001000
00011000
00000000
,
00010000
00000000
00000010
00001000
00000010
00000000
00000000
00001000
,
00000100
00001000
00000000
00000001
00000100
00000001
00000101
00000000
,
00001000
00000000
00000010
00000100
00000010
00000000
00000000
00000100
,
00001000
00000100
00000000
00001000
00010000
00001000
00011000
00000000
,
00100000
00001000
00100000
00010000
10000000
00010000
10000000
01000000
,
10000000
00000000
00100000
00000000
00010000
00001000
00010000
00000000
,
00001000
00000100
00000001
00001000
,
00001100
00000000
00010100
00000000
00011000
00000000
00001000
01000000
,
00020000
00000000
10030000
00000000
11000000
00000000
00010000
00200000
,
00000000
00301000
00010000
00001000
00000000
00010000
00000020
00000000
,
00001030
00000001
00000100
00000001
00001000
00000010
00001000
00000000
,
00000001
00000000
00000000
00000010
00000000
00000000
00001000
00000000
00010000
00000000
00000000
00001000
00000000
00000000
00010000
00000000
,
01000000
00000000
10000000
00000000
00000000
00010000
00000000
00000000
01000000
00000000
00000000
00001000
00000000
00000000
00010000
00000000
,
00000100
00000000
00010000
00000000
00000000
00001000
00000000
00000000
00000100
00000000
00000000
00000001
00000000
00000000
00001000
00000000
,
00000010
00000000
00000000
00000000
,
00000000
00000000
00000000
00000000
;
#NOTES:
     dance-double:
     :
     Hard:
     14:
     :
00000000
00000000
00000000
00000000
,
00000000
00000000
00000000
00000000
,
00011000
00000000
00000000
00000000
00000000
00000000
00000000
00101000
,
00000000
00110000
00000000
11000000
00000000
01100000
00000000
10010000
,
00000000
10000000
01000000
00100000
00010000
00001000
00000100
00001000
,
00000001
00001000
00000100
00000010
00000100
00001000
00010000
00100000
,
01000000
00100000
00010000
10000000
00100000
01000000
00010000
10000000
,
01000000
00010000
00001000
00000010
00000001
00000100
00000010
00001000
,
00000001
00000100
00001000
00010000
00100000
10000000
00010000
00100000
,
00002000
00000000
00013000
00000100
00010000
00000000
00000000
00000000
00020000
00000000
00031000
01000000
00001000
00000000
00000000
00000000
,
00001000
00010000
00000010
00001000
00000100
00000010
00000001
00001000
,
00000001
00000100
00000010
00010000
00001000
00010000
00001000
00100000
,
00010000
01000000
00100000
10000000
01000000
00100000
00010000
01000000
,
00001000
00010000
00000100
00010000
00001000
00000100
00001000
00010000
,
00001000
00100000
00001000
00010000
00100000
00010000
00001000
00010000
,
01000000
10000000
00010000
10000000
00100000
00010000
00001000
00000100
,
00000001
00001000
00000100
00001000
00000010
00010000
00001000
00011000
,
00000000
01001000
00000000
01010000
00000000
00010000
10000000
00000000
,
01000000
00100000
01100000
00000000
00110000
00000000
00100000
00001000
,
00010000
00001000
00010000
00000100
00001000
00000001
00000010
00000001
,
00000100
00000010
00000110
00000000
00001010
00000000
00000010
00010000
,
00001000
00010000
00001000
00100000
00010000
10000000
00010000
00010000
,
10000000
00000000
00100000
01000000
00100000
00000000
01000000
00010000
01000000
00000000
00010000
00000000
10000000
00000000
01000000
00000000
,
00100000
00000000
01000000
00000000
10000000
00000000
00010000
00000000
00100000
00000000
00001000
00010000
00000000
00000010
00001000
00000000
,
00000001
00000000
00000010
00000000
00000100
00001000
00000000
00000001
00000100
00000000
00000010
00000100
00000000
00000010
00001000
00000000
,
00000100
00000000
00010000
00000000
00001000
01000000
00000000
00010000
00100000
00000000
01000000
10000000
00000000
00010000
10000000
00000000
,
00010000
01000000
00100000
10000000
00010000
01000000
00000000
01010000
,
00000000
01001000
00000000
00011000
00000000
00010100
00000000
00002100
,
00000000
00003001
00000100
00000001
00000010
00000200
00000000
00001300
,
00000001
00000000
00000010
00000000
00001000
00000000
00010000
00001000
00010000
00000000
00001000
00000000
00000100
00000000
00000001
00000000
,
00001000
00000001
00000010
00000100
00001000
00000010
00000000
00001010
,
00000000
00010010
00000000
00011000
00000000
00101000
00000000
00120000
,
00000000
10030000
00100000
10000000
01000000
00200000
00000000
00310000
,
10000000
00000000
01000000
00000000
00010000
00000000
00001000
00000000
00010000
00000000
00000100
00001000
00000100
00000000
00000010
00000100
,
00000020
00000001
00000031
00001000
00000020
00010000
00010030
00001000
,
01000000
00000000
00010000
00000000
10000000
00000000
00100000
00000000
10000000
00000000
00000000
01000000
00000000
00000000
00010000
00000000
,
00000000
00000000
00001000
00000000
00010000
00000000
00000010
00000000
00001000
00000000
00000000
00000001
00000000
00000000
00000010
00000000
,
00001000
00010000
00001000
00100000
00010000
10000000
01000000
00100000
,
02000000
10000000
13000000
00010000
02000000
00001000
03001000
00010000
,
00000100
00001000
00000001
00000100
00000001
00000000
00000101
00000000
,
00001001
00000000
00000000
00001100
00000000
00000000
00010100
00000000
00011000
00000000
00000000
00101000
00000000
00000000
00110000
00000000
,
10010000
00000000
00000000
00000000
,
10000000
00000000
00010000
00000000
01000000
00100000
01000000
00000000
00010000
00000000
10000000
00000000
02000000
00000000
03100000
00000000
,
00020000
00031000
00000200
00000310
00000002
00001003
00000020
00000130
,
00000001
00000000
00000010
00000000
00000100
00000000
00001000
00000000
00000001
00000000
00000100
00000000
00000010
00000100
00000010
00000000
,
00001000
00000001
00001000
00000100
00010000
00001000
00000000
00201000
,
00000000
00310000
10000000
00010000
01000000
00001000
00001000
00021000
,
00000000
00030010
00001000
00000001
00000100
00000010
00000010
00001020
,
00000000
00010030
00001000
01000000
00010000
10000000
01000000
10000000
,
01000000
00000000
00010000
00000000
00001000
00000000
00010000
00000000
00000010
00000000
00001000
00000010
00001000
00000000
00000001
00000100
,
00000001
00000000
00001000
00000000
00000010
00000100
00000010
00000000
00001000
00000000
00000001
00000000
00000020
00000000
00000130
00000000
,
00002000
00013000
00200000
01300000
20000000
30010000
02000000
03100000
,
10000000
00000000
01000000
00000000
00100000
00000000
00010000
00000000
10000000
00000000
00100000
00000000
01000000
00100000
01000000
00000000
,
00010000
10000000
00010000
00100000
00001000
00010000
00000000
00010200
,
00000000
00001300
00000001
00001000
00000010
00010000
00010000
00012000
,
00000000
01003000
00010000
10000000
00100000
01000000
01000000
02010000
,
00000000
03001000
00010000
00000010
00001000
00000001
00000010
00000001
,
00000010
00000000
00001000
00000000
00010000
00000000
00001000
00000000
00100000
00000000
00010000
00100000
01000000
00000000
10000000
00100000
,
01000000
00010000
00100000
00001000
00101000
00000000
00100000
00001000
,
00010000
00011000
00000000
00001000
00000100
00000001
00000101
00000000
,
00000100
00000010
00001000
00000010
00010010
00000000
00010000
00001000
,
01000000
01001000
00000000
00001000
00010000
00100000
01100000
00000000
,
00010000
00100000
01000000
10000000
10010000
00000000
00010000
01000000
,
00001000
00011000
00000000
00010000
00000010
00001000
00001001
00000000
,
00001000
00000100
00010000
00000100
00010000
00001000
00100000
00010000
,
10000000
00000000
01000000
00000000
00010000
00000000
00001000
00000000
00000010
00000000
00000001
00001000
00000000
00000010
00001000
00000000
,
00000100
00001000
00000010
00010000
00010010
00000000
00000010
00010000
,
00001000
00011000
00000000
00010000
01000000
10000000
11000000
00000000
,
01000000
00100000
00010000
00100000
00101000
00000000
00001000
00010000
,
00000100
00010100
00000000
00010000
00001000
00000010
00000110
00000000
,
00000001
00000100
00000010
00001000
00001001
00000000
00001000
00000100
,
00010000
00011000
00000000
00001000
00100000
00010000
10010000
00000000
,
10000000
00100000
01000000
00010000
00100000
00001000
00010000
00000010
,
00000100
00000000
00000001
00000010
00000001
00000000
00001000
00000000
00000100
00000000
00010000
00001000
00010000
00000000
00001000
00000000
,
01000000
00010000
10000000
00100000
01000000
00010000
01000000
00001000
,
00010000
00000000
00000010
00000000
00001000
00000000
00000100
00000000
00000010
00000000
00000001
00000000
00000100
00000010
00000100
00000000
,
00000010
00001000
00001010
00000000
00001100
00000000
00000001
00000020
,
00000000
00001030
00010000
00001000
00010000
00100000
20000000
00000000
,
30010000
00000000
01000000
00010000
01000000
00000000
00001000
00000000
00010000
00001000
00010000
00001000
00010000
00000000
00000100
00000000
,
00001000
00000100
00000000
00000010
00000001
00000000
00001000
00000000
00000001
00000000
00000100
00001000
00000000
00010000
00100000
00000000
,
10000000
00000000
00010000
00000000
01000000
00001000
00000000
00010000
00001000
00000000
00000100
00000010
00000000
00001000
00000010
00000000
,
00001000
00000000
00000001
00000000
00000010
00001000
00000000
00010000
01000000
00000000
00010000
00001000
00000000
00000000
00000100
00000000
,
00000001
00000000
00000000
00000000
,
00000000
00000000
00000000
00000000
;
