
//----- song ID: iwuu -----//
#TITLE:I-W-U (I Want U);
#ARTIST:nagomu tamaki;
#BANNER:I-W-U (I Want U).png;
#BACKGROUND:I-W-U (I Want U)-bg.png;
#CDTITLE:./CDTitles/DDR A3.png;
#MUSIC:I-W-U (I Want U).ogg;
#SAMPLESTART:91.201;
#SAMPLELENGTH:15;
#BPMS:0=150;
#STAGE:15;
#NOTES:
     dance-single:
     :
     Beginner:
     3:
     :
0000
0000
0000
0000
,
0000
0000
0000
0000
,
0000
0000
0000
0000
,
0000
0000
0000
0000
,
0000
0000
0000
0000
,
0001
0000
0000
0000
,
1000
0000
0000
0000
,
0001
0000
1000
0000
,
0001
0000
0000
0000
,
0100
0000
0100
0000
,
0010
0000
0010
0000
,
1000
0000
1000
0000
,
1001
0000
0000
0000
,
0001
0000
0001
0000
,
0010
0000
0010
0000
,
0100
0000
0100
0000
,
0110
0000
0000
0000
,
1000
0000
0010
0000
,
1000
0000
0010
0000
,
0100
0000
0001
0000
,
1000
0000
0001
0000
,
0010
0000
0001
0000
,
0010
0000
0001
0000
,
1000
0000
0010
0000
,
2000
0000
3000
0000
,
0001
0000
0001
0000
,
0100
0100
0100
0000
,
0010
0000
0010
0000
,
1000
1000
1000
0000
,
0001
0000
0001
0000
,
0010
0010
0010
0000
,
0001
0000
0001
0000
,
1000
1000
1000
0000
,
0100
0000
0010
0000
,
0100
0100
0100
0000
,
1000
0000
0001
0000
,
1000
1000
1000
0000
,
0010
0000
0100
0000
,
0010
0010
0010
0000
,
0000
0000
0000
0000
,
1001
0000
0000
0000
,
0001
0000
0100
0000
,
0001
0000
0100
0000
,
0010
0000
1000
0000
,
0001
0001
0001
0000
,
1000
0000
0100
0000
,
1000
0000
0100
0000
,
0010
0000
0001
0000
,
1001
0000
0000
0000
,
1000
0000
0010
0000
,
1000
0000
0001
0000
,
0100
0000
0001
0000
,
1000
1000
1000
0000
,
0001
0000
0100
0000
,
0001
0000
1000
0000
,
0010
0000
1000
0000
,
0002
0000
0003
0000
,
1000
0000
1000
0000
,
0010
0010
0010
0000
,
0100
0000
0100
0000
,
0001
0001
0001
0000
,
1000
0000
1000
0000
,
0001
0001
0001
0000
,
0100
0000
0100
0000
,
0010
0010
0010
0000
,
0110
0000
0000
0000
,
0001
0001
0001
0000
,
1000
0000
1000
0000
,
0010
0010
0010
0000
,
0100
0000
0100
0000
,
0001
0001
0001
0000
,
1000
0000
0001
0000
,
1001
0000
0000
0000
,
0110
0000
0000
0000
,
0000
0000
0000
0000
;
#NOTES:
     dance-single:
     :
     Easy:
     7:
     :
0000
0000
0000
0000
,
0000
0000
0000
0000
,
0000
0000
0000
0000
,
0000
0000
0000
0000
,
0000
0000
0000
0000
,
1000
0000
0001
0000
,
1000
0000
0001
0000
,
0100
0010
0100
0010
,
2000
0000
0000
3001
,
0010
0100
0110
0000
,
1000
0001
2002
3003
,
0100
0010
0110
0000
,
0001
0100
0010
2000
,
3010
0100
0110
0000
,
1000
0001
2002
3003
,
0100
0010
0110
0000
,
1000
0100
0020
0230
,
0310
0001
0010
0100
,
1000
0001
0100
0001
,
1000
0100
0010
0100
,
1000
1000
0001
2000
,
3010
0100
0001
0010
,
0001
1000
0100
1000
,
0001
0010
0100
0010
,
0002
0000
0003
0000
,
1000
0010
1000
0000
,
0001
0010
0100
0110
,
0001
0010
0001
0000
,
1000
0100
0010
0110
,
1000
0001
0100
0000
,
0010
1000
0001
1001
,
0001
0100
0010
0000
,
1000
0100
1000
0001
,
0010
0000
0010
0000
0001
0100
0001
0000
,
0100
0010
0100
0000
0110
0000
0000
0000
,
0001
0000
0001
0000
1000
0100
1000
0000
,
0100
0010
0100
0000
0110
0000
0000
0000
,
1000
0000
1000
0000
0001
0100
0001
0000
,
0100
0010
0100
0010
0100
0000
0000
0000
,
0000
0000
0000
0000
,
1001
0000
0110
0000
,
0001
0100
0010
0100
,
0001
1000
0200
1300
,
1000
0010
0100
0010
,
1000
0001
0100
0020
,
1030
0100
0010
0100
,
1000
0001
0200
0301
,
0001
0010
0100
0010
,
0001
0000
1000
0000
0001
0010
0001
0000
,
1000
0000
0010
0000
0100
0010
0100
0000
,
0010
0100
0010
0000
1000
0000
1001
0000
,
0001
0000
0100
0000
0010
0100
0010
0000
,
1000
0100
1000
0000
0001
0100
0001
0000
,
0100
0000
0010
0000
1000
0010
1000
0000
,
0001
0010
0001
0000
0010
0000
0100
0000
,
1000
0000
0010
0000
0100
0010
0100
0000
,
0002
0000
2003
3002
,
0103
0010
0100
0001
,
1000
0000
0100
0000
0010
0001
0010
0000
,
0001
1000
0010
0100
,
0001
0000
0010
0000
0100
1000
0100
0000
,
1000
0001
0100
0010
,
1000
0000
0001
0000
0010
0100
0010
0000
,
0001
1000
0100
0010
,
0001
0000
0100
0000
0010
1000
0010
0000
,
1000
0001
1001
0000
,
1000
0000
0010
0000
0100
0010
0100
0000
,
0001
1000
0010
0100
,
0001
0000
1000
0000
0010
0100
0010
0000
,
0100
0001
0010
0001
,
1000
0000
0010
0000
0100
0001
0100
0000
,
0002
1003
2000
3001
,
0010
0000
1001
0000
,
0110
0000
0000
0000
,
0000
0000
0000
0000
;
#NOTES:
     dance-single:
     :
     Medium:
     12:
     :
0000
0000
0000
0000
,
0000
0000
0000
0000
,
0000
0000
0000
0000
,
0000
0000
0000
0000
,
0000
0000
0000
0000
,
0100
0001
0100
0001
,
1000
0010
1000
0010
,
1000
0100
1000
0100
0010
0001
0010
0001
,
0200
0320
0230
0301
,
1000
0000
0000
0000
1001
0000
0000
1000
0100
0000
1000
0000
0010
0000
0000
0000
,
0100
0000
0001
0000
0100
0000
0000
0001
1000
0000
0010
0000
1000
0000
0000
0000
,
0001
0000
0000
0000
1001
0000
0000
0001
0100
0000
0001
0000
0010
0000
0000
0000
,
0100
0000
0010
0000
0100
1000
0000
0001
1000
0000
0010
0000
0200
0000
0000
0000
,
0310
0000
0000
0000
0110
0000
0000
0001
1000
0000
0100
0000
1000
0000
0000
0000
,
0010
0000
0100
0000
0010
0000
0000
1000
0001
0000
1000
0000
0100
0000
0000
0000
,
0010
0000
0000
0000
0110
0000
0000
1000
0001
0000
0100
0000
0001
0000
0000
0000
,
1000
0100
1000
0100
0010
0001
2000
0000
,
3001
0000
0000
0000
1001
0000
0000
0001
0010
0000
0001
0000
0100
0000
0000
0000
,
0010
0000
1000
0000
0010
0000
0000
1000
0001
0000
0100
0000
0001
0000
0000
0000
,
1000
0000
0000
0000
1001
0000
0000
1000
0010
0000
1000
0000
0100
0000
0000
0000
,
0010
0000
0100
0000
0010
0001
0000
1000
0001
0000
0100
0000
0020
0000
0000
0000
,
0130
0000
0000
0000
0110
0000
0000
1000
0001
0000
0010
0000
0001
0000
0000
0000
,
0100
0000
0010
0000
0100
0000
0000
0001
1000
0000
0001
0000
0010
0000
0000
0000
,
0100
0000
0000
0000
0110
0000
0000
0001
1000
0000
0010
0000
1000
0000
0000
0000
,
0002
0000
0000
0000
0000
0000
0000
0000
0000
0000
0000
0000
0000
0000
0000
0000
0000
0000
0000
0000
0000
0000
0000
0000
0000
0000
0000
0000
0000
0000
0000
0000
0000
0000
0000
0000
0000
0000
0000
0000
0000
0000
0000
0000
0000
0000
0000
0000
0000
0000
0000
0000
0000
0000
0000
0000
0000
0000
0000
0000
0000
0000
0000
0000
0000
0000
0000
0000
0000
0000
0000
0000
0000
0000
0000
0000
0000
0000
0000
0000
0000
0000
0000
0000
0000
0000
0000
0000
0000
0000
0000
0000
0000
0000
0000
0000
2003
0000
0000
0000
0000
0000
0000
0000
0000
0000
0000
0000
0000
0000
0000
0000
0000
0000
0000
0000
0000
0000
0000
0000
3200
0000
0000
0000
0000
0000
0000
0000
0000
0000
0000
0000
0000
0000
0000
0000
0000
0000
0000
0000
0000
0000
0000
0000
0320
0000
0000
0000
0000
0000
0000
0000
0000
0000
0000
0000
0000
0000
0000
0000
0000
0000
0000
0000
0000
0000
0000
0000
0032
0000
0000
0000
0000
0000
0000
0000
0000
0000
0000
0000
0000
0000
0000
0000
0000
0000
0000
0000
0000
0000
0000
0003
,
2000
0000
0000
0000
3010
0000
0100
0000
0001
0000
0000
1000
0000
0000
0100
0000
,
0000
1000
0010
0100
0001
0010
0001
0000
,
0020
0000
0000
0000
0031
0000
1000
0000
0100
0000
0000
1000
0000
0000
0010
0000
,
0000
0100
0001
1000
0100
0010
0100
0000
,
2000
0000
0000
0000
3100
0000
0010
0000
0001
0000
0000
1000
0000
0000
0010
0000
,
0000
1000
0001
0100
0010
1000
0010
0000
,
0200
0000
0000
0000
0301
0000
1000
0000
0100
0000
0000
1000
0000
0000
0010
0000
,
0000
0100
0001
0100
0010
1000
0010
1000
,
0001
0000
0011
0000
1000
0100
0001
0100
,
0000
1000
0010
0000
0001
0010
1000
0000
,
0010
0000
1010
0000
0001
0100
1000
0100
,
0000
0001
0010
0000
1000
0010
0001
1000
,
0010
0000
0110
0000
1000
0100
0010
0001
,
0100
0010
0100
0010
0100
0000
0000
0000
,
0000
0000
0000
0000
,
0101
0110
1010
1001
,
1000
0000
0000
0000
0100
0000
0000
1000
0010
0000
0100
0000
0010
0000
0100
0000
,
0001
0000
0010
0000
0100
0000
0000
1000
0001
0000
0100
0000
0010
0000
0000
0000
,
0100
0000
0000
0000
0001
0000
0000
0010
0001
0000
1000
0000
0100
0000
0010
0000
,
0001
0000
1000
0000
0001
0100
0000
1000
0100
0000
0001
0000
0200
0000
0000
0000
,
0301
0000
0000
0000
0100
0000
0000
0001
0010
0000
0100
0000
0010
0000
0100
0000
,
1000
0000
0010
0000
0100
0000
0000
0001
1000
0000
0100
0000
0010
0000
0000
0000
,
0100
0000
0000
0000
1000
0000
0000
0010
1000
0000
0001
0000
0100
0000
0010
0000
,
1000
0100
1000
0100
0010
0001
1000
0000
,
0001
0000
0000
0000
0110
0000
0000
0001
1000
0000
0100
0000
1000
0001
0000
0000
,
1000
0000
0100
0000
0010
0000
0000
0100
1000
0000
0001
0000
0100
0000
0010
0000
,
1000
0000
0000
0000
0110
0000
0000
0001
1000
0000
0010
0000
1000
0001
0000
0000
,
1000
0000
0100
0000
0010
0100
0000
1000
0100
0000
0001
0000
0100
0000
1000
0000
,
0010
0000
0000
0000
1010
0000
0000
0001
0100
0000
0001
0000
0010
0100
0000
0000
,
1000
0000
0010
0000
0100
0000
0000
0010
0100
0000
0001
0000
1000
0000
0100
0000
,
0010
0000
0000
0000
0100
0000
0000
1000
0001
0000
0100
0000
0010
1000
0000
0000
,
0200
0000
0000
0000
0310
0001
1000
0100
,
1000
0001
1000
0010
1000
0100
0010
0000
,
0001
0010
0001
0000
1000
0010
1000
0000
,
0001
1000
0001
0100
0001
0010
0100
0000
,
1000
0010
1000
0000
0001
0100
0001
0000
,
0100
0010
0100
1000
0100
0001
1000
0000
,
0001
0010
0100
0000
1000
0010
0100
0000
,
0010
0100
0010
0001
0010
1000
0001
0000
,
1000
0100
0010
0000
0001
0100
0010
1000
,
0010
0000
0000
0000
0100
0000
0010
0000
0100
0000
0000
1001
0000
0000
0000
0000
,
1000
0100
1000
0000
0001
0100
0001
0000
,
1000
0100
0001
0100
1000
0010
0100
0000
,
0010
1000
0100
0000
0010
0001
0100
0000
,
0001
0010
1000
0010
0001
0100
0010
0000
,
0100
0001
0010
0000
0100
1000
0010
0000
,
0100
0000
0010
1000
0001
0000
0010
0001
,
1000
0000
0000
0001
0000
0000
0100
0000
0010
0000
0100
0010
0000
0000
0000
0000
,
1001
0000
0000
0000
,
0000
0000
0000
0000
;
#NOTES:
     dance-single:
     :
     Hard:
     17:
     :
0000
0000
0000
0000
,
0000
0000
0000
0000
,
0000
0000
0000
0000
,
0000
0000
0000
0000
,
0000
0000
0000
0000
,
1000
0100
0010
0001
1000
0100
0010
0001
,
1000
0010
1000
0010
0100
0001
0100
0001
0010
0001
0010
0001
1000
0100
1000
0100
,
1000
0010
0100
0001
1000
0010
0100
0001
1000
0100
0010
0001
1000
0100
0010
0001
,
2000
3002
2003
3010
,
0100
0000
0000
0000
0110
0000
0000
1000
0001
0010
0100
1000
0001
0010
0001
1000
,
0010
0000
0100
0000
1010
0000
0000
0001
0200
0000
2300
0000
3100
0010
0000
0100
,
0001
0000
0000
0000
0011
0000
0000
1000
0100
0000
0110
0000
0001
1000
0100
0010
,
0001
0000
0001
0000
0100
1000
0000
0100
0010
0100
0010
0100
0002
0000
0000
0000
,
0013
0000
0000
0000
0110
0000
0000
0001
1000
0100
0010
0001
1000
0100
1000
0001
,
0100
0000
0010
0000
0110
0000
0000
1000
0020
0000
0032
0000
0013
0100
0000
0010
,
1000
0000
0000
0000
1100
0000
0000
0001
0010
0000
0110
0000
1000
0100
0001
0000
,
0100
1000
0100
1000
0001
0010
0001
0010
0100
0010
0001
1000
0200
0000
0000
0000
,
0310
0000
0000
0000
0011
0000
0000
1000
0010
0100
0010
0000
1000
0010
0000
0001
,
0010
0000
1000
0000
1010
0000
0000
0001
0020
0000
0032
0000
1003
0100
0010
0001
,
1000
0000
0000
0000
1010
0000
0000
0001
0010
0100
0010
0000
0001
0010
0000
1000
,
0010
0000
0110
0000
0100
1000
0000
0001
0100
0010
0100
0010
0200
0000
0000
0000
,
0310
0000
0000
0000
1010
0000
0000
0001
0100
0010
0100
0000
0001
0100
0000
1000
,
0100
0000
0001
0000
0011
0000
0000
1000
0020
0000
2030
0000
3001
0010
0100
1000
,
0001
0000
0000
0000
0011
0000
0000
1000
0100
0010
0100
0000
1000
0100
0000
0001
,
0200
0000
0000
0000
0000
0000
0000
0000
0000
0000
0000
0000
0000
0000
0000
0000
0000
0000
0000
0000
0000
0000
0000
0000
0000
0000
0000
0000
0000
0000
0000
0000
0000
0000
0000
0000
0000
0000
0000
0000
0000
0000
0000
0000
0000
0000
0000
0000
0000
0000
0000
0000
0000
0000
0000
0000
0000
0000
0000
0000
0000
0000
0000
0000
0000
0000
0000
0000
0000
0000
0000
0000
1300
0000
0000
0000
0000
0000
0000
0000
0000
0000
0000
0000
0000
0000
0000
0000
0000
0000
0000
0000
0000
0000
0000
0000
0002
0000
0000
0000
0000
0000
0000
0000
0000
0000
0000
0000
0000
0000
0000
0000
0000
0000
0000
0000
0000
0000
0000
0000
0023
0000
0000
0000
0000
0000
0000
0000
0000
0000
0000
0000
0000
0000
0000
0000
0000
0000
0000
0000
0000
0000
0000
0000
0230
0000
0000
0000
0000
0000
0000
0000
0000
0000
0000
0000
0000
0000
0000
0000
0000
0000
0000
0000
0000
0000
0000
0000
2300
0000
0000
0000
0000
0000
0000
0000
0000
0000
0000
0000
0000
0000
0000
0000
0000
0000
0000
0000
0000
0000
0000
3000
,
0002
0000
0103
0010
0100
0000
0001
0000
1000
0010
0000
0100
0001
0000
0020
0000
,
0031
1000
0200
0300
1000
0002
0013
0100
0010
0000
0010
0000
0110
0000
0110
0000
,
2000
0000
3010
0100
0010
0000
1000
0000
0001
0010
0000
0100
1000
0000
0020
0000
,
1030
0100
2000
0000
3002
0000
0103
0000
0010
0000
0010
1000
0100
0000
0110
0000
,
0002
0000
0013
0100
0010
0000
0001
0000
1000
0100
0000
0010
0001
0000
0200
0000
,
0301
0010
2000
0000
3001
0200
0000
0310
0001
0000
0001
0000
1100
0000
0011
0000
,
2000
0000
3010
0100
0010
0000
1000
0000
0001
0100
0000
0010
1000
0000
0200
0000
,
1300
0010
2000
0000
3002
0000
0103
0000
0001
0010
0100
1000
0001
0010
0100
1000
,
0001
0000
0110
0001
1000
1100
0011
1001
,
0000
1000
0100
0000
0110
0000
0001
0100
1000
0000
0100
0010
0100
0010
0100
0000
,
0001
0000
0110
1000
0001
0101
1010
1001
,
0000
0001
0010
0000
0110
0000
1000
0100
0001
0000
0100
0010
0100
0010
0100
0000
,
1000
0000
0110
0001
1000
1100
0011
1001
,
0010
0100
0010
0100
0010
0100
0010
0100
0010
0000
0000
0000
0000
0000
0000
0000
,
0000
0000
0000
0000
,
1001
0000
0000
0000
1100
0000
0000
0000
0110
0000
0001
0010
0100
0000
0000
0000
,
1000
0000
0000
0000
1010
0000
0000
0001
1000
0100
0001
0100
1000
0010
1000
0010
,
0100
0000
0001
0000
0011
0000
0000
1000
0020
0000
0230
0000
0301
0010
1000
0010
,
0001
0000
0000
0000
0101
0000
0000
1000
0010
0000
1010
0000
1000
0100
0010
0001
,
0100
0000
0000
0000
0000
0000
0000
0000
0000
0000
0000
0000
0000
0000
0000
0000
0000
0000
0000
0000
0000
0000
0000
0000
0001
0000
0000
0000
0000
0000
0000
0000
0000
0000
0000
0000
0000
0000
0000
0000
0000
0000
0000
0000
0000
0000
0000
0000
0010
0000
0000
0000
0000
0000
0000
0000
0000
0000
0000
0000
0100
0000
0000
0000
0000
0000
0000
0000
0000
0000
0000
0000
0000
0000
0000
0000
0000
0000
0000
0000
0000
0000
0000
0000
1000
0000
0000
0000
0000
0000
0000
0000
0000
0000
0000
0000
0001
0000
0000
0000
0000
0000
0000
0000
0000
0000
0000
0000
0100
0000
0000
0000
0000
0000
0000
0000
0000
0000
0000
0000
0001
0000
0000
0000
0000
0000
0000
0000
0000
0000
0000
0000
0100
0000
0000
0000
0000
0000
0000
0000
0000
0000
0000
0000
0002
0000
0000
0000
0000
0000
0000
0000
0000
0000
0000
0000
0203
0000
0000
0000
0000
0000
0000
0000
0000
0000
0000
0000
2300
0000
0000
0000
0000
0000
0000
0000
0000
0000
0000
0000
3200
0000
0000
0000
0000
0000
0000
0000
0000
0000
0000
0300
,
0001
0000
0000
0000
0101
0000
0000
1000
0001
0100
1000
0100
0001
0010
0001
0010
,
0100
0000
1000
0000
1010
0000
0000
0001
0020
0000
0230
0000
1300
0010
0001
0010
,
1000
0000
0000
0000
1100
0000
0000
0001
0010
0000
0011
0000
0001
0100
0010
1000
,
0001
0010
0100
0010
0100
1000
0001
1000
0010
0100
0001
0010
0100
0000
0000
0000
,
1001
0000
0000
0000
0110
0000
0000
1000
0001
0010
0200
0000
0301
0020
0000
1030
,
0001
0000
0100
0000
1010
0000
0000
0001
0100
0000
1000
0000
0100
0010
1000
0100
,
0001
0000
0000
0000
0110
0000
0000
0001
1000
0010
0200
0000
1300
0020
0000
0031
,
1000
0000
0100
0000
0010
0001
0000
1000
0010
1000
0010
1000
0100
0000
0000
0000
,
0010
0000
0000
0000
0110
0000
0000
0001
1000
0010
0200
0000
1300
0020
0000
0031
,
1000
0000
0100
0000
0011
0000
0000
1000
0100
0000
0001
0000
0100
0010
0001
0100
,
1000
0000
0100
0010
0100
0000
0001
1000
0001
1000
0100
0010
0100
0010
0001
1000
,
0200
0000
0000
0000
0000
0000
1300
0000
0002
0023
0230
2300
3002
0023
0230
2300
,
3001
0100
0001
0000
0001
0100
0001
0000
0010
0000
0100
1000
0100
0000
0110
0000
,
0001
0010
0100
0000
0010
0001
0100
0010
1000
0000
0100
0010
0200
0000
0000
0000
,
1300
0010
1000
0000
1000
0010
1000
0000
0100
0000
0010
0001
0010
0000
0110
0000
,
1000
0100
1000
0100
0010
0000
0001
0100
0010
0000
0100
0001
0010
0000
0110
0000
,
1000
0010
1000
0000
1000
0010
1000
0000
0100
0000
0010
0001
0010
0000
0110
0000
,
1000
0100
0010
0000
0100
1000
0010
0100
0001
0000
0010
0100
0020
0000
0000
0000
,
0031
0100
0001
0000
0001
0100
0001
0000
0010
0000
0100
1000
0100
0000
0110
0000
,
0001
0010
1000
0000
1000
0010
0001
0000
0010
0001
0100
0010
1000
0100
0010
0001
,
2000
0000
0000
0000
3001
0100
0010
0100
1000
0100
0001
0200
0000
0000
0000
0000
,
0310
1000
0100
0000
0100
1000
0010
0100
0010
0000
1000
0100
1000
0100
0010
0001
,
0010
0001
0100
0000
0100
0001
0010
0000
0100
0000
0001
0100
0010
0000
0110
0000
,
1000
0010
1000
0010
0100
0000
0010
1000
0100
0000
0010
0001
0100
0000
0110
0000
,
1000
0010
0001
0000
0001
0010
1000
0000
0010
0000
1000
0100
0001
0000
0100
0000
,
1000
0010
1000
0000
0001
0100
0001
0100
0010
0000
1000
0100
0010
0000
1001
0000
,
2000
0000
0000
0000
3010
0000
0100
0001
0020
0000
0000
0000
0031
1000
0100
0010
,
0001
0000
0000
0100
0010
0000
1001
0000
0100
0000
0001
2000
0000
0000
3000
0000
,
0110
0000
0000
0000
,
0000
0000
0000
0000
;
#NOTES:
     dance-double:
     :
     Easy:
     7:
     :
00000000
00000000
00000000
00000000
,
00000000
00000000
00000000
00000000
,
00000000
00000000
00000000
00000000
,
00000000
00000000
00000000
00000000
,
00000000
00000000
00000000
00000000
,
00010000
00000000
00001000
00000000
,
00010000
00000000
00001000
00000000
,
00010000
00000100
00001000
00000001
,
00002000
00000000
00000000
00003001
,
00001000
00000100
00001100
00000000
,
00010000
00001000
00022000
00033000
,
00001000
00100000
00101000
00000000
,
00100000
00010000
10000000
02000000
,
03100000
00010000
00110000
00000000
,
00100000
00001000
00202000
00303000
,
00001000
00010000
00011000
00000000
,
00010000
00000100
00002000
00003002
,
00001003
00000010
00001000
00000100
,
00010000
00001000
00100000
00010000
,
10000000
01000000
10000000
00100000
,
01000000
01000000
00010000
00200000
,
00301000
00010000
00000010
00001000
,
00000100
00001000
00000001
00000010
,
00000100
00000010
00000001
00001000
,
00000200
00000000
00000300
00000000
,
00010000
00001000
00010000
00000000
,
00001000
01000000
00010000
01010000
,
10000000
00100000
10000000
00000000
,
00010000
00100000
00001000
00011000
,
00010000
00000010
00001000
00000000
,
00000001
00000010
00000100
00000110
,
00001000
00000100
00010000
00000000
,
00001000
01000000
00010000
01000000
,
00100000
00100000
10000000
01000000
,
00010000
00001000
00000100
00000000
,
00000100
00000100
00000001
00000100
,
00001000
00010000
00100000
00000000
,
10000000
01000000
00010000
00001000
,
00010000
00001000
00010000
00001000
00010000
00000000
00000000
00000000
,
00000000
00000000
00000000
00000000
,
00011000
00000000
00000110
00000000
,
00000001
00000100
00000010
00000100
,
00000001
00001000
00000200
00010300
,
00010000
00001000
00100000
00010000
,
10000000
00010000
01000000
00200000
,
10300000
01000000
00100000
00010000
,
00001000
00000100
00002000
00003010
,
00000010
00000100
00000001
00001000
,
00000100
00010000
00001000
00010000
,
00001000
00000000
01000000
00000000
00010000
01000000
00010000
00000000
,
10000000
00100000
01000000
01100000
,
00010000
00000000
00100000
00000000
00001000
00010000
00001000
00000000
,
00010000
00000010
00001000
00000100
,
00000010
00000000
00000001
00000000
00001000
00000010
00001000
00000000
,
00000010
00010000
00001000
00010000
,
00001000
00000000
00100000
00000000
00010000
00100000
00010000
00000000
,
20000000
00000000
32000000
03020000
,
00031000
00010000
00000100
00001000
,
00000001
00000000
00000010
00000000
00000100
00001000
00000100
00000000
,
00010000
00001000
01000000
00010000
,
10000000
00000000
00100000
00000000
01000000
00010000
01000000
00000000
,
00001000
00010000
00000010
00001000
,
00000001
00000000
00000100
00000000
00000010
00001000
00000010
00000000
,
00010000
00001000
00100000
00010000
,
10000000
00000000
01000000
00000000
00100000
00010000
00100000
00000000
,
00010000
01000000
01010000
00000000
,
00001000
00000000
00010000
00000000
00000010
00001000
00000010
00000000
,
00000100
00000001
00000010
00001000
,
00010000
00000000
01000000
00000000
10000000
01000000
10000000
00000000
,
00010000
10000000
00100000
00010000
,
00001000
00000000
00000100
00000000
00000001
00000100
00000001
00000000
,
00000200
00001300
00002000
00013000
,
00100000
00000000
01100000
00000000
,
10010000
00000000
00000000
00000000
,
00000000
00000000
00000000
00000000
;
#NOTES:
     dance-double:
     :
     Medium:
     12:
     :
00000000
00000000
00000000
00000000
,
00000000
00000000
00000000
00000000
,
00000000
00000000
00000000
00000000
,
00000000
00000000
00000000
00000000
,
00000000
00000000
00000000
00000000
,
00000001
00000100
00000001
00000100
,
00000010
00001000
00000010
00001000
,
00000100
00010000
00000100
00010000
00001000
00010000
00001000
00010000
,
00002000
00203000
00320000
10030000
,
00010000
00000000
00000000
00000000
01000000
00000000
00000000
00001000
00010000
00000000
00000010
00000000
00001000
00000000
00000000
00000000
,
00000001
00000000
00000100
00000000
00000001
00000000
00000000
00001000
00000100
00000000
00010000
00000000
00001000
00000000
00000000
00000000
,
01000000
00000000
00000000
00000000
00010000
00000000
00000000
10000000
00100000
00000000
01000000
00000000
00100000
00000000
00000000
00000000
,
10000000
00000000
00010000
00000000
01000000
00001000
00000000
00010000
00001000
00000000
00010000
00000000
00000200
00000000
00000000
00000000
,
00001300
00000000
00000000
00000000
00000001
00000000
00000000
00000010
00000001
00000000
00001000
00000000
00000100
00000000
00000000
00000000
,
00010000
00000000
00001000
00000000
00010000
00000000
00000000
00001000
01000000
00000000
00010000
00000000
10000000
00000000
00000000
00000000
,
00100000
00000000
00000000
00000000
01000000
00000000
00000000
00010000
00100000
00000000
00001000
00000000
00010000
00000000
00000000
00000000
,
00000100
00001000
00000100
00001000
00000001
00000010
00000200
00000000
,
00001300
00000000
00000000
00000000
00001001
00000000
00000000
00001000
00000010
00000000
00010000
00000000
00001000
00000000
00000000
00000000
,
00100000
00000000
00010000
00000000
00100000
00000000
00000000
00010000
10000000
00000000
00100000
00000000
01000000
00000000
00000000
00000000
,
00010000
00000000
00000000
00000000
10010000
00000000
00000000
00010000
00100000
00000000
00001000
00000000
00010000
00000000
00000000
00000000
,
00000010
00000000
00001000
00000000
00000001
00001000
00000000
00000100
00000010
00000000
00000001
00000000
00002000
00000000
00000000
00000000
,
00003100
00000000
00000000
00000000
00010100
00000000
00000000
00010000
00001000
00000000
01000000
00000000
00010000
00000000
00000000
00000000
,
10000000
00000000
00100000
00000000
10000000
00000000
00000000
00010000
01000000
00000000
00001000
00000000
00010000
00000000
00000000
00000000
,
00000010
00000000
00000000
00000000
00001010
00000000
00000000
00001000
00000001
00000000
00000010
00000000
00000100
00000000
00000000
00000000
,
00002000
00000000
00000000
00000000
00003002
00000203
00002300
00023000
,
00230000
00000000
00000000
00000000
10300000
00000000
01000000
00000000
10000000
00000000
00000000
01000000
00000000
00000000
00010000
00000000
,
00000000
00001000
00010000
00000000
00000010
00001000
00000010
00000000
,
00000200
00000000
00000000
00000000
00000301
00000000
00000010
00000000
00000001
00000000
00000000
00000010
00000000
00000000
00001000
00000000
,
00000000
00010000
00001000
00000000
00100000
00010000
00100000
00000000
,
02000000
00000000
00000000
00000000
13000000
00000000
00100000
00000000
10000000
00000000
00000000
00100000
00000000
00000000
00010000
00000000
,
00000000
00001000
00010000
00000000
00000100
00001000
00000100
00000000
,
00000020
00000000
00000000
00000000
00000031
00000000
00000100
00000000
00000001
00000000
00000000
00000100
00000000
00000000
00001000
00000000
,
00000000
00010000
00001000
00010000
00001000
00100000
00010000
00100000
,
00010000
00000000
10010000
00000000
10000000
01000000
00010000
00001000
,
00000000
00000010
00000001
00000000
00001000
00000010
00001000
00000000
,
00000001
00000000
00001001
00000000
00000001
00000100
00001000
00010000
,
00000000
00100000
10000000
00000000
00010000
00100000
00010000
00000000
,
10000000
00000000
10100000
00000000
10000000
01000000
00100000
00010000
,
00001000
00000100
00001000
00000100
00000010
00000000
00000000
00000000
,
00000000
00000000
00000000
00000000
,
00001100
00011000
01010000
00011000
,
00001000
00000000
00000000
00000000
00010000
00000000
00000000
00000100
00001000
00000000
00000001
00000000
00000100
00000000
00000001
00000000
,
00000010
00000000
00000100
00000000
00001000
00000000
00000000
00000001
00000100
00000000
00001000
00000000
00010000
00000000
00000000
00000000
,
00001000
00000000
00000000
00000000
00100000
00000000
00000000
00010000
10000000
00000000
01000000
00000000
10000000
00000000
01000000
00000000
,
00100000
00000000
00010000
00000000
00100000
00001000
00000000
00010000
00000010
00000000
00010000
00000000
00002000
00000000
00000000
00000000
,
00013000
00000000
00000000
00000000
00001000
00000000
00000000
01000000
00010000
00000000
10000000
00000000
00100000
00000000
10000000
00000000
,
01000000
00000000
00100000
00000000
00010000
00000000
00000000
10000000
00100000
00000000
00010000
00000000
00001000
00000000
00000000
00000000
,
00010000
00000000
00000000
00000000
00000100
00000000
00000000
00001000
00000001
00000000
00000010
00000000
00000001
00000000
00000010
00000000
,
00000100
00001000
00000100
00010000
00001000
00100000
00010000
00000000
,
10000000
00000000
00000000
00000000
01100000
00000000
00000000
00010000
10000000
00000000
00010000
00000000
00100000
00001000
00000000
00000000
,
00010000
00000000
00001000
00000000
00000100
00000000
00000000
00000001
00001000
00000000
00000010
00000000
00000100
00000000
00000010
00000000
,
00001000
00000000
00000000
00000000
00000110
00000000
00000000
00000001
00001000
00000000
00000100
00000000
00010000
00001000
00000000
00000000
,
00100000
00000000
00010000
00000000
00100000
01000000
00000000
10000000
00100000
00000000
01000000
00000000
00010000
00000000
00000000
00000000
,
00100000
00000000
00000000
00000000
10010000
00000000
00000000
10000000
00100000
00000000
00010000
00000000
00001000
00010000
00000000
00000000
,
00001000
00000000
00000100
00000000
00000001
00000000
00000000
00000010
00000100
00000000
00000010
00000000
00000001
00000000
00001000
00000000
,
00000010
00000000
00000000
00000000
00000100
00000000
00000000
00000001
00000010
00000000
00001000
00000000
00010000
00001000
00000000
00000000
,
02000000
00000000
00000000
00000000
03010000
10000000
00100000
01000000
,
00010000
00100000
00001000
00100000
00010000
00001000
00000100
00000000
,
00000010
00000001
00000010
00000000
00000100
00001000
00000100
00000000
,
00010000
00000010
00001000
00000010
00010000
00000100
00001000
00000000
,
00010000
00100000
00010000
00000000
10000000
00100000
10000000
00000000
,
00010000
01000000
00001000
01000000
00010000
00001000
00000010
00000000
,
00000100
00000001
00000100
00000000
00000010
00001000
00000010
00000000
,
00010000
00000100
00001000
00000100
00010000
00000010
00001000
00000000
,
00010000
01000000
00010000
00000000
10000000
01000000
10000000
00000000
,
00100000
00000000
00000000
00000000
01000000
00000000
00100000
00000000
01000000
00000000
00000000
10010000
00000000
00000000
00000000
00000000
,
10000000
01000000
00010000
00000000
00001000
00000010
00000001
00000000
,
00001000
00000010
00010000
00001000
01000000
00010000
10000000
00000000
,
00100000
10000000
01000000
00000000
00100000
00010000
01000000
00000000
,
00001000
00010000
00001000
00000100
00000001
00000010
00000001
00000000
,
00000100
00001000
00010000
00000000
00100000
10000000
01000000
00000000
,
10000000
00000000
00100000
00010000
00001000
00000000
00010000
00001000
,
00000010
00000000
00000000
00000001
00000000
00000000
00001000
00000000
00000100
00000000
00010000
00001000
00000000
00000000
00000000
00000000
,
01100000
00000000
00000000
00000000
,
00000000
00000000
00000000
00000000
;
#NOTES:
     dance-double:
     :
     Hard:
     17:
     :
00000000
00000000
00000000
00000000
,
00000000
00000000
00000000
00000000
,
00000000
00000000
00000000
00000000
,
00000000
00000000
00000000
00000000
,
00000000
00000000
00000000
00000000
,
10000000
01000000
10000000
01000000
00100000
00010000
00100000
00010000
,
00001000
00000100
00001000
00000100
00000010
00000001
00000010
00000001
,
00001000
00000010
00001000
00000010
00001000
00000010
00001000
00000010
00010000
00001000
00010000
00001000
00010000
00001000
00010000
00001000
,
00020000
02030000
23000000
30100000
,
10000000
00000000
00000000
00000000
11000000
00000000
00000000
00010000
00100000
00001000
00100000
00000000
00001000
00010000
00001000
00000000
,
00010000
00000000
00000010
00000000
00001000
00000000
00000000
00000001
00000200
00000000
00002300
00000000
00013000
00100000
00000000
00010000
,
00001000
00000000
00000000
00000000
00011000
00000000
00000000
00001000
01000000
00000000
00010000
00000000
10000000
01000000
00100000
00010000
,
00100000
00000000
00100000
00000000
00001000
00010000
00000000
00000100
00001000
00000100
00001000
00000100
00000020
00000000
00000000
00000000
,
00000031
00000000
00000000
00000000
00000101
00000000
00000000
00001000
00000010
00010000
00000010
00000000
00010000
00001000
00010000
00000000
,
00001000
00000000
01000000
00000000
00010000
00000000
00000000
10000000
00200000
00000000
00320000
00000000
00031000
00000100
00000000
00001000
,
00010000
00000000
00000000
00000000
00011000
00000000
00000000
00010000
00000100
00000000
00001000
00000000
00000001
00000010
00000100
00000000
,
00001000
00000010
00010000
00001000
00100000
00010000
00100000
00000000
00010000
10000000
01000000
00100000
00020000
00000000
00000000
00000000
,
01030000
00000000
00000000
00000000
01001000
00000000
00000000
00001000
00010000
00000010
00001000
00000000
00000001
00000100
00000000
00001000
,
00010000
00000000
00100000
00000000
10000000
00000000
00000000
00010000
20000000
00000000
32000000
00000000
03010000
00001000
00010000
01000000
,
00100000
00000000
00000000
00000000
01100000
00000000
00000000
00010000
00100000
01000000
10000000
00000000
00100000
00010000
00000000
00001000
,
00000100
00000000
00000100
00000000
00000001
00001000
00000000
00000010
00001000
00000100
00001000
00000100
00002000
00000000
00000000
00000000
,
00003010
00000000
00000000
00000000
00010010
00000000
00000000
00010000
00001000
01000000
00010000
00000000
10000000
00100000
00000000
00010000
,
00001000
00000000
00000100
00000000
00000001
00000000
00000000
00001000
00000002
00000000
00000023
00000000
00001030
00010000
00001000
00000010
,
00000100
00000000
00000000
00000000
00000110
00000000
00000000
00001000
00000100
00000010
00000001
00000000
00000100
00001000
00000000
00010000
,
00200000
00000000
00000000
10300000
02000000
03200000
00320000
00032000
,
00003200
00000000
00010300
00001000
00010000
00000000
00000010
00000000
00001000
00000100
00000000
00000001
00000100
00000000
00002000
00000000
,
00003010
00000100
00000020
00000030
00001000
00000200
00010300
00001000
00010000
00000000
00001000
00000000
00011000
00000000
00000000
00000000
,
00020000
00000000
00031000
00100000
00001000
00000000
00100000
00000000
00010000
01000000
00000000
10000000
01000000
00000000
00020000
00000000
,
00130000
01000000
00200000
00000000
00302000
00000000
00013000
00000000
00000010
00000000
00000010
00001000
00000100
00000000
00000000
00000000
,
00002000
00000000
00003001
00000100
00000001
00000000
00001000
00000000
00000001
00000010
00000000
00001000
00010000
00000000
02000000
00000000
,
13000000
00010000
00200000
00000000
10300000
00200000
00000000
00310000
01000000
00000000
00001000
00000000
00011000
00000000
00000000
00000000
,
00002000
00000000
00013000
00000100
00010000
00000000
00000100
00000000
00001000
00000010
00000000
00000001
00000010
00000000
00002000
00000000
,
00003100
00000010
00000200
00000000
00020300
00000000
00031000
00000000
00100000
00010000
10000000
01000000
00100000
00010000
10000000
01000000
,
00100000
00000000
00001000
00010000
00000100
00010100
00001100
00001000
,
00000000
00000001
00000010
00000000
00001000
00000000
00000010
00000001
00000100
00000000
00000010
00001000
00000010
00001000
00000010
00000000
,
00010000
00000000
00001000
00100000
00010000
10010000
11000000
01000000
,
00000000
00010000
01000000
00000000
10000000
00000000
00100000
10000000
01000000
00000000
00100000
00010000
00100000
00010000
00100000
00000000
,
00001000
00000000
00010000
00000010
00001000
00001010
00000101
00001001
,
00000010
00000100
00000010
00000100
00000010
00000100
00000010
00000100
00000010
00000000
00000000
00000000
00000000
00000000
00000000
00000000
,
00000000
00000000
00000000
00000000
,
00011000
00000000
00000000
00000000
00101000
00000000
00000000
00000000
00110000
00000000
00010000
10000000
01000000
00000000
00000000
00000000
,
10000000
00000000
00000000
00000000
10100000
00000000
00000000
00010000
10000000
01000000
00010000
00001000
00000010
00000001
00000010
00000000
,
00000001
00000000
00001000
00000000
00001100
00000000
00000000
00000001
00000200
00000000
00002300
00000000
00013000
00100000
00010000
00001000
,
00000010
00000000
00000000
00000000
00000011
00000000
00000000
00001000
00000010
00000000
00000100
00000000
00000001
00000010
00000100
00001000
,
00000001
00000000
00000010
00000000
00001000
00010000
00000000
01000000
00100000
00010000
00100000
00010000
20000000
30200000
00320000
00032000
,
00003100
00000000
00000000
00000000
00000110
00000000
00000000
00001000
00000001
00000010
00001000
00010000
01000000
10000000
01000000
00000000
,
10000000
00000000
00010000
00000000
00110000
00000000
00000000
10000000
00200000
00000000
00320000
00000000
00031000
00000100
00001000
00010000
,
01000000
00000000
00000000
00000000
11000000
00000000
00000000
00010000
01000000
00000000
00100000
00000000
10000000
01000000
00100000
00000000
,
00010000
00100000
00010000
00100000
00001000
00010000
00001000
00010000
00000100
00001000
00000001
00000010
00000100
00000000
00000000
00000000
,
00000110
00000000
00000000
00000000
00000011
00000000
00000000
00001000
00000100
00000001
00000100
00000000
00000010
00001000
00000000
00010000
,
00001000
00000000
00010000
00000000
01000000
00000000
00000000
10000000
01000000
00000000
00010000
00000000
01000000
10000000
01000000
00100000
,
00010000
00000000
00000000
00000000
11000000
00000000
00000000
00010000
00100000
10000000
00100000
00000000
01000000
00010000
00000000
00001000
,
00010000
00000000
00000010
00000000
00001000
00000100
00000000
00010000
00001000
01000000
00010000
01000000
00010000
00000000
00000000
00000000
,
10000000
00000000
00000000
00000000
10100000
00000000
00000000
00010000
01000000
10000000
01000000
00000000
00100000
00010000
00000000
00001000
,
00010000
00000000
00001000
00000000
00000100
00000000
00000000
00000001
00000100
00000000
00001000
00000000
00000100
00000001
00000010
00000100
,
00001000
00000000
00000000
00000000
00000101
00000000
00000000
00001000
00000010
00000001
00000010
00000000
00000100
00001000
00000000
00010000
,
00002000
00000000
00000000
00000000
00000000
00000000
01003000
00000000
00020000
00230000
02300000
23000000
30020000
00230000
02300000
23000000
,
30010000
00100000
00010000
00000000
00100000
00001000
00100000
00000000
00001000
00000000
00010000
00000100
00010000
00000000
00000100
00000000
,
00001000
00000100
00000001
00000000
00001000
00000010
00000001
00000000
00001000
00000000
00000100
00001000
00000100
00000000
00000000
00000000
,
00001000
00000010
00001000
00000000
00000010
00010000
00000010
00000000
00010000
00000000
00001000
01000000
00001000
00000000
01000000
00000000
,
00010000
01000000
10000000
00000000
00010000
00100000
10000000
00000000
00010000
00000000
01000000
00010000
01000000
00000000
00010000
00000000
,
10000000
00100000
00010000
00000000
10000000
01000000
00010000
00000000
00100000
00000000
00001000
00010000
00001000
00000000
00010000
00000000
,
00000010
00001000
00000100
00000000
00000010
00000001
00000100
00000000
00000010
00000000
00001000
00000100
00001000
00000000
00000000
00000000
,
00000001
00000100
00001000
00000000
00000001
00000010
00001000
00000000
00000100
00000000
00010000
00001000
00010000
00000000
00001000
00000000
,
00100000
00010000
01000000
00000000
00100000
10000000
01000000
00000000
00100000
00010000
00000000
00100000
00001000
00010000
00001000
00010000
,
00001000
00000000
00000000
00000000
00010000
00000100
00010000
00000000
00000100
00001000
00000100
00000010
00000000
00000000
00000000
00000000
,
00000001
00000100
00001000
00000000
00010000
00100000
10000000
00000000
00010000
00000000
10000000
01000000
10000000
01000000
10000000
00000000
,
01000000
00100000
00010000
00000000
00001000
00000100
00000010
00000000
00000001
00000000
00001000
00000010
00001000
00000000
00000100
00000000
,
00000010
00000001
00000010
00000001
00000010
00000000
00000100
00001000
00000010
00000000
00000100
00000001
00000010
00000000
00000001
00000000
,
00000010
00000100
00001000
00000000
00010000
00100000
01000000
00000000
10000000
00000000
00010000
00100000
01000000
00000000
10000000
00000000
,
00100000
01000000
00100000
00000000
00010000
00001000
00010000
00000000
00000100
00000010
00000100
00000010
00000001
00000000
00001000
00000000
,
00000001
00000000
00000000
00000000
00000100
00000000
00001000
00010000
00100000
00000000
00000000
00000000
10000000
01000000
10000000
01000000
,
00010000
00001000
00000000
00000010
00001000
00000000
00010000
00000000
00001000
00000000
00000100
00000002
00000000
00000000
00000003
00000000
,
00001001
00000000
00000000
00000000
,
00000000
00000000
00000000
00000000
;
