
//----- song ID: houu -----//
#TITLE:鳳;
#ARTIST:かめりあ;
#TITLETRANSLIT:Hou;
#ARTISTTRANSLIT:Camellia;
#BANNER:Hou.png;
#BACKGROUND:Hou-bg.png;
#CDTITLE:./CDTitles/DDR A3.png;
#MUSIC:Hou.ogg;
#SAMPLESTART:46.842;
#SAMPLELENGTH:15;
#DISPLAYBPM:57:912;
#BPMS:0=57.1,2=57,8=912,40=57,41=114,43=228,47=456,191=114,196=228,200=456,208=114,224=228,244=456,371=228,403=114,417=57,418=114,420=228,424=454.5,440=228,447=233,448=456,531=114,532=456,562=228,563=456,620.5=57,621.5=114,622.5=228,624.5=912,652.5=456;
#STOPS:51=0.395,132=0.132,165=0.066,167.5=0.066,170=0.066,172.5=0.065,179=0.066,181.5=0.066,184=0.066,186.5=0.065,284=0.132,287=0.066,288.5=0.066,290=0.066,291.5=0.065,297=0.066,298.5=0.066,300=0.066,301.5=0.065,307=0.066,308.5=0.066,310=0.066,311.5=0.065,317=0.066,318.5=0.066,320=0.066,321.5=0.065,328=0.066,331.5=0.066,334=0.066,336.5=0.065,341=0.066,342.5=0.066,346=0.066,351.5=0.065,409.5=0.263,409.750=0.263,416.5=0.263,416.750=0.263,456=0.263,457=0.526,466=0.263,470=0.132,557=0.066,558.5=0.066,560=0.066,561.5=0.065,594.5=0.066,597=0.065,600.5=0.066,602=0.066,603.5=0.066,606=0.066,610.5=0.066,614=0.066,616.5=0.066,624.5=0.197;
#NOTES:
     dance-single:
     :
     Beginner:
     7:
     :
0000
0000
0000
0000
,
0010
0010
0100
0100
,
2002
0000
0000
0000
,
0000
0000
0000
0000
,
0000
0000
0000
0000
,
0000
0000
0000
0000
,
0000
0000
0000
0000
,
0000
0000
0000
0000
,
0000
0000
0000
0000
,
0000
0000
0000
0000
,
3003
0000
0000
0000
,
0000
0000
0000
0000
,
0000
0000
0000
0000
,
0001
0000
0000
0000
,
0010
0000
0000
0000
,
0001
0000
0000
0000
,
0010
0000
0000
0000
,
0100
0000
0000
0000
,
1000
0000
0000
0000
,
0100
0000
0000
0000
,
1000
0000
0000
0000
,
0010
0000
0000
0000
,
0100
0000
0000
0000
,
0010
0000
0000
0000
,
0100
0000
0000
0000
,
0010
0000
0000
0000
,
0010
0000
0000
0000
,
0010
0000
0000
0000
,
0000
0000
0000
0000
,
1000
0000
0000
0000
,
0100
0000
0000
0000
,
0010
0000
0000
0000
,
0001
0000
0000
0000
,
0000
0000
0000
1001
,
0000
0000
0000
0100
,
0000
0100
0000
0100
,
0000
0000
0000
1000
,
0000
0000
0000
0010
,
0000
0000
0000
0100
,
0000
0000
0000
0001
,
0000
0000
0000
1001
,
0000
0000
0000
0000
,
0000
0000
1001
0000
,
0000
0000
0000
0000
,
0000
0110
0000
0000
,
0000
0000
0000
0000
,
0110
0000
0000
0000
,
0000
0000
0000
1000
,
0000
1000
0000
1000
,
0200
0000
0000
0300
,
0020
0000
0000
0000
,
0000
0000
0030
0000
,
0001
0001
0001
0000
,
0010
0100
0010
0000
,
1000
1000
1000
0000
,
0010
0100
0010
0000
,
1000
0000
0100
0000
,
0010
0000
0001
0000
,
0100
0000
0010
0000
,
1000
0000
0010
0000
,
0100
0000
0001
0000
,
1000
0000
0000
0000
,
0100
0000
0000
0000
,
0010
0000
0000
0000
,
0001
0000
0000
0000
,
0100
0000
0000
0000
,
0010
0000
0000
0000
,
1000
0000
0000
0000
,
0001
0000
0100
0000
,
0000
0000
0010
0000
,
0000
0000
0100
0000
,
0220
0000
0000
0000
,
0000
0000
0000
0000
,
0330
0000
0000
2002
,
0000
0000
0000
0000
,
0000
0000
0000
3003
,
0000
0220
0000
0000
,
0000
0000
0000
0000
,
0330
0000
0000
2002
,
0000
0000
0000
0000
,
0000
0000
0000
3003
,
0000
0020
0000
0000
,
0000
0000
0000
0000
,
0000
0000
0000
0000
,
0000
0000
0030
0000
,
0000
2000
0000
0000
,
0000
0000
0000
0000
,
0000
0000
0000
3000
,
0000
0000
0000
2002
,
0000
0000
0000
0000
,
0000
0000
0000
3003
,
0000
0000
0000
0000
,
0000
0000
0000
0020
,
0000
0030
0000
2000
,
0000
3000
0000
0200
,
0000
0300
0000
0200
,
0000
0300
0000
0020
,
0000
0030
0000
0002
,
0000
0003
0000
0200
,
0000
0300
0000
0200
,
0000
0300
0000
0002
,
0000
0003
0000
2000
,
0000
3000
0020
0000
,
0030
0000
0200
0000
,
0300
2002
0000
3003
,
0220
0000
0000
0000
,
0000
0000
0000
0000
,
0000
0000
0000
0000
,
0330
0000
0000
0000
,
0000
0000
0000
0000
,
0010
0000
0010
0000
,
0010
0000
0010
0000
,
1000
0000
0000
0000
,
0100
0000
0000
0000
,
0001
0000
0001
0000
,
0000
0000
0100
0000
,
0000
0000
1000
0000
,
0000
0000
0000
0010
,
0000
0000
0000
1000
,
0000
0000
0000
0001
,
0000
0000
0000
0100
,
0000
0000
0000
0001
,
0000
0000
0000
1000
,
0000
0000
0000
0100
,
0000
0010
0000
0100
,
0000
0000
0000
0010
,
0000
0000
0000
0001
,
0000
0000
0000
1000
,
0000
0000
0000
0100
,
0000
0000
0000
1000
,
0000
0000
0000
0001
,
0000
0000
0000
2002
,
0000
0000
0000
3003
,
0010
0000
0000
0000
,
0100
0000
0000
0000
,
0010
0000
0000
0000
,
1000
0000
0000
0000
,
0001
0000
0000
0000
,
0100
0000
0000
0000
,
0002
0000
0000
0000
,
0000
0000
0003
0000
,
0000
1000
0000
0000
,
0000
0001
0000
0000
,
0000
0100
0000
0000
,
0000
0010
0000
1000
,
0000
0010
0000
0000
,
0000
0100
0000
0001
,
0000
0100
0000
0000
,
0000
0010
0000
0000
,
0000
0010
0000
0000
0000
0000
0000
0000
,
0100
0000
0000
0100
0000
0000
0100
0000
,
0000
0000
0000
0001
,
0000
0000
0001
0000
0000
0000
0000
1000
,
0000
0000
0000
1000
0000
0000
0000
0000
,
0000
0000
0000
0100
0000
0000
0000
0000
,
0000
0110
0000
0000
0000
0000
0000
0000
,
0000
0000
0000
2002
0000
0000
0000
0000
,
0000
0000
0000
0000
,
0000
0000
0000
0000
,
0000
0000
0000
0000
,
0000
0000
0000
0000
,
0000
0000
0000
0000
,
0000
0000
0000
0000
,
0000
3003
0000
0000
,
0000
0000
0000
0000
;
#NOTES:
     dance-single:
     :
     Easy:
     11:
     :
0000
0000
0000
0000
,
0001
1000
0010
0010
1000
0100
0010
0000
,
2002
0000
0000
0000
,
0000
0000
0000
0000
,
0000
0000
0000
0000
,
0000
0000
0000
0000
,
0000
0000
0000
0000
,
0000
0000
0000
0000
,
0000
0000
0000
0000
,
0000
0000
0000
0000
,
3003
0000
0000
0000
,
0000
0000
0000
0000
,
0000
0000
0000
0000
,
0001
0000
1000
0000
,
0100
0000
1000
0000
,
0010
0000
0100
0000
,
0010
0000
0010
0000
,
1000
0000
0100
0000
,
0001
0000
0100
0000
,
1000
0000
0001
0000
,
1000
0000
0000
0000
,
1000
0000
0001
0000
,
0100
0000
0001
0000
,
1000
0000
0010
0000
,
0100
0000
0010
0000
,
1000
0000
1000
0000
,
1000
0000
0000
0000
,
0001
0000
0001
0000
,
0001
0000
0000
0000
,
0100
0000
0010
0000
,
1000
0000
0010
0000
,
1000
0000
0100
0000
,
0010
0000
0001
0000
,
2002
0000
0000
0000
,
0000
3003
0000
0010
,
0000
0010
0000
0110
,
0000
0110
0000
0001
,
0000
0010
0000
1000
,
0000
0010
0000
0001
,
0000
0010
0000
1000
,
0000
0010
0000
0011
,
0000
0000
0000
0000
,
0011
0000
0000
0000
,
0000
0001
0000
0100
,
0000
1010
0000
0000
,
0000
0000
1010
0000
,
0000
0000
0000
1000
,
0000
0100
0000
0020
,
0000
0032
0000
0000
0000
0000
0203
0000
0000
0000
0000
2300
0000
0000
0000
0000
,
3200
0000
0000
0000
,
0020
0000
0000
0000
,
0000
0000
0330
0000
,
1000
0010
1000
0010
0100
0001
0100
0000
,
0001
0010
0001
0010
0100
1000
0100
0000
,
1000
0100
0001
0100
1000
1000
1000
0000
,
0001
0100
1000
0100
0001
0001
0010
0010
,
0100
1000
0010
1000
,
0001
0100
0001
0100
,
0010
1000
0010
0100
,
0001
0010
0100
0010
,
0001
0001
1000
1000
,
0010
0000
1000
0000
,
0100
0000
0010
0000
,
0001
0000
0100
0000
,
0001
0000
1000
0000
,
0100
0000
1000
0000
,
0010
0000
0100
0000
,
0001
0000
1000
0000
,
0010
0000
1000
0000
,
0100
0000
0010
0000
,
0001
0000
1000
0000
,
1001
2002
0000
0000
,
0000
0000
0000
0000
,
3003
0000
0000
0220
,
0000
0000
0000
0330
,
2002
0000
0000
3003
0000
0000
0110
0000
,
0000
0220
0000
0000
,
0000
0000
0000
0000
,
0330
0000
0000
2002
,
0000
0000
0000
3003
,
0220
0000
0000
0330
,
0000
1010
0000
0000
,
0000
1010
0000
0000
0000
0000
0000
0000
,
1100
0000
0000
0000
0000
0000
0000
1100
,
0000
0000
0000
0011
,
0000
0000
0000
0000
0000
0011
0000
0000
,
0000
0000
0101
0000
,
0000
0000
0000
0101
0000
0000
0000
0000
,
0000
1001
0000
2002
,
0000
0000
0000
0000
,
0000
0000
0000
3003
,
0000
0000
0000
0000
,
0000
0000
0000
0010
,
0000
0001
0000
0000
0100
0000
0000
0010
,
0000
1000
0100
0100
0100
0000
0010
0000
,
0000
1000
0000
0000
0100
0000
0000
0010
,
0000
0001
0100
0100
0100
0000
0010
0000
,
0000
0001
0000
0000
0100
0000
0000
0010
,
0000
1000
0100
0100
0100
0000
0010
0000
,
0000
1000
0000
0000
0100
0000
0000
0010
,
0000
0001
0100
0100
0100
0000
0002
0000
,
0003
2000
3000
0020
,
0000
0000
0000
0000
0000
0000
0000
0030
2000
0000
0000
0000
3000
0000
0000
0000
,
0002
0003
0020
0000
,
0000
0000
0000
0030
2002
0000
0000
0000
0000
0000
0000
0000
3003
0000
0000
0000
,
0220
0000
0000
0000
,
0000
0000
0000
0000
,
0000
0000
0000
0000
,
0330
0000
0000
0000
,
0000
0000
0000
0000
,
0010
0000
0001
0001
,
0000
1000
1000
1000
,
1000
0000
0000
0000
,
0100
0000
0000
0000
,
0001
0000
0001
0000
,
0000
0000
0100
0000
,
0000
0000
1000
0000
,
0000
0000
1001
0001
,
0000
1000
0000
0001
,
0000
1000
0000
0010
,
0000
0100
0000
0010
,
0100
0010
0000
1000
,
0000
0100
0000
1000
,
0000
0100
0000
0010
,
0000
0001
0000
0010
,
0001
0010
0000
0001
,
0000
1000
0000
0010
,
0000
0100
0000
0001
,
0000
1000
0000
0100
,
0000
0010
0000
0001
,
0000
0000
0001
0000
,
0000
1000
0000
0000
,
1000
0000
0000
0110
,
1000
0010
0100
0000
,
0001
0000
1000
0000
,
0001
0010
0100
0000
,
1000
0000
0001
0000
,
0100
0000
0100
0000
,
0010
0100
0010
0000
,
1000
0000
0001
0000
0000
1000
0000
0000
,
0001
0000
0000
1000
0000
0000
1001
0000
,
0000
1000
0010
0001
,
0000
0010
0000
1000
,
0000
0001
0010
1000
,
0000
0010
0000
0000
,
0011
0000
0000
0100
,
0000
0000
1100
0000
,
0000
2002
0000
3003
,
0000
0000
0010
0000
0000
0000
0000
0010
,
0000
0000
1000
0000
,
1000
0000
0000
0001
0000
0000
0001
0000
,
0000
0001
0000
0000
0000
0000
0100
0000
,
0000
0000
0100
0000
0000
0000
0000
0010
,
0000
0000
0000
0010
0000
0000
1000
0000
,
0000
0000
0000
0001
0000
0000
0000
0000
,
0000
2002
0000
0000
0000
0000
0000
0000
,
0000
3003
0000
0220
0000
0000
0000
0000
,
0000
0000
0000
0000
,
0000
0000
0000
0000
,
0000
0000
0000
0000
,
0000
0000
0000
0000
,
0000
0000
0000
0000
,
0000
0000
0000
0000
,
0000
0330
0000
0000
0000
0000
0000
0000
,
0000
0000
0000
0000
;
#NOTES:
     dance-single:
     :
     Medium:
     16:
     :
0000
0000
0000
0000
,
0001
0010
0001
0000
0100
0000
0100
0000
1000
0010
1000
0000
0100
0000
0100
0000
,
2002
0000
0000
0000
,
0000
0000
0000
0000
,
0000
0000
0000
0000
,
0000
0000
0000
0000
,
0000
0000
0000
0000
,
0000
0000
0000
0000
,
0000
0000
0000
0000
,
0000
0000
0000
0000
,
3003
0000
0000
0020
,
0230
0320
0230
0301
,
1000
0001
1000
0002
,
1003
0010
1000
0000
,
0100
0010
0001
0100
,
0010
0000
1000
0010
,
0100
0001
1000
0000
,
0001
0100
0001
0000
0100
0000
0000
0000
,
0010
1000
0010
0000
1000
0000
0000
0000
,
0002
0023
0230
2300
,
3002
0023
0230
2300
,
3001
0010
0001
0000
,
0100
0010
1000
0010
,
0100
0000
0001
1000
,
0100
0010
0001
0000
,
1000
0000
0000
1000
0000
0001
0000
1000
,
0000
0001
0000
1000
0000
0001
0000
0000
,
0100
0100
0100
0100
,
0100
0100
0100
0000
,
0010
1000
0001
0100
,
0110
0000
0001
0010
,
0110
0000
1000
0010
,
0200
0000
0302
0000
,
2003
0000
3010
0000
0000
0010
0000
0000
,
0010
0000
0000
0010
0000
0000
0010
1000
,
0000
0000
0010
1000
0000
0000
0001
0100
,
0000
0000
0001
0100
0000
0000
0001
0000
,
0010
0110
0000
1000
,
0010
0110
0000
0001
,
0010
0110
0000
1000
,
0220
0000
0330
0001
,
0001
0000
0000
1000
0000
1000
0000
0000
,
0010
0000
0010
0000
0000
0100
0000
0100
,
0000
1010
0000
0101
,
0000
0000
1000
0000
1000
0000
0000
0001
,
0000
0001
0000
0000
0010
0000
0010
0000
,
0000
0100
0000
0100
0000
0000
1100
0000
,
0000
0000
0000
0000
0011
0000
0000
0000
0000
0000
0000
0000
0001
0000
0001
0100
,
0001
0000
1000
0100
1000
0000
0010
0000
0010
1000
0010
0000
0100
0001
0100
0000
,
0002
0000
0013
0100
0010
0000
0002
0000
,
0103
0010
0100
0000
,
0001
1000
0100
0000
,
2000
0000
0000
3200
0000
0000
0320
0000
0000
0032
0000
0000
1003
0010
1000
0010
0000
0000
1000
0100
1000
0100
0000
0000
,
0002
0000
0000
0023
0000
0000
0230
0000
0000
2300
0000
0000
3001
0010
0001
0010
0000
0000
0001
0100
0001
0100
0000
0000
,
0002
0000
0000
2003
0000
0000
3200
0000
0000
0320
0000
0000
0031
0100
0001
0100
0000
0000
0010
1000
0010
1000
0000
0000
,
0200
0000
0000
0320
0000
0000
2030
0000
0000
3002
0000
0000
0103
0010
0100
0010
0000
0000
1000
0001
1000
0001
0000
0000
,
1000
0010
0100
0001
0100
0010
1000
0001
,
0010
0100
0010
0100
1000
0100
1000
0100
,
1000
1000
0001
0010
0001
0001
1000
0100
,
0001
0100
1000
0001
0010
0010
0001
1000
,
0010
0100
0010
1000
0001
1000
0100
1000
,
0010
0010
0001
1000
,
0100
0001
0100
1000
,
0010
0100
0001
0001
,
1000
0010
0100
0001
,
0100
0010
1000
0001
,
1000
1000
0100
0001
,
0100
0010
0001
1000
,
0010
1000
0100
0000
,
0011
0000
0101
0000
,
0010
0000
1010
0000
,
1100
0000
0010
0000
0001
0000
0000
0020
,
0030
0000
0001
0000
0000
0020
0030
0000
,
0001
0010
0000
0001
,
0100
0000
0000
0002
0003
0000
0100
0000
,
0000
0002
0003
0000
0100
0000
0000
0001
,
0000
0000
1000
0000
0100
0000
0000
2000
,
3000
0000
0100
0000
0000
2000
3000
0000
,
0100
1000
0000
0010
,
1000
0000
0000
0020
0030
0000
1000
0000
,
0000
0020
0030
0000
1000
0000
0000
0010
,
0000
0100
0010
1000
,
0000
0200
0300
0020
0030
0002
0003
0000
,
1000
0000
0001
0000
0000
2000
3000
0002
,
0003
0100
0010
0100
,
0010
0000
0000
2002
3003
0000
0010
0000
,
0100
0000
0010
0000
0000
2000
3000
0002
,
0003
0020
0030
0200
0300
2000
3000
0000
,
0001
0100
0001
2002
,
0000
0000
0000
0000
,
0000
0000
0000
0000
,
0000
0000
0000
0000
,
0000
3003
0000
0010
,
0000
0001
0000
0000
0100
0000
0000
0110
,
0000
1000
0100
0100
0100
0000
0010
0000
,
0000
1000
0000
0000
0100
0000
0000
0110
,
0000
0001
0100
0100
0100
0000
0010
0000
,
0000
0001
0000
0000
0100
0000
0000
0110
,
0000
1000
0100
0100
0100
0000
0010
0000
,
0000
1000
0000
0000
0100
0000
0000
0110
,
0000
0001
0100
0100
0100
0000
0002
0000
,
0010
0000
0000
0000
2003
0000
0000
0000
0010
0000
0000
0000
3200
0020
0000
0000
,
0000
0000
0000
0000
0330
0000
0110
1001
2000
0000
0000
0000
0100
0000
0000
0000
,
3002
0000
0000
0000
0100
0000
0000
0000
0023
0200
0000
0000
0000
0000
0000
0000
,
0330
0000
0110
1001
0020
0000
0000
0000
2030
0000
0000
0000
0000
0000
0000
0000
,
3200
0000
0000
0000
,
0302
0000
0000
0000
,
0000
0000
0000
0000
,
0003
0000
0000
0000
,
0000
0000
0000
0000
,
0010
0000
0001
0001
,
0000
1000
1000
1000
,
0001
0000
0100
0000
,
0001
0000
1000
0000
,
0100
1100
1000
0000
,
0100
0000
1001
0000
,
0010
0000
0001
0000
,
0010
0000
1001
1000
,
0100
1000
0100
0010
,
0001
0100
0001
1000
,
0010
1000
0010
0100
,
0001
1000
0010
1000
,
0001
0010
0100
1000
,
0001
0100
0010
1000
,
0001
0010
0100
1000
,
0010
0110
0000
1000
,
0100
0010
0001
1000
,
0001
0010
0001
0100
,
0010
1000
0010
0100
,
0001
0100
0010
1000
,
1000
0100
0010
0010
,
0100
0001
0001
0100
,
0010
0000
0010
0000
0100
0000
0220
0330
,
0001
0100
0001
0100
,
1000
0100
1000
0100
,
0010
1000
0010
0100
,
0001
0000
0010
0000
0001
1000
0001
0000
,
1000
0100
1000
0100
,
0001
0100
0001
0100
,
0010
0000
0011
0000
0000
0011
0000
0000
,
1100
0000
0000
1100
0000
0000
1001
0000
,
0000
0000
0010
0000
0100
0000
0010
1000
,
0010
1000
0001
0100
,
0010
0000
1000
0000
0001
0000
0100
0010
,
0100
0000
0001
1000
0001
0000
0000
0000
,
1000
0001
1000
0000
0000
0000
0001
1000
,
0001
0000
0000
0000
1000
0001
1000
0000
,
0000
2002
0000
3003
,
0000
0000
0010
0000
1000
0000
0000
0001
,
0000
0100
0000
0000
0001
0000
0010
0000
,
0001
0000
0000
0110
0000
0000
1001
0000
,
0000
1000
0000
0001
0000
0000
1000
0000
,
0100
0000
0001
0000
0100
0000
0000
1000
,
0000
0010
0000
0001
0000
0000
0010
0000
,
0100
0000
0000
0001
0000
1000
0000
0001
,
0000
2002
0000
0000
0000
0000
0000
0000
,
0000
3003
0000
0220
0000
0000
0000
0000
,
0000
0000
0000
0000
,
0000
0000
0000
0000
,
0000
0000
0000
0000
,
0000
0000
0000
0000
,
0000
0000
0000
0000
,
0000
0000
0000
0000
,
0000
0330
0000
0000
0000
0000
0000
0000
,
0000
0000
0000
0000
;
#NOTES:
     dance-single:
     :
     Hard:
     18:
     :
0000
0000
0000
0000
,
0002
0000
0103
0000
1000
0100
0001
0000
1000
0100
0010
0001
0100
0100
0100
0000
,
0001
1000
0001
1000
,
0001
1000
0001
1000
,
0001
1000
0001
1000
,
0001
1000
0001
1000
,
0001
1000
0001
1000
,
0001
1000
0001
1000
,
0001
1000
0001
1000
,
0001
1000
0001
1000
,
0002
0000
0000
0000
,
0000
0000
0000
0000
,
0000
0000
0000
0003
,
1000
0010
0100
0001
,
1000
0000
0010
0000
0100
0000
0001
1000
,
0001
0000
1000
0000
0100
0000
0010
0100
,
0010
0001
1000
0010
,
1000
0000
0010
0100
0010
0000
1000
0000
,
0001
1000
0001
0000
0100
0000
0001
0000
,
0020
2030
3002
0203
,
2300
3002
0023
0230
,
1300
0010
0100
0001
,
0010
0000
0100
0000
1000
0000
0001
0100
,
0001
0000
0010
0000
1000
0000
0010
0001
,
0010
0001
1001
0000
,
1000
0010
0000
0100
0000
0010
0000
0100
,
0000
0010
0000
0100
0000
0010
0000
1000
,
0001
0100
0001
0100
0001
0000
0000
0000
,
1000
0010
1000
0010
1000
0000
0000
0000
,
0100
0010
0001
0100
,
0001
0000
0010
0000
0100
0000
1000
0001
,
0100
0000
0010
0000
1000
0000
0001
1000
,
0010
0100
0010
0010
,
0110
0000
1010
0000
0000
1100
0000
0000
,
0101
0000
0000
0011
0000
0000
0010
0001
,
0000
1000
0100
0010
0000
0001
0100
0010
,
0000
1000
0001
0100
0000
0001
1000
0100
,
1000
0100
1000
0000
0100
0000
0010
0001
,
0010
0001
0010
0000
0001
0000
0100
0001
,
0100
0001
0100
0000
0010
0000
1000
0010
,
2000
0000
3000
0001
,
0100
0000
1000
0100
0000
0001
0000
0010
,
1000
0000
0001
0000
0100
1000
0000
0001
,
0000
0100
1000
0000
0100
0000
0001
0000
,
1000
0000
0010
0000
0001
0000
0010
1000
,
0000
0100
0000
0001
1000
0000
0010
0000
,
0001
1000
0000
0010
0000
0001
0010
0000
,
1000
0000
0000
0000
0001
0000
0000
0000
0100
0000
0000
0000
0010
1000
0100
1000
,
0010
0100
0001
0010
0001
0100
0010
1000
0100
0010
0001
0010
0100
1000
0010
0100
,
0001
0010
0001
0010
0001
0010
0001
0100
0001
0100
0001
0100
,
0001
1000
0001
1000
0001
1000
0001
1000
,
0001
1000
0001
1000
0001
1000
0001
1000
,
0001
0000
0100
0001
0000
0100
0010
0000
1000
0010
0000
1000
0100
0010
0100
0010
0100
0010
0001
1000
0001
1000
0001
1000
,
0001
0000
0010
0001
0000
0010
0100
0000
1000
0100
0000
1000
0001
0100
0001
0100
0001
0100
0010
1000
0010
1000
0010
1000
,
0001
0000
0001
0010
0000
0010
1000
0000
1000
0001
0000
0001
0100
1000
0100
1000
0100
1000
0001
0010
0001
0010
0001
0010
,
0001
0000
0001
0100
0000
0100
1000
0000
1000
0001
0000
0001
0010
1000
0010
1000
0100
1000
0001
0010
0001
0100
0001
0100
,
0001
0000
1000
0001
1000
0000
0010
0000
1000
0000
0100
0010
0100
0000
0010
0000
,
0001
0000
0100
0000
0010
0000
1000
0010
0100
0000
0001
0000
0010
0000
0100
0000
,
1000
0001
1000
0000
0010
0000
0100
0000
0001
0010
0001
0000
0100
0000
0010
0000
,
1000
0000
0100
0000
0010
0001
0010
0000
0100
1000
0100
0000
1000
0000
0001
1000
,
0001
0000
0100
0000
0010
0000
1000
0000
0001
0100
0001
0000
1000
0100
1000
0000
,
0010
0000
0001
1000
0001
0000
0100
0000
,
0010
0000
0100
0010
0100
0000
0010
0000
,
1000
0000
0100
0000
0010
0001
0010
0000
,
0100
1000
0010
0100
,
0001
1000
0001
0000
0010
0000
0100
0000
,
1000
0100
0010
0000
0001
0000
1000
0000
,
0010
0000
0100
0000
0001
0100
0010
0000
,
1000
0000
0000
0010
0000
0000
0100
0000
0000
0000
0000
0000
0001
0000
0000
0000
0010
0000
0000
0000
0100
0000
0000
0000
,
1000
0010
0100
0001
0010
0100
,
1000
0010
0100
0001
0010
0100
,
1001
0000
1100
0000
1000
0000
0001
1000
,
0000
0100
1000
0000
0001
1000
0000
0100
,
1000
1100
0000
0011
,
0001
0000
1000
0001
0000
0010
0001
0000
,
1000
0001
0000
0010
0001
0000
1001
0000
,
0000
0000
1010
0000
0010
0000
0100
0010
,
0000
1000
0010
0000
0100
0010
0000
1000
,
0010
0110
0000
0101
,
0100
0000
0010
0100
0000
0001
0100
0000
,
0010
0100
0000
0001
0100
0000
0110
0000
,
0000
0001
1000
0110
,
0000
1000
0000
0001
0000
0110
0000
0000
,
1010
0000
1010
0000
0000
0101
0000
0101
,
0000
1000
0110
0110
,
1001
0000
0000
0101
0000
0000
1010
0000
,
1001
0000
1010
0000
0000
1100
0000
0100
,
0000
0110
0000
0010
0000
0011
0000
0000
,
0011
0011
0110
2002
,
0000
0000
0000
0000
,
0000
0000
0000
0000
,
0000
0000
0000
0000
,
0000
0000
3003
0001
,
0000
0010
0000
0000
0100
0000
0000
1000
,
0000
0100
0001
0001
0100
0000
1000
0000
,
0000
0010
0000
0000
0100
0000
0000
0001
,
0000
0100
1000
1000
0100
0000
0001
0000
,
0000
0010
0000
0000
0100
0000
0000
1000
,
0000
0100
0001
0001
0100
0000
1000
0000
,
0000
0010
0000
0000
0100
0000
0000
0001
,
0000
0100
1000
1000
0100
0000
0020
0000
,
0030
0000
0000
0000
0000
0000
1000
0000
0100
0000
0010
0000
0002
0000
0000
0000
0000
0000
0000
0000
0000
0000
0000
0000
2003
0000
0000
0000
0000
0000
3000
0000
0000
0000
0000
0000
1000
0000
0000
0020
0000
0000
0000
0000
0000
0000
0000
0000
,
0000
0000
0000
0000
0000
0000
0000
0000
0000
0000
0000
0000
0030
0000
0000
0000
0000
0000
0011
0000
0000
1100
0000
0000
0020
0000
0000
0000
0000
0000
0000
0000
0000
0000
0000
0000
0030
0000
0000
0000
0000
0000
0001
0000
0100
0000
0010
0000
,
2000
0000
0000
0000
3002
0000
0003
0000
0001
0020
0000
0000
0000
0000
0000
0000
,
0030
0000
1010
0101
0020
0000
0000
0000
0200
0000
0000
0000
0000
0000
0030
0000
,
2000
0000
0000
0300
,
0002
0000
0000
0000
,
0000
0000
0000
0000
,
3003
0000
0000
0000
,
0000
0000
0000
0000
,
0010
0000
0000
0000
0001
0010
1000
0000
,
0000
0000
0001
0100
1000
0100
0001
0000
,
0001
0000
0100
0001
0100
0000
0000
0000
,
1000
0010
1000
0010
1000
0000
0000
0000
,
1000
0000
0101
0000
1000
0000
0100
1000
,
0100
0000
0000
0000
0001
0010
0001
0010
,
0001
0000
0100
0001
,
1000
0001
1001
0001
,
0100
1000
0100
0001
,
1000
0000
0100
0010
0001
0000
0100
0010
,
1000
0000
0001
0000
0100
0000
0010
0100
,
0001
0000
1000
0000
0001
0000
0010
0001
,
0100
0000
0010
0000
0100
0000
0010
1000
,
0100
0000
0010
0000
0100
0000
1000
0010
,
0100
0000
0001
0100
0010
0000
1000
0000
,
0100
0011
0000
1000
,
0010
0001
0010
1000
,
0001
0000
0010
0100
1000
0000
0010
0100
,
0001
0000
1000
0000
0010
0000
0100
0010
,
1000
0001
1000
1100
,
0100
0000
0101
0100
,
0000
1010
0010
0000
,
0011
0000
0010
0000
0000
0000
0100
0100
,
0001
0010
0001
0010
0001
0010
0001
0010
,
0001
0010
0001
0010
0001
0010
0001
0010
,
0001
0100
0001
0100
0001
0100
0001
0100
,
0001
0100
0001
0100
0001
0100
0001
0100
,
0001
1000
0200
0000
,
1300
0010
0200
0000
,
0301
0000
0101
0000
0000
1100
0000
0000
,
0101
0000
0000
1100
0000
0000
1001
0000
,
0001
0000
1000
0100
1000
0001
0010
0100
,
0010
0001
1000
0010
0100
0010
1000
0001
,
0100
0010
1000
0001
0010
0100
1000
0001
,
0100
0010
1000
0000
0010
0100
0010
0000
,
1000
0000
0100
0010
0100
0000
1000
0000
,
0010
0100
0010
0000
0001
0000
0010
0100
,
0010
2000
0000
3002
,
0000
0000
1003
0000
1010
0000
0000
0001
,
0000
0011
0000
0000
0100
0000
0010
0000
,
0110
0000
0000
1001
0000
0000
0110
0000
,
0000
1001
0000
1001
0000
0000
1000
0000
,
0100
0000
0010
0000
0011
0000
0000
0001
,
0000
0100
0000
1010
0000
0000
0010
0000
,
1001
0000
0000
0110
0000
0110
0000
0110
,
0000
0220
0000
0000
0000
0000
0000
0000
,
0000
0330
0000
1000
0000
0001
0000
1000
,
0000
0001
0000
1000
0000
0001
0000
1000
,
0000
0001
0000
1000
0000
0001
0000
1000
,
0000
0001
0000
1000
0000
0001
0000
1000
,
0000
0001
0000
1000
0000
0001
0000
1000
,
0000
0001
0000
1000
0000
0001
0000
1000
,
0000
0001
0000
1000
0000
0001
0000
1000
,
0000
0001
0000
0000
0000
0000
0000
0000
,
0000
0000
0000
0000
;
#NOTES:
     dance-single:
     :
     Challenge:
     19:
     :
0000
0000
0000
0000
,
1000
0000
0100
0000
0001
0000
0100
0000
1000
0000
0000
0000
1001
0000
0000
0000
0010
0100
0010
1000
0010
0000
0000
0000
0200
0000
0000
0000
0000
0000
0000
0000
0301
0010
0100
0000
1000
0000
0010
0000
0100
0000
0000
0000
0101
0000
0000
0000
1000
0100
1000
0000
0001
0100
0001
0100
0010
1000
0010
1000
0001
0000
0000
0000
,
0100
0010
0100
0010
,
0100
0010
0100
0010
,
0100
0010
0100
0010
,
0100
0010
0100
0010
,
0100
0010
0100
0010
,
0100
0010
0100
0010
,
0100
0010
0100
0010
,
0100
0010
0100
0020
,
0200
0000
0000
0000
,
0000
0000
0000
0000
,
0000
0000
0000
0000
0000
0000
0000
0000
0000
0000
0000
0000
0000
0000
0000
0000
0000
0000
0000
0000
0000
0000
0000
0000
0000
0000
0000
0000
0000
0000
0000
0000
0000
0000
0000
0000
0000
0000
0000
0000
0000
0000
0000
0000
0000
0000
0000
0000
0000
0330
0000
0000
0000
0000
0000
0000
0000
0000
0000
0000
0000
0000
0000
0000
,
0001
0000
0100
0010
0100
0000
0001
0000
,
1000
0000
0100
0000
0010
0000
0001
0010
,
0100
0000
1000
0000
0010
0000
0100
0001
,
1000
0000
0100
1000
0001
1000
0100
0000
,
0010
0000
0001
0000
0100
0000
0010
1000
,
0010
0000
1000
0001
0010
0001
0010
0000
,
0120
0130
1200
1300
,
2001
3001
0012
0013
,
0100
0000
1000
0000
0010
0000
1000
0001
,
1000
0000
0010
0000
0100
0001
0000
0010
,
0001
1000
0100
1000
0100
0010
0001
0010
,
0001
1000
1001
0000
,
0001
0100
0000
1000
0000
1000
0000
1000
,
0000
1000
0000
1000
0000
1000
0000
0100
,
0001
0010
0100
0000
1000
0010
0100
0000
,
0001
0100
0010
0000
1000
0100
0010
0000
,
0001
0100
0001
1000
,
0001
0100
0010
1000
,
0100
0010
0001
0010
0001
0000
0010
0000
,
0100
1000
0100
0100
,
0110
0000
0011
0000
0001
0100
0000
0000
,
1010
0000
1000
0100
0000
0000
0010
0100
,
0000
1000
0010
0100
0000
0001
0010
0100
,
0000
1000
0010
0100
0000
0001
0010
0100
,
1000
0100
0020
0000
0031
0000
0100
0010
,
1000
0010
0200
0000
0301
0000
0010
0001
,
1000
0001
0020
0000
0130
0000
1000
0000
,
2002
0000
0000
0000
3003
0000
1000
0100
,
1000
0100
0010
0002
0203
0302
0203
0320
,
1030
0010
1000
0010
0100
0002
0023
0032
,
0023
0230
2300
0000
3002
0000
0023
0000
,
0230
0000
1300
0010
0100
0001
0010
0200
,
0320
0032
2003
3200
1300
0010
0100
0001
,
0010
0002
2003
3020
0230
0302
2003
0000
,
3020
0000
0000
0000
0230
0000
0000
0000
0302
0000
0000
0000
1003
0010
0100
0001
,
0101
0001
0010
0100
1000
1100
1000
0100
0010
0001
0011
0001
0100
0010
1000
1010
,
0001
0100
1000
0100
0002
0000
1003
0100
,
0001
0200
0000
1300
,
0100
0010
0002
0000
,
1003
0010
0100
0001
0010
0100
1000
0100
0001
0100
1000
0001
0010
0100
1000
0010
0100
0001
1000
0010
0100
0001
0010
0100
,
1000
0100
0010
0100
0010
0001
1000
0010
0100
0010
0100
0001
0010
0001
0100
0010
0100
0001
1000
0010
0100
0010
1000
0100
,
0010
0100
1000
0100
0010
0001
0100
0010
1000
0001
0100
0010
1000
0001
0010
0100
0100
0100
0010
0001
1000
0100
0100
0100
,
1000
0100
0001
0100
1000
0100
0010
1000
0010
0001
0010
0100
1000
0010
0100
0001
0010
0100
1000
0100
0100
0010
0001
0001
,
1000
0000
0001
0100
0001
0000
0010
0000
0100
0000
1000
0100
1000
0000
0010
0000
,
0100
0000
0010
0000
1000
0001
1000
0001
1000
0000
0100
0000
0001
0000
0100
0000
,
1000
0010
0100
0000
0001
0000
1000
0000
0001
0010
0100
1000
0100
0000
0010
0000
,
0001
0000
1000
0000
0010
0100
0010
0000
0100
0001
0100
0001
0100
0000
0010
1000
,
0010
0000
0001
0000
0010
1000
0010
0000
1000
0100
0010
0001
1000
0100
0010
0001
,
1000
0000
0001
0100
0010
0000
1000
0000
,
0100
0000
0010
0001
1000
0100
1000
0000
,
0010
0000
0100
0000
0001
0000
1000
0010
,
1000
0000
0001
0000
0100
0000
0001
0100
,
0010
1000
0001
0000
0100
0000
1000
0000
,
0100
0010
0100
0010
1000
0000
0001
0000
,
0010
0000
0100
0000
0010
0001
0010
0100
,
1000
0000
0000
0100
0000
0000
0010
0000
0000
0000
0000
0000
0001
0000
0000
0000
0010
0000
0000
0000
1000
0000
0000
0000
,
0001
0100
1000
0001
0010
1000
,
0001
0100
1000
0001
0010
0100
,
1000
0000
0001
1000
0001
1000
0000
0002
,
0023
0030
1000
0100
0000
0002
0023
0030
,
1000
0100
0010
0000
0001
0000
1000
0000
,
1001
0000
0000
2000
3020
0030
0001
0100
,
0000
2000
3020
0030
0001
0100
0000
0010
,
1000
0000
0010
0000
0110
0000
0000
0002
,
2003
3000
0010
0100
0000
2000
3002
0003
,
0100
0010
0100
0000
0001
0000
0011
0000
,
1001
0000
0000
0020
0230
0300
0001
1000
,
0000
0200
0320
0030
1000
0001
0000
0010
,
0100
1010
0100
0011
,
0000
0022
0033
0200
0300
2020
0000
3030
,
1000
0100
0010
0000
0000
2002
3003
0220
,
0000
0330
0100
0010
0100
0010
0100
0000
,
0110
0000
0000
2002
0000
3003
1010
0000
,
0110
0000
0101
0000
0000
2000
3002
2003
,
3002
2003
3000
0220
0330
2002
0000
3003
,
0100
1000
0010
0100
0001
0010
0002
0000
,
0000
0000
0000
0000
,
0000
0000
0000
0000
,
0000
0000
0000
0000
,
0000
0000
0000
2003
,
0000
0000
0000
0000
0000
0000
3010
0001
0100
2000
0000
0000
,
0000
0000
0000
0000
0000
0000
3100
0001
0010
2000
0000
0000
,
0000
0000
0000
0000
0000
0000
3001
0100
0010
2000
0000
0000
,
0000
0000
0000
3100
0000
0000
0100
0001
0010
2000
0000
0000
,
0000
0000
0000
0000
0000
0000
3001
0100
0010
2000
0000
0000
,
0000
0000
0000
0000
0000
0000
3100
0001
0010
2000
0000
0000
,
0000
0000
0000
0000
0000
0000
0000
0000
0000
0000
0000
0000
3001
0000
0010
0000
0100
0000
1000
0000
0000
1000
0000
0000
,
0010
0010
0001
0001
0100
0100
2000
0000
,
0000
0000
0000
0000
0000
0000
0000
0000
0000
0000
0000
0000
3010
0000
0000
0000
0001
0000
0000
0000
0010
0000
0000
0000
2000
0000
0000
0000
0000
0000
0000
0000
0000
0000
0000
0000
0000
0000
0000
0000
0000
0000
0000
0000
0000
0010
0000
0000
3020
0000
0000
0000
0000
0000
0000
0000
0000
0000
0000
0000
0000
0000
0000
0000
0000
0000
0000
0000
0000
0000
0000
0000
0230
0000
0000
0000
0000
0000
0002
0000
0000
0000
0000
0000
0000
0000
0000
0000
0000
0000
0000
0000
0000
0000
0000
0000
,
0000
0000
0000
0000
0000
0000
0000
0000
0000
0000
0000
0000
0303
0000
0000
0000
0000
0000
1100
0000
0000
0011
0000
0000
0002
0000
0000
0000
0000
0000
0000
0000
0000
0000
0000
0000
0000
0000
0000
0000
0000
0000
0013
0000
1000
0000
0010
0000
,
0002
0000
0000
0000
0000
0000
0000
0010
0023
0000
0000
0000
0000
0000
0000
0000
0230
0000
2000
0000
0000
0000
0000
0000
0000
0000
0000
0000
0000
0000
0000
0000
,
3300
0000
0101
1010
2002
0000
0000
3003
0220
0000
0000
0000
0000
0000
0330
0000
,
2002
0000
0000
3003
,
0220
0000
0000
0000
,
0000
0000
0000
0000
,
0330
0000
0000
0000
,
0000
0000
0000
0000
,
0210
0000
0010
0010
,
0000
0010
0010
0310
,
1000
0001
0100
0010
0100
0000
0001
0000
,
2000
0000
0000
0000
3010
1000
0001
0100
,
0002
0003
2002
3003
0001
1000
0010
0100
,
0010
1000
0002
0000
,
0013
0100
1000
0001
0020
0030
0001
1000
,
0001
1000
0001
1000
0002
0003
1000
0000
,
0010
0100
0010
0000
0100
0000
0001
0000
,
0010
0100
0010
0000
0001
0000
1000
0100
,
0010
0000
0001
0100
0010
0000
1000
0010
,
0100
0000
0001
0010
0100
0000
2000
0000
,
3100
1100
1000
0200
,
0310
0000
0011
0000
0001
0000
1000
0010
,
1000
0000
0001
0010
0001
0000
0100
0000
,
0010
1001
0000
0002
,
0103
0010
1000
0100
1000
0001
0201
0000
,
0310
1000
0001
0010
0100
1000
1200
0000
,
0310
0001
0100
0010
0100
0001
1001
0000
,
1010
0220
0330
0002
,
0200
0303
2000
0200
,
3300
0002
0020
0033
,
2000
0000
0020
0000
3030
0000
0100
0100
,
0001
0100
0010
1000
0001
0010
0100
1000
,
0010
0100
0010
1000
0001
0100
0001
0010
,
0100
1000
0001
0010
0100
1000
0010
0100
,
0010
0100
0001
1000
0001
0100
0010
1000
,
0100
0000
0010
0001
1000
0000
0010
1000
,
0001
0000
0100
0001
1000
0000
0100
1000
,
0001
0000
0012
0013
0000
2100
3100
0000
,
0102
0103
0000
2020
3030
0000
1000
0010
,
1000
0001
0100
0010
0001
0010
0100
0001
,
0010
0100
1000
0010
0100
0001
1000
0100
,
0010
1000
0010
0100
1000
0001
0010
0100
,
1000
0001
0200
0000
0310
1000
1100
0000
,
0020
0000
0031
0100
0101
0000
2000
0000
,
3100
0010
0011
0000
0002
0000
1003
0010
,
1010
0000
0200
0000
0000
0000
0310
0100
,
0010
0100
0001
0010
0100
0000
0000
2000
,
3020
0230
0300
0000
0001
0010
0100
1000
,
0001
0000
0000
0022
0033
0000
1100
0000
,
0000
0002
2003
3020
0230
0300
0010
1000
,
1100
0000
0010
0001
0101
0000
0000
0002
,
0203
0320
0032
0023
0030
0000
1000
0100
,
0110
0000
0000
0002
0203
2300
3000
0002
,
0023
2030
3002
0200
0003
0020
0000
0000
,
0000
0330
0000
1000
0000
0100
0000
1000
,
0000
0100
0000
0010
0000
0100
0000
0010
,
0000
0100
0000
0010
0000
0001
0000
0010
,
0000
0001
0000
1000
0000
0001
0000
1000
,
0000
0001
0000
1000
0000
0010
0000
1000
,
0000
0010
0000
0100
0000
0010
0000
0100
,
0000
0010
0000
0100
0000
0001
0000
0100
,
0000
0001
0000
0000
0000
0000
0000
0000
,
0000
0000
0000
0000
;
#NOTES:
     dance-double:
     :
     Easy:
     11:
     :
00000000
00000000
00000000
00000000
,
00010000
00010000
00010000
00000000
00001000
00001000
00001000
00000000
,
00022000
00000000
00000000
00000000
,
00000000
00000000
00000000
00000000
,
00000000
00000000
00000000
00000000
,
00000000
00000000
00000000
00000000
,
00000000
00000000
00000000
00000000
,
00000000
00000000
00000000
00000000
,
00000000
00000000
00000000
00000000
,
00000000
00000000
00000000
00000000
,
00033000
00000000
00000000
00000000
,
00000000
00000000
00000000
00000000
,
00000000
00000000
00000000
00000000
,
00010000
00000000
00001000
00000000
,
01000000
00000000
00010000
00000000
,
00100000
00000000
01000000
00000000
,
10000000
00000000
10000000
00000000
,
00100000
00000000
01000000
00000000
,
00010000
00000000
00100000
00000000
,
00001000
00000000
00010000
00000000
,
00000100
00000000
00001000
00000000
,
00000010
00000000
00000100
00000000
,
00000001
00000000
00000100
00000000
,
00000010
00000000
00000010
00000000
,
00001001
00000000
00000000
00000000
,
00010000
00000000
00010000
00000000
,
00010000
00000000
00000000
00000000
,
00001000
00000000
00001000
00000000
,
00001000
00000000
00000000
00000000
,
01000000
00000000
00010000
00000000
,
00100000
00000000
00010000
00000000
,
10000000
00000000
01000000
00000000
,
00010000
00000000
00001000
00000000
,
00022000
00000000
00000000
00000000
,
00000000
00033000
00000000
00001000
,
00000000
00001000
00000000
00010000
,
00000000
00010000
00000000
00001000
,
00000000
00000010
00000000
00000001
,
00000000
00000000
00000000
00000001
,
00000000
00000100
00000000
00001000
,
00000000
00000000
00000000
00000110
,
00000000
00000000
00000000
00000000
,
00000110
00000000
00000000
00000000
,
00000000
00001000
00000000
00010000
,
00000000
00011000
00000000
00000000
,
00000000
00000000
00011000
00000000
,
00000000
00000000
00000000
00100000
,
00000000
01000000
00000000
00200000
,
00000000
20300000
00000000
00000000
00000000
00000000
30020000
00000000
00000000
00000000
00000000
00230000
00000000
00000000
00000000
00000000
,
00302000
00000000
00000000
00000000
,
00020000
00000000
00000000
00000000
,
00000000
00000000
00033000
00000000
,
00000100
00001000
00000100
00000000
00001000
00000010
00001000
00000000
,
00000001
00000100
00000001
00000100
00000010
00010000
00001000
00000000
,
00100000
00010000
00100000
00000000
00010000
01000000
00010000
00000000
,
10000000
01000000
10000000
01000000
00100000
00001000
00100000
00001000
,
00010000
00000010
00001000
00000010
,
00000100
00000001
00000010
00000100
,
00001000
00000100
00010000
00001000
,
01000000
00010000
00100000
00001000
,
01000000
00010000
10000000
10000000
,
00100000
00000000
01000000
00000000
,
00010000
00000000
00100000
00000000
,
00001000
00000000
00010000
00000000
,
00000100
00000000
00001000
00000000
,
00000010
00000000
00000001
00000000
,
00000010
00000000
00001000
00000000
,
00000001
00000000
00000010
00000000
,
00000100
00000000
00001000
00000000
,
00000010
00000000
00000100
00000000
,
00001000
00000000
00010000
00000000
,
00011000
00022000
00000000
00000000
,
00000000
00000000
00000000
00000000
,
00033000
00000000
00000000
00200000
,
00000000
00000000
00000000
00000000
,
02000000
00000000
00000000
03300000
00000000
00000000
01100000
00000000
,
00000000
20020000
00000000
00000000
,
00000000
00000000
00000000
00000000
,
30030000
00000000
00000000
00200000
,
00000000
00000000
00000000
00000000
,
00002000
00000000
00000000
00303000
,
00000000
00011000
00000000
00000000
,
00000000
00011000
00000000
00000000
00000000
00000000
00000000
00000000
,
00001010
00000000
00000000
00000000
00000000
00000000
00000000
00001010
,
00000000
00000000
00000000
00000101
,
00000000
00000000
00000000
00000000
00000000
00000101
00000000
00000000
,
00000000
00000000
00000110
00000000
,
00000000
00000000
00000000
00000110
00000000
00000000
00000000
00000000
,
00000000
00002000
00000000
00020000
,
00000000
00000000
00000000
00000000
,
00000000
00000000
00000000
00033000
,
00000000
00000000
00000000
00000000
,
00000000
00000000
00000000
00001000
,
00010000
11000000
00100000
01000000
,
00100000
01000000
01000000
11000000
,
00010000
00001000
00000011
00000010
,
00001000
00000100
00000101
00000101
,
00001000
00010000
11000000
00100000
,
00010000
01000000
11000000
11000000
,
00010000
00001000
00000011
00000010
,
00000001
00000000
00000000
00000200
,
00000300
00020000
00030000
00002000
,
00000000
00000000
00000000
00000000
00000000
00000000
00000000
00003000
00200000
00000000
00000000
00000000
00300000
00000000
00000000
00000000
,
00020000
00030000
00200000
00000000
,
00000000
00000000
00000000
00300000
20020000
00000000
00000000
00000000
00000000
00000000
00000000
00000000
30030000
00000000
00000000
00000000
,
00022000
00000000
00000000
00000000
,
00000000
00000000
00000000
00000000
,
00033000
00000000
00000000
00000000
,
00000000
00000000
00000000
00000000
,
00000000
00000000
00000000
00000000
,
00001100
00000000
00000001
00000100
,
00000000
00000100
00000100
00001100
,
00000001
00000000
00000000
00000000
,
00000010
00000000
00000000
00000000
,
00001000
00000000
00010000
00000000
,
00000000
00000000
00100000
00000000
,
00000000
00000000
10000000
00000000
,
00000000
00000000
10010000
01000000
,
00000000
00100000
00000000
00010000
,
00000000
01000000
00000000
00001000
,
00000000
00010000
00000000
00001000
,
00010000
00001000
00000000
00000010
,
00000000
00000001
00000000
00001000
,
00000000
00000100
00000000
00000010
,
00000000
00000001
00000000
00000100
,
00000010
00000100
00000000
00001000
,
00000000
00010000
00000000
00001000
,
00000000
01000000
00000000
00010000
,
00000000
00100000
00000000
01000000
,
00000000
10000000
00000000
00100000
,
00000000
00000000
00100000
00000000
,
00000000
00010000
00000000
00000000
,
00010000
00000000
00000000
00011000
,
00001000
00000010
00000100
00000000
,
00001000
00000000
00000001
00000000
,
00000100
00000010
00010000
00000000
,
00001000
00000000
01000000
00000000
,
00010000
10000000
00100000
00000000
,
01000000
00000000
01000000
00000000
,
00001000
00000000
00010000
00000000
00000000
00001000
00000000
00000000
,
00010000
00000000
00000000
00001000
00000000
00000000
00011000
00000000
,
00000000
00001000
00000100
00000001
,
00000000
00000010
00000000
00000100
,
00000000
00010000
00001000
00010000
,
00000000
00100000
00000000
00000000
,
01100000
00000000
00000000
10000000
,
00000000
00000000
10010000
00000000
,
00000000
02200000
00000000
03300000
,
00000000
00000000
00001000
00000000
00000000
00000000
00000000
00001000
,
00000000
00000000
00010000
00000000
,
00010000
00000000
00000000
00000010
00000000
00000000
00000100
00000000
,
00000000
00000010
00000000
00000000
00000000
00000000
00000100
00000000
,
00000000
00000000
00000100
00000000
00000000
00000000
00000000
00001000
,
00000000
00000000
00000000
00001000
00000000
00000000
00010000
00000000
,
00000000
00000000
00000000
00001000
00000000
00000000
00000000
00000000
,
00000000
00022000
00000000
00000000
00000000
00000000
00000000
00000000
,
00000000
00033000
00000000
02200000
00000000
00000000
00000000
00000000
,
00000000
00000000
00000000
00000000
,
00000000
00000000
00000000
00000000
,
00000000
00000000
00000000
00000000
,
00000000
00000000
00000000
00000000
,
00000000
00000000
00000000
00000000
,
00000000
00000000
00000000
00000000
,
00000000
03300000
00000000
00000000
00000000
00000000
00000000
00000000
,
00000000
00000000
00000000
00000000
;
#NOTES:
     dance-double:
     :
     Medium:
     16:
     :
00000000
00000000
00000000
00000000
,
10000000
01000000
00100000
00000000
00010000
00000000
00010000
00000000
00001000
00000100
00000010
00000000
00000001
00000000
00000001
00000000
,
00002002
00000000
00000000
00000000
,
00000000
00000000
00000000
00000000
,
00000000
00000000
00000000
00000000
,
00000000
00000000
00000000
00000000
,
00000000
00000000
00000000
00000000
,
00000000
00000000
00000000
00000000
,
00000000
00000000
00000000
00000000
,
00000000
00000000
00000000
00000000
,
00003003
00000000
00000000
00000020
,
00000230
00000320
00000230
00001300
,
00010000
00001000
00010000
00002000
,
01003000
00010000
01000000
00000000
,
01100000
00000000
10000000
00010000
,
10000000
00000000
01000000
00100000
,
00010000
00000000
00101000
00000000
,
00001000
00010000
00001000
00000000
,
00010000
00000100
00010000
00000000
,
00000200
00000320
00000032
00002003
,
00003020
00000230
00002300
00023000
,
00130000
01000000
00100000
00000000
,
10000000
00000000
01000000
00100000
,
01000000
00000000
00010000
00001000
,
00010000
00000000
00011000
00000000
,
00001000
00000000
00000000
00000010
00000000
00000001
00000000
00000010
,
00000000
00000001
00000000
00000010
00000000
00000001
00000000
00000000
,
00001000
00001000
00000100
00000100
,
00010000
00010000
00001000
00000000
,
01000000
00010000
00100000
00000000
,
01100000
00000000
10000000
00100000
,
01000000
00000000
00010000
00100000
,
00002000
00000000
00023000
00000000
,
00032000
00000000
00013000
00000000
00000000
00000100
00000000
00000000
,
00001000
00000000
00000000
00000100
00000000
00000000
00000010
00000000
,
00000001
00000010
00001000
00010000
,
01000000
10000000
00000000
01000000
,
00100000
01100000
00000000
00010000
,
00001000
00011000
00000000
00000100
,
00000010
00000110
00000000
00000001
,
00002002
00000000
00003003
00000001
,
00000001
00000000
00000000
00000100
00000000
00000100
00000000
00000000
,
00001000
00000000
00001000
00000000
00000000
00010000
00000000
00010000
,
00000000
00100000
00000000
10010000
,
00000000
00000000
10000000
00000000
10000000
00000000
00000000
01000000
,
00000000
01000000
00000000
00000000
00010000
00000000
00010000
00000000
,
00000000
00001000
00000000
00001000
00000000
00000000
00000010
00000000
,
00000000
00000000
00000000
00000000
00001001
00000000
00000000
00000000
00000000
00000000
00000000
00000000
00000100
00000000
00000001
00000010
,
00000001
00000000
00001000
00000100
00001000
00000000
00000010
00000000
00010000
00001000
00010000
00000000
00001000
01000000
00001000
00000000
,
00200000
00000000
01300000
10000000
01000000
00000000
00200000
00000000
,
00301000
00010000
00001000
00000000
,
00000100
00000001
00000010
00000000
,
00000002
00000000
00000000
00000203
00000000
00000000
00000320
00000000
00000000
00002030
00000000
00000000
00003010
00010000
00000010
00010000
00000000
00000000
00001000
00010000
00001000
00010000
00000000
00000000
,
00002000
00000000
00000000
02003000
00000000
00000000
03020000
00000000
00000000
00230000
00000000
00000000
01300000
10000000
01000000
10000000
00000000
00000000
00100000
01000000
00100000
01000000
00000000
00000000
,
20000000
00000000
00000000
32000000
00000000
00000000
03200000
00000000
00000000
00320000
00000000
00000000
00130000
00001000
00100000
00001000
00000000
00000000
00010000
00001000
00010000
00001000
00000000
00000000
,
00020000
00000000
00000000
00030020
00000000
00000000
00002030
00000000
00000000
00003200
00000000
00000000
00000310
00000100
00000010
00000100
00000000
00000000
00001000
00000001
00001000
00000001
00000000
00000000
,
00000010
00000100
00001000
00000010
00001000
00000100
00000010
00000001
,
00000100
00000010
00001000
00000100
00010000
00001000
00100000
00010000
,
01000000
01000000
00100000
10000000
01000000
01000000
00100000
00010000
,
10000000
01000000
00010000
01000000
10000000
00010000
00100000
00001000
,
00010000
00000010
00001000
00000010
00000100
00000001
00000010
00000001
,
00001000
00001000
00000010
00000100
,
00000010
00000010
00010000
00001000
,
00100000
00010000
01000000
00010000
,
00100000
01000000
10000000
00100000
,
01000000
00100000
00010000
00001000
,
00000100
00000010
00001000
00000100
,
00000001
00000100
00001000
00000001
,
00000100
00000010
00001000
00000000
,
00001010
00000000
00001100
00000000
,
00010000
00000000
00110000
00000000
,
01010000
00000000
00100000
00000000
10000000
00000000
00000000
00200000
,
00300000
00000000
10000000
00000000
00000000
00200000
00300000
00000000
,
10000000
00100000
00000000
01000000
,
00001000
00000000
00000000
02000000
03000000
00000000
00001000
00000000
,
00000000
00020000
00030000
00000000
00001000
00000000
00000000
00010000
,
00000000
00000000
00000100
00000000
00001000
00000000
00000000
00000020
,
00000030
00000000
00001000
00000000
00000000
00000020
00000030
00000000
,
00001000
00000010
00000000
00000100
,
00000001
00000000
00000000
00000200
00000300
00000000
00000001
00000000
,
00000000
00000200
00000300
00000000
00000001
00000000
00000000
00000010
,
00000000
00000001
00000100
00001000
,
00000000
00000200
00000300
00002000
00003000
00020000
00030000
00000000
,
00100000
00000000
01000000
00000000
00000000
02000000
03000000
00200000
,
00300000
10000000
01000000
00010000
,
01000000
00000000
00000000
02200000
03300000
00000000
00010000
00000000
,
00001000
00000000
00010000
00000000
00000000
00002000
00003000
00020000
,
00030000
00000020
00000030
00000200
00000300
00000002
00000003
00000000
,
00000100
00001000
00010000
00200000
,
00000000
00000000
00000000
00000000
,
00000000
00000000
00000000
00000000
,
00000000
00000000
00000000
00000000
,
00000000
00300000
00000000
10010000
,
00000000
00100000
00100000
00000000
11000000
00000000
00000000
10000000
,
10000000
01100000
10010000
00011000
,
00000000
00000100
00000100
00000000
00000010
00000000
00000000
00000001
,
00000001
00000000
00001000
00001000
00001000
00000000
00010000
00000000
,
00000000
00001000
00000000
00000000
11000000
00000000
10010000
00000000
,
00000000
00000000
01000000
01000000
00000000
01000000
00010000
00000000
,
00000000
00001000
00000000
00000000
00000101
00000000
00001001
00000000
,
00000000
00000000
00000100
00000100
00000100
00000100
00000020
00000000
,
00000001
00000000
00000000
00000000
00000230
00000000
00000000
00000000
00001000
00000000
00000000
00000000
00020300
00002000
00000000
00000000
,
00000000
00000000
00000000
00000000
00033000
00000000
00011000
00011000
02000000
00000000
00000000
00000000
00010000
00000000
00000000
00000000
,
03200000
00000000
00000000
00000000
10000000
00000000
00000000
00000000
00320000
00002000
00000000
00000000
00000000
00000000
00000000
00000000
,
00033000
00000000
00011000
00011000
00000020
00000000
00000000
00000000
00002030
00000000
00000000
00000000
00000000
00000000
00000000
00000000
,
00003200
00000000
00000000
00000000
,
00020300
00000000
00000000
00000000
,
00000000
00000000
00000000
00000000
,
00030000
00000000
00000000
00000000
,
00000000
00000000
00000000
00000000
,
00001001
00000000
00000101
00001001
,
00000000
00010000
00001001
00010000
,
10000000
00000000
01000000
00000000
,
00010000
00000000
00001000
00000000
,
00000100
00000011
00000001
00000000
,
00000100
00000000
00001000
00000000
,
00010000
00000000
01000000
00000000
,
00100000
00000000
10010000
10000000
,
01000000
10000000
01000000
00100000
,
00010000
01000000
00010000
00100000
,
00001000
00010000
00001000
00010000
,
00000010
00001000
00000100
00001000
,
00000010
00000100
00000010
00001000
,
00000001
00000010
00000100
00001000
,
00000100
00010000
00001000
01000000
,
00001000
00011000
00000000
00001000
,
01000000
00010000
00100000
00001000
,
01000000
00010000
00100000
01000000
,
10000000
01000000
00010000
00001000
,
00100000
00001000
00010000
00000100
,
00001000
00000000
00000001
00000010
,
00000000
00000100
00010000
00000000
,
00001000
00000000
00100000
00000000
01000000
00000000
10000000
10000000
,
00100000
01000000
00010000
00100000
,
01000000
00010000
00001000
00000010
,
00000100
00001000
00000010
00000100
,
00001000
00010000
00100000
01000000
,
00001000
00010000
00001000
00000010
,
00001000
00010000
00000100
00010000
,
00001000
00000000
00011000
00000000
00000000
00110000
00000000
00000000
,
00011000
00000000
00000000
00001010
00000000
00000000
00011000
00000000
,
00000000
00001000
00010000
00100000
,
10000000
01000000
00100000
00010000
,
00100000
00001000
00010000
00000100
,
00001000
00000000
00000010
00000100
00000010
00000000
00000000
00000000
,
00000100
00000010
00000100
00000000
00000000
00000000
00000001
00001000
,
00000001
00000000
00000010
00001000
,
00010000
01000000
10000000
00010000
,
00000000
00000000
10000000
00000000
00100000
00000000
00000000
01000000
,
00000000
00010000
00000000
00000000
00010000
00000000
00001000
00000000
,
00010000
00000000
00000000
00011000
00000000
00000000
00000110
00000000
,
00000000
00001000
00000000
00000001
00000000
00000000
00000001
00000000
,
00000010
00000000
00000100
00000000
00001000
00000000
00000000
00010000
,
00000000
00100000
00000000
01000000
00000000
00000000
10000000
00000000
,
01000000
00000000
00000000
00010000
00000000
00001000
00000000
00010000
,
00000000
00022000
00000000
00000000
00000000
00000000
00000000
00000000
,
00000000
00033000
00000000
00000220
00000000
00000000
00000000
00000000
,
00000000
00000000
00000000
00000000
,
00000000
00000000
00000000
00000000
,
00000000
00000000
00000000
00000000
,
00000000
00000000
00000000
00000000
,
00000000
00000000
00000000
00000000
,
00000000
00000000
00000000
00000000
,
00000000
00000330
00000000
00000000
00000000
00000000
00000000
00000000
,
00000000
00000000
00000000
00000000
;
#NOTES:
     dance-double:
     :
     Hard:
     18:
     :
00000000
00000000
00000000
00000000
,
20000000
00000000
31000000
00000000
00010000
00001000
00010000
00000000
00001000
00000010
00000001
00000100
00001000
00001000
00001000
00000000
,
00010000
00001000
00010000
00000000
,
00001000
00010000
00001000
00000000
,
00010000
00001000
00010000
00000000
,
00001000
00010000
00001000
00000000
,
00010000
00001000
00010000
00000000
,
00001000
00010000
00001000
00000000
,
00010000
00001000
00010000
00000000
,
00001000
00010000
00001000
00000000
,
00020000
00000000
00000000
00000000
,
00000000
00000000
00000000
00000000
,
00000000
00000000
00000000
00030000
,
00001000
00000010
00000001
00000010
,
00000100
00000000
00001000
00000000
00000001
00000000
00000100
00000010
,
00000100
00000000
00001000
00000000
00010000
00000000
00001000
00010000
,
00001000
01000000
00010000
00100000
,
01000000
00000000
10000000
00010000
10000000
00000000
00100000
00000000
,
01000000
00000000
00010000
10000000
00010000
00000000
10000000
00000000
,
02000000
03200000
00320000
00032000
,
00003200
00000320
00000032
00002003
,
00003001
00000100
00001000
00000100
,
00000001
00000000
00001000
00000000
00000010
00000000
00000100
00000010
,
00000100
00001000
00010000
00100000
,
10000000
00010000
10010000
00000000
,
00010000
00100000
00000000
01000000
00000000
00100000
00000000
01000000
,
00000000
00100000
00000000
01000000
00000000
00100000
00000000
00001000
,
00010000
00001000
00010000
00001000
00010000
00000000
00000000
00000000
,
00001000
00010000
00001000
00010000
00001000
00000000
00000000
00000000
,
00010000
00000010
00001000
00000001
,
00000010
00000000
00000100
00000000
00001000
00000000
00000100
00010000
,
00000100
00000000
00010000
00000000
00001000
00000000
01000000
00010000
,
01000000
00100000
10000000
00010000
,
10010000
00000000
01100000
00000000
00000000
01100000
00000000
00000000
,
00011000
00000000
00000000
00011000
00000000
00000000
00001000
00000010
,
00000000
00000000
00000001
00000100
00000000
00000000
00001000
00010000
,
00000000
00000000
00100000
10000000
00000000
00000000
01000000
10000000
,
01000000
10000000
01000000
00000000
00000000
00000000
00100000
00010000
,
00100000
00010000
00100000
00000000
00000000
00000000
00001000
00010000
,
00001000
00010000
00001000
00000000
00000000
00000000
00000010
00000000
,
00000220
00000000
00000330
00000001
,
00000100
00000000
00001000
00010000
00000000
00001000
00000000
00000010
,
00001000
00000000
00010000
00000000
01000000
10000000
00000000
00100000
,
00000000
00010000
00001000
00000000
00010000
00000000
01000000
00000000
,
00010000
00000000
00001000
00000000
00000100
00000000
00000001
00000010
,
00000000
00001000
00000000
00010000
00001000
00000000
00000100
00000000
,
00001000
00010000
00000000
00100000
00000000
10000000
01000000
00000000
,
00100000
00000000
00000000
00000000
00001000
00000000
00000000
00000000
00010000
00000000
00000000
00000000
01000000
10000000
01000000
00010000
,
00001000
00000010
00000100
00010000
00001000
00000000
00000100
00000001
00001000
00000100
00010000
00001000
00100000
01000000
00010000
00001000
,
00000010
00000001
00000010
00000001
00000000
00000000
00001000
00000100
00001000
00000100
00000000
00000000
,
00010000
00001000
00010000
00001000
00010000
00001000
00010000
00001000
,
00010000
00001000
00010000
00001000
00010000
00001000
00010000
00001000
,
00010000
00000000
00000000
00011000
00000000
00000000
00110000
00000000
00000000
01100000
00000000
00000000
10000000
01000000
10000000
01000000
10000000
01000000
00100000
01000000
00100000
01000000
00100000
01000000
,
00100000
00000000
00000000
00110000
00000000
00000000
00011000
00000000
00000000
00001100
00000000
00000000
00000010
00000100
00000010
00000100
00000010
00000100
00000001
00000100
00000001
00000100
00000001
00000100
,
00000001
00000000
00000000
00000101
00000000
00000000
00001100
00000000
00000000
00011000
00000000
00000000
00100000
00010000
00100000
00010000
00100000
00010000
01000000
00100000
01000000
00100000
01000000
00100000
,
10000000
00000000
00000000
11000000
00000000
00000000
01100000
00000000
00000000
00110000
00000000
00000000
00001000
00010000
00001000
00010000
00000010
00010000
00000010
00001000
00000010
00001000
00000100
00001000
,
00000100
00000000
00000010
00000100
00000010
00000000
00000001
00000000
00001000
00000000
00000010
00000100
00000010
00000000
00000100
00000000
,
00001000
00000000
00010000
00000000
00100000
00000000
10000000
00010000
10000000
00000000
01000000
00000000
00010000
00000000
00001000
00000000
,
00010000
00100000
00001000
00100000
00010000
00001000
00000100
00000010
,
00001000
00000000
00000001
00000000
00000010
00000100
00000010
00000000
00001000
00000000
00010000
00000000
00000100
00000000
00000010
00000000
,
00001000
00000000
00010000
00000000
00100000
00000000
10000000
00000000
01000000
00100000
01000000
00000000
00010000
00001000
00010000
00000000
,
00001000
00000000
00000010
00000100
00000010
00000000
00001000
00000000
,
00010000
00000000
00100000
01000000
00100000
00000000
10000000
00000000
,
00010000
00000000
00100000
00000000
01000000
00100000
00010000
00000000
,
01000000
00100000
00010000
00001000
,
01000000
00100000
00010000
00001000
,
00000010
00010000
00000010
00001000
,
00010000
00000000
00000010
00000000
00000100
00000001
00001000
00000000
,
00000100
00000000
00000000
00000010
00000000
00000000
00000001
00000000
00000000
00000000
00000000
00000000
00000010
00000000
00000000
00000000
00000100
00000000
00000000
00000000
00001000
00000000
00000000
00000000
,
00000001
00000100
00001000
00010000
00100000
10000000
,
00010000
01000000
10000000
01000000
00010000
00100000
,
00001000
00000000
00011000
00000000
00010000
00000000
00000100
00001000
,
00000000
00000010
00010000
00000000
00000100
00001000
00000000
00000010
,
00010000
00011000
00000000
00011000
,
00001000
00000000
01000000
00010000
00000000
00100000
00001000
00000000
,
01000000
00010000
00000000
00100000
00001000
00000000
00011000
00000000
,
00000000
00000000
00011000
00000000
00001000
00000000
00000010
00000001
,
00000000
00000010
00001000
00000000
00000010
00000001
00000000
00000010
,
00001000
00011000
00000000
00011000
,
00010000
00000000
00100000
10000000
00000000
00100000
00010000
00000000
,
00100000
10000000
00000000
00100000
00010000
00000000
00011000
00000000
,
00000000
00001000
00000010
00000001
,
00000000
00000001
00000000
00000100
00000000
00001000
00000000
00000000
,
00011000
00000000
00011000
00000000
00000000
00010000
00000000
00100000
,
00000000
00010000
00001000
00011000
,
00011000
00000000
00000000
01100000
00000000
00000000
10000000
00000000
,
01000000
00000000
00010000
00000000
00000000
00001000
00000000
00000010
,
00000000
00000001
00000000
00000010
00000000
00001000
00000000
00000000
,
00010000
01000000
00010000
00022000
,
00000000
00000000
00000000
00000000
,
00000000
00000000
00000000
00000000
,
00000000
00000000
00000000
00000000
,
00000000
00000000
00000000
00000000
00033000
00000000
00000000
01000000
,
00100000
00001000
00010000
00000100
00000010
00000001
00000100
00000010
,
00010000
00001000
00000000
00001000
00000000
00000000
00000000
00100000
,
01000000
10000000
00010000
01000000
00001000
00010000
00000100
00000010
,
00000001
00000000
00000000
00001100
00000000
00000000
00000000
00010000
,
00001000
00100000
00010000
10000000
01000000
00100000
00001000
00010000
,
00000100
00000010
00000000
00000010
00000000
00000000
00000000
00000001
,
00001000
00000100
00010000
00001000
00100000
00010000
10000000
00100000
,
01000000
00000000
00010000
00010000
00010000
00000000
20000000
00000000
,
30000000
00000000
00000000
00000000
00000000
00000000
00100000
00000000
01000000
00000000
00100000
00000000
02000000
00000000
00000000
00000000
00000000
00000000
00000000
00000000
00000000
00000000
00000000
00000000
03001000
00000000
00000000
00000000
00000000
00000000
00000000
00000000
00000000
00000000
00000000
00000000
00010000
00000000
00000000
00002000
00000000
00000000
00000000
00000000
00000000
00000000
00000000
00000000
,
00000000
00000000
00000000
00000000
00000000
00000000
00000000
00000000
00000000
00000000
00000000
00000000
00003000
00000000
00000000
00000000
00000000
00000000
00011000
00000000
00000000
00000110
00000000
00000000
00000002
00000000
00000000
00000000
00000000
00000000
00000000
00000000
00000000
00000000
00000000
00000000
00000003
00000000
00000000
00000000
00000000
00000000
00000010
00000000
00000100
00000000
00000010
00000000
,
00000200
00000000
00000000
00000000
00010300
00000000
00000000
00000000
00001000
00020000
00000000
00000000
00000000
00000000
00000000
00000000
,
00030000
00000000
00011000
01100000
20000000
00000000
00000000
00000000
30020000
00000000
00000000
00000000
00000000
00000000
00000000
00000000
,
00032000
00000000
00000000
00000000
,
00003002
00000000
00000000
00000000
,
00000000
00000000
00000000
00000000
,
00000003
00000000
00000000
00000000
,
00000000
00000000
00000000
00000000
,
00011000
00000000
00000000
00000000
00000100
00001000
00000100
00001000
,
00000000
00000000
00000001
00000010
00000001
00000010
00001000
00000000
,
00010000
00000000
00001000
00010000
00001000
00000000
00000000
00000000
,
00010000
00000010
00010000
00000010
00010000
00000000
00000000
00000000
,
00001000
00000000
00010100
00000000
00001000
00000000
00010000
00001000
,
00010000
00000000
00000000
00000000
00001000
00100000
00001000
00100000
,
00001000
00000000
00010000
00001000
,
00010000
00001000
00011000
00001000
,
00000010
00000001
00000100
00001000
,
00000100
00000001
00000010
00001000
,
00010000
00000100
00010000
01000000
,
10000000
00010000
01000000
00100000
,
10000000
01000000
00010000
01000000
,
10000000
00100000
00010000
00001000
,
00011000
00010000
00011000
00001000
,
00011000
00011000
00000000
00001000
,
00000100
00000001
00001000
00000100
,
00000001
00000100
00000010
00000001
,
00001000
00000100
00010000
00001000
,
00100000
00010000
10000000
01000000
,
11000000
00000000
00100000
00110000
,
00000000
00000100
00001100
00000000
,
00000010
00000000
00000011
00000000
00000000
00000000
00000100
00000100
,
00000001
00000010
00000001
00000010
00000100
00001000
00000100
00001000
,
00000100
00010000
00001000
00100000
,
00010000
01000000
00010000
01000000
00100000
10000000
00100000
10000000
,
00100000
10000000
01000000
00100000
,
00001000
00010000
00000010
00000100
,
00001000
00010000
00000010
00000100
,
00000001
00000000
00000101
00000000
00000000
00001010
00000000
00000000
,
01010000
00000000
00000000
10100000
00000000
00000000
10010000
00000000
,
00000000
00000000
01000000
10000000
01000000
00100000
00010000
00100000
,
00001000
00000000
00010000
00000100
00001000
00000100
00001000
00000010
,
00000100
00000000
00000001
00000010
00000100
00000000
00001000
00000100
,
00010000
00001000
00010000
01000000
,
00100000
00001000
00010000
00000010
,
00001000
00000100
00000010
00000001
,
00000100
00000000
00000010
00000100
00000010
00000100
00000010
00000100
,
00000010
00000000
00000100
00000000
00000001
00000000
00000000
00000100
,
00000000
00001000
00000000
00000000
00010000
00000000
00100000
00000000
,
01100000
00000000
00000000
10010000
00000000
00000000
10010000
00000000
,
00000000
10000000
00000000
00010000
00000000
00000000
00001000
00000000
,
00010000
00000000
00001000
00000000
00011000
00000000
00000000
00001000
,
00000000
00000001
00000000
00001001
00000000
00000000
00000100
00000000
,
00000010
00000000
00000000
00001000
00000000
00010000
00000000
00001000
,
00000000
00022000
00000000
00000000
00000000
00000000
00000000
00000000
,
00000000
00033000
00000000
00001000
00000000
00010000
00000000
00001000
,
00000000
00010000
00000000
00001000
00000000
00010000
00000000
00001000
,
00000000
00010000
00000000
00001000
00000000
00010000
00000000
00001000
,
00000000
00010000
00000000
00001000
00000000
00010000
00000000
00001000
,
00000000
00010000
00000000
00001000
00000000
00010000
00000000
00001000
,
00000000
00010000
00000000
00001000
00000000
00010000
00000000
00001000
,
00000000
00010000
00000000
00001000
00000000
00010000
00000000
00001000
,
00000000
00010000
00000000
00000000
00000000
00000000
00000000
00000000
,
00000000
00000000
00000000
00000000
;
#NOTES:
     dance-double:
     :
     Challenge:
     19:
     :
00000000
00000000
00000000
00000000
,
10000000
00000000
01000000
00000000
00100000
00000000
00010000
00000000
10000000
00000000
00000000
00000000
00100000
00000000
00000000
00000000
01000000
00010000
01000000
00000000
00001000
00000000
00000000
00000000
00022000
00000000
00000000
00000000
00033000
00000000
00000000
00000000
00100000
00001000
00100000
00000000
00001000
00000000
00010000
00000000
00000010
00000000
00000100
00000000
00001000
00000000
00000000
00000000
00010000
00000000
00100000
00000000
01000000
00010000
01000000
00000000
00001000
00100000
00001000
00000000
00010000
00000000
00000000
00000000
,
00022000
00000000
00000000
00000000
,
00000000
00000000
00000000
00000000
,
00000000
00000000
00000000
00000000
,
00000000
00000000
00000000
00000000
,
00000000
00000000
00000000
00000000
,
00000000
00000000
00000000
00000000
,
00000000
00000000
00000000
00000000
,
00033000
00000000
00000000
00000000
,
00000220
00000000
00000000
00000000
,
00000000
00000000
00000000
00000000
,
00000000
00000000
00000000
00000330
,
00001000
00000000
00000010
00000100
00000010
00000000
00001000
00000000
,
00000100
00000010
00000100
00000000
00001000
00000000
00000010
00000000
,
00001000
00010000
01000000
00100000
,
10000000
00000000
00100000
10000000
00100000
00000000
01000000
00000000
,
00001000
00100000
01000000
00010000
,
00001000
00010000
00100000
10000000
,
00200000
02300000
03020000
00032000
,
00003020
00000230
00000302
00000000
,
00001003
00000000
00000100
00000010
00000100
00000000
00001000
00000000
,
00000010
00000100
00000010
00000000
00001000
00000000
00000100
00000000
,
00010000
00001000
00100000
01000000
,
00010000
00001000
00011000
00000000
,
00010000
00001000
00000000
00000010
00000000
00000100
00000000
00000010
,
00000000
00001000
00000000
00010000
00000000
00100000
00000000
01000000
,
00010000
01000000
00010000
00000000
10000000
00100000
10000000
00000000
,
01000000
00100000
00010000
00000000
00100000
00001000
00010000
00000000
,
00001000
00010000
00001000
00000010
,
00001000
00000000
00010000
00000000
00001000
00000000
00000100
00000001
,
00000100
00000000
00000010
00001000
00000010
00000000
00010000
00000010
,
00010000
00000000
00001000
00010000
00001000
00000000
00010000
00000000
,
00011000
00000000
00011000
00000000
00001000
01000000
00000000
00000000
,
01010000
00000000
00010000
10000000
00000000
00000000
01000000
10000000
,
00000000
00010000
00100000
00010000
00000000
01000000
00010000
01000000
,
00000000
00001000
00010000
00001000
00000000
00010000
00000010
00000000
,
00001000
00002020
00003030
00000001
,
00000010
00000220
00000330
00010000
,
00001000
00202000
00303000
00100000
,
02200000
00000000
00000000
00000000
03300000
00000000
10000000
01000000
,
00100000
00010000
10000000
00200000
02300000
03020000
02030000
03020000
,
00130000
00001000
00010000
00001000
00100000
00002000
00023000
00030200
,
00002300
00003200
00000320
00000000
00000032
00000000
00002003
00000000
,
00000000
00000000
00003001
00000100
00000010
00001000
00000001
00000020
,
00000230
00002300
00003200
00002300
00003010
00010000
00001000
00010000
,
00000010
00020000
00032000
02003000
03020000
02030000
03200000
00000000
,
20300000
00000000
00000000
00000000
30020000
00000000
00000000
00000000
00030000
00000000
00000000
00000000
10100000
00100000
01000000
00001000
,
00010000
00010100
00000100
00001000
00000010
00000100
00000101
00000001
00001000
00000010
00010000
00011000
00001000
00100000
00010000
01000000
,
00100000
10000000
01000000
00100000
00020000
00000000
00130000
00001000
,
00010000
00002000
00000000
00003010
,
00000001
00001000
00000002
00000003
,
00000001
00000010
00000001
00000010
00000001
00000010
00000100
00001000
00000100
00001000
00000100
00001000
00000100
00000000
00000100
00010000
00000000
00010000
00001000
00000000
00001000
00100000
00000000
00100000
,
00010000
01000000
00010000
01000000
00010000
01000000
00100000
10000000
00100000
10000000
00100000
10000000
01000000
00100000
00010000
00100000
00000000
00100000
00001000
00010000
00000010
00001000
00000000
00000000
,
00000010
00001000
00000100
00001000
00000010
00000100
00001000
00010000
00001000
00010000
00100000
01000000
00010000
01000000
00010000
00100000
00010000
00100000
00001000
00010000
00001000
00010000
00000100
00001000
,
00000010
00000000
00000010
00001000
00000000
00001000
00010000
00000000
00010000
01000000
00000000
00100000
10000000
00100000
00010000
00001000
00100000
01000000
00010000
00001000
00000010
00000100
00001000
00000010
,
00000001
00000000
00000010
00000100
00000010
00000000
00001000
00000000
00000100
00000000
00010000
00001000
00010000
00000000
00001000
00000000
,
01000000
00000000
00010000
00000000
00100000
01000000
00100000
01000000
00100000
00000000
00010000
00000000
10000000
00000000
01000000
00000000
,
00100000
00001000
00100000
00000000
00001000
00000000
00010000
00000000
00000100
00000000
00001000
00000010
00000100
00000000
00000001
00000000
,
00000010
00000000
00000100
00000000
00001000
00000001
00001000
00000000
00000010
00001000
00000010
00001000
00000010
00000000
00000100
00000001
,
00000100
00000000
00000001
00000000
00000010
00000000
00001000
00000000
00010000
00000000
01000000
00100000
00010000
00000000
10000000
00000000
,
00010000
00000000
01000000
00100000
01000000
00000000
00010000
00000000
,
10000000
00000000
01000000
00100000
00001000
00000000
00010000
00000000
,
00001000
00000000
00000010
00000000
00000100
00000000
00000010
00000100
,
00000010
00000001
00001000
00000100
,
00000010
00000001
00000010
00000000
00000100
00000000
00010000
00000000
,
00001000
00100000
00010000
00000000
01000000
00000000
00100000
00000000
,
01000000
00000000
00010000
00000000
10000000
01000000
10000000
00000000
,
00100000
00000000
00000000
00010000
00000000
00000000
00001000
00000000
00000010
00000000
00000100
00000000
,
00010000
00001000
00100000
01000000
00010000
00001000
,
00000010
00001000
00010000
01000000
00100000
00001000
,
00011000
00000000
00001000
00010000
00001000
00010000
00000000
00200000
,
20300000
30000000
01000000
00100000
00000000
02000000
03020000
00030000
,
00001000
00010000
00001000
00000000
00010000
00000000
00000100
00000000
,
00001100
00000000
00000000
00000002
00000203
00000300
00000010
00001000
,
00000000
00000200
00020300
00030000
00001000
00100000
00000000
00001000
,
00010000
00000000
00001000
00000000
00011000
00000000
00000000
00020000
,
00032000
00003000
00010000
00100000
00000000
02000000
03020000
00030000
,
00100000
01000000
00100000
00000000
00010000
00000000
01000000
00000000
,
01100000
00000000
00000000
20000000
30200000
00300000
01000000
00010000
,
00000000
00200000
00302000
00003000
00010000
00000010
00000000
00001000
,
00000010
00000100
00001000
00011000
,
00000000
00202000
00303000
00020000
00030000
00220000
00330000
00000000
,
00100000
00010000
00100000
00000000
00000000
00002000
00003000
00022000
,
00033000
00000000
00001000
00010000
00001000
00010000
00001000
00000000
,
00011000
00000000
00000000
00022000
00000000
00033000
00011000
00000000
,
00010000
00000000
00011000
00000000
00000000
00020000
00032000
00023000
,
00032000
00023000
00030000
00002000
00003000
00022000
00000000
00033000
,
00010000
00001000
00100000
00010000
01000000
00100000
20000000
00000000
,
00000000
00000000
00000000
00000000
,
00000000
00000000
00000000
00000000
,
00000000
00000000
00000000
00000000
,
00000000
00000000
00000000
30020000
,
00000000
00000000
00000000
00000000
00000000
00000000
10030000
00100000
01000000
00020000
00000000
00000000
,
00000000
00000000
00000000
00000000
00000000
00000000
00030010
00000100
00001000
00020000
00000000
00000000
,
00000000
00000000
00000000
00000000
00000000
00000000
00130000
01000000
10000000
00020000
00000000
00000000
,
00000000
00000000
00000000
01030000
00000000
00000000
01000000
00001000
00100000
00020000
00000000
00000000
,
00000000
00000000
00000000
00000000
00000000
00000000
00031000
00000010
00000100
00020000
00000000
00000000
,
00000000
00000000
00000000
00000000
00000000
00000000
00130000
00001000
01000000
00020000
00000000
00000000
,
00000000
00000000
00000000
00000000
00000000
00000000
00000000
00000000
00000000
00000000
00000000
00000000
00031000
00000000
00000100
00000000
00000001
00000000
00000010
00000000
00000000
00000010
00000000
00000000
,
00001000
00001000
00010000
00010000
01000000
01000000
20000000
00000000
,
00000000
00000000
00000000
00000000
00000000
00000000
00000000
00000000
00000000
00000000
00000000
00000000
30100000
00000000
00000000
00000000
01000000
00000000
00000000
00000000
00100000
00000000
00000000
00000000
02000000
00000000
00000000
00000000
00000000
00000000
00000000
00000000
00000000
00000000
00000000
00000000
00000000
00000000
00000000
00000000
00000000
00000000
00000000
00000000
00000000
00010000
00000000
00000000
03020000
00000000
00000000
00000000
00000000
00000000
00000000
00000000
00000000
00000000
00000000
00000000
00000000
00000000
00000000
00000000
00000000
00000000
00000000
00000000
00000000
00000000
00000000
00000000
00230000
00000000
00000000
00000000
00000000
00000000
00020000
00000000
00000000
00000000
00000000
00000000
00000000
00000000
00000000
00000000
00000000
00000000
00000000
00000000
00000000
00000000
00000000
00000000
,
00000000
00000000
00000000
00000000
00000000
00000000
00000000
00000000
00000000
00000000
00000000
00000000
00330000
00000000
00000000
00000000
00000000
00000000
00001100
00000000
00000000
00000011
00000000
00000000
00000002
00000000
00000000
00000000
00000000
00000000
00000000
00000000
00000000
00000000
00000000
00000000
00000000
00000000
00000000
00000000
00000000
00000000
00000013
00000000
00000100
00000000
00000010
00000000
,
00000200
00000000
00000000
00000000
00000000
00000000
00000000
00001000
00002300
00000000
00000000
00000000
00000000
00000000
00000000
00000000
00003020
00000000
00002000
00000000
00000000
00000000
00000000
00000000
00000000
00000000
00000000
00000000
00000000
00000000
00000000
00000000
,
00003030
00000000
01010000
10100000
20020000
00000000
00000000
30030000
02200000
00000000
00000000
00000000
00000000
00000000
03300000
00000000
,
00022000
00000000
00000000
00033000
,
00000220
00000000
00000000
00000000
,
00000000
00000000
00000000
00000000
,
00000330
00000000
00000000
00000000
,
00000000
00000000
00000000
00000000
,
00002001
00000000
00000001
00000001
,
00000000
00000001
00000001
00003001
,
00000001
00000100
00000010
00000000
00000100
00000000
00001000
00000000
,
00010000
00000000
00001000
00000000
00010000
00001000
00100000
00010000
,
00200000
00300000
20020000
30030000
10000000
01000000
00100000
00000000
,
01000000
00010000
00001000
00010000
,
00001000
00010000
00000010
00001000
00000020
00000030
00001000
00000001
,
00001000
00000001
00001000
00000001
00001000
00000000
00000001
00000010
,
00000100
00010000
00000100
00000010
,
00001000
00000000
00010000
00000000
01000000
00000000
10000000
00010000
,
01000000
00000000
00100000
10000000
00100000
00000000
01000000
00010000
,
10000000
00000000
00010000
00100000
00010000
00000000
10000000
01000000
,
00100000
00010000
10000000
00100000
,
00010000
00000000
00001000
00000000
00000100
00000000
00000010
00010000
,
00001000
00000000
00100000
00001000
00010000
00000000
00001000
00000000
,
00010000
00000000
00011000
00000000
00000000
00000000
00010000
00000010
,
00001000
00000000
00000010
00000000
00000100
00000000
00000001
00000010
,
00000100
00000000
00001000
00000000
00000010
00000000
00010000
00000100
,
00010000
00000000
00001000
00010000
00001000
00000000
00100000
00001000
,
00100000
00000000
00010000
00100000
01000000
00000000
20000000
00000000
,
31000000
11000000
00020000
00130000
,
00110000
00002000
00013000
00011000
,
00012000
00000000
00023000
00000000
00032000
00000000
00013000
00010000
,
00001000
00010000
00000100
00001000
00000100
00000010
00000001
00000000
,
00000010
00000100
00000010
00000001
00001000
00000100
00001000
00000000
,
00000100
00010000
00001000
00010000
00001000
00100000
00010000
00000000
,
00100000
00010000
01000000
00100000
01000000
00010000
10000000
00000000
,
00010000
01000000
00100000
00010000
00100000
00010000
00001000
00010000
,
00001000
00000100
00001000
00000100
00000010
00001000
00000010
00000000
,
00000100
00000000
00000002
00000013
00000000
00002000
00013000
00000000
,
02000000
13000000
00000000
00020000
00030000
00000000
10000000
00100000
,
01000000
00010000
00100000
01000000
00010000
01000000
00100000
00010000
,
00100000
00000000
00001000
00010000
00000100
00001000
00000100
00000010
,
00000001
00001000
00000010
00000100
00001000
00000100
00000010
00001000
,
00000010
00000000
00002000
00000000
00003010
00000100
00000010
00000000
,
00000200
00000000
00001300
00010000
00001000
00000000
00020000
00000000
,
00130000
01000000
00100000
00000000
20000000
00000000
31000000
00100000
,
01000000
00000000
00020000
00000000
00000000
00000000
00031000
00010000
,
00001000
00010000
00001000
00010000
00000100
00000000
00000000
00002000
,
00003200
00000320
00000030
00000000
00000001
00000100
00001000
00010000
,
00100000
00000000
00000000
20200000
30300000
00000000
10010000
00000000
,
00000000
20000000
32000000
03200000
00320000
00030000
10000000
01000000
,
00100000
00000000
00001000
00010000
00001000
00000000
00000000
00020000
,
00030200
00002300
00003200
00020300
00030000
00000000
00001000
00100000
,
00010000
00000000
00000000
02000000
03200000
20300000
30000000
00200000
,
02300000
03020000
00230000
00002000
00300000
00020000
00000000
00000000
,
00000000
00033000
00000000
00001000
00000000
00010000
00000000
00100000
,
00000000
00000000
00000000
10000000
00000000
01000000
00000000
00010000
,
00000000
00000000
00000000
00001000
00000000
00000010
00000000
00000001
,
00000000
00000000
00000000
00000100
00000000
00001000
00000000
00010000
,
00000000
00000000
00000000
00100000
00000000
10000000
00000000
01000000
,
00000000
00000000
00000000
00010000
00000000
00001000
00000000
00000010
,
00000000
00000000
00000000
00000001
00000000
00000100
00000000
00001000
,
00000000
00010000
00000000
00000000
00000000
00000000
00000000
00000000
,
00000000
00000000
00000000
00000000
;
