
//----- song ID: tigh -----//
#TITLE:Hold Tight;
#ARTIST:800 slopes;
#BANNER:Hold Tight.png;
#BACKGROUND:Hold Tight-bg.png;
#CDTITLE:./CDTitles/DDR HOTTEST PARTY.png;
#MUSIC:Hold Tight.ogg;
#SAMPLESTART:54.922;
#SAMPLELENGTH:15;
#BPMS:0=130;
#STAGE:2;
#NOTES:
     dance-single:
     :
     Beginner:
     1:
     :
0000
0000
0000
0000
,
0000
0000
0000
0000
,
0000
0000
0000
0000
,
0000
0000
0000
0000
,
0000
0000
0000
0000
,
0000
0000
0000
0000
,
1000
0000
0000
0000
,
0000
0000
0000
0000
,
0001
0000
0000
0000
,
0000
0000
0000
0000
,
0100
0000
0000
0000
,
0000
0000
0000
0000
,
0010
0000
0000
0000
,
0000
0000
0000
0000
,
1000
0000
0000
0000
,
0001
0000
0000
0000
,
1000
0000
0000
0000
,
0100
0000
0000
0000
,
1000
0000
0000
0000
,
0001
0000
0000
0000
,
1000
0000
0000
0000
,
0010
0000
0000
0000
,
0100
0000
0000
0000
,
0100
0000
0000
0000
,
0001
0000
0000
0000
,
0001
0000
0000
0000
,
1000
0000
0000
0000
,
1000
0000
0000
0000
,
0010
0000
0000
0000
,
0010
0000
0000
0000
,
1000
0000
0000
0000
,
0001
0000
0000
0000
,
0010
0000
0000
0000
,
0100
0000
0000
0000
,
1000
0000
0000
0000
,
0001
0000
0000
0000
,
0100
0000
0000
0000
,
0010
0000
0000
0000
,
1000
0000
0000
0000
,
1000
0000
0000
0000
,
0001
0000
0000
0000
,
0001
0000
0000
0000
,
0100
0000
0000
0000
,
0100
0000
0000
0000
,
0010
0000
0000
0000
,
0010
0000
0000
0000
,
1000
0000
0000
0000
,
0100
0000
0000
0000
,
0010
0000
0000
0000
,
0001
0000
0000
0000
,
1000
0000
0000
0000
,
0010
0000
0000
0000
,
0100
0000
0000
0000
,
0001
0000
0000
0000
,
1000
0000
0000
0000
,
0000
0000
0000
0000
;
#NOTES:
     dance-single:
     :
     Easy:
     3:
     :
0000
0000
0000
0000
,
0000
0000
0000
0000
,
0000
0000
0000
0000
,
0000
0000
0000
0000
,
0000
0000
0000
0000
,
0000
0000
0000
0000
,
0001
0000
0000
0000
,
1000
0000
0000
0000
,
0100
0000
0000
0000
,
0100
0000
0000
0000
,
1000
0000
0000
0000
,
0001
0000
0000
0000
,
0010
0000
0000
0000
,
0010
0000
0000
0000
,
0001
0000
1000
0000
,
0200
0000
0300
0000
,
1000
0000
0001
0000
,
0020
0000
0030
0000
,
0100
0000
1000
0000
,
0002
0000
0003
0000
,
0010
0000
0001
0000
,
2000
0000
3000
0000
,
0001
0000
1000
0000
,
0100
0000
0100
0000
,
1000
0000
0001
0000
,
0010
0000
0010
0000
,
0100
0000
1000
0000
,
0001
0000
0001
0000
,
0010
0000
0001
0000
,
2000
0000
3000
0000
,
0001
0000
0010
0000
,
0100
0000
1000
0000
,
1000
0000
0010
0000
,
0200
0000
0300
0000
,
0100
0000
0001
0000
,
1000
0000
0010
0000
,
0010
0000
1000
0000
,
0002
0000
0003
0000
,
1000
0000
1000
0000
,
0001
0000
0001
0000
,
0100
0000
0010
0000
,
0100
0000
0010
0000
,
1000
0000
1000
0000
,
0001
0000
0001
0000
,
0010
0000
0100
0000
,
0010
0000
0100
0000
,
1000
0000
0010
0000
,
0100
0000
0001
0000
,
0001
0000
0010
0000
,
0200
0000
0300
0000
,
0100
0000
1000
0000
,
0001
0000
0010
0000
,
0010
0000
0001
0000
,
2000
0000
3000
0000
,
0001
0000
0000
0000
,
0000
0000
0000
0000
;
#NOTES:
     dance-single:
     :
     Medium:
     8:
     :
0000
0000
0000
0000
,
0000
0000
0000
0000
,
0000
0000
0000
0000
,
0000
0000
0000
0000
,
0000
0000
0000
0000
,
0000
0000
0000
0000
,
2000
0000
0000
0000
,
3200
0000
0000
0000
,
0310
0001
1000
0100
,
0001
0100
2000
0000
,
3002
0000
0000
0000
,
0203
0000
0000
0000
,
0310
1000
0001
0100
,
1000
0100
0002
0000
,
1003
0000
0100
0000
0010
0001
0000
1000
,
0000
0001
0000
0100
0000
0001
0000
1000
,
0100
0000
0010
0000
0001
0010
0000
0100
,
0000
1000
0000
0001
0000
0100
0000
0010
,
1000
0000
0010
0000
0100
0001
0000
1000
,
0000
0001
0000
0010
0000
0001
0000
1000
,
0010
0000
0100
0000
0001
0100
0000
0010
,
0000
1000
0000
0001
0000
0010
0000
0100
,
2000
0000
0000
3001
0010
0001
0010
0001
,
1000
0010
0100
0001
,
1000
0010
1000
0000
0001
0100
0001
0000
,
2000
0000
3100
0010
,
0002
0000
0000
1003
0100
1000
0100
1000
,
0001
0100
0010
1000
,
0001
0100
0001
0000
1000
0010
1000
0000
,
0002
0000
0000
0000
,
1003
0000
0100
0000
1000
0100
0001
0000
,
0100
0000
1000
0000
0001
0100
1000
0000
,
0100
0010
0100
0010
0000
1000
0002
0000
,
0200
0000
0303
0000
,
0001
0000
0010
0000
0001
0010
1000
0000
,
0010
0000
0001
0000
1000
0010
0001
0000
,
0010
0100
0010
0100
0000
0001
2000
0000
,
0020
0000
3030
0000
,
1000
0000
0000
0001
0100
0000
0000
0010
,
1000
0000
0000
0001
0010
0000
0000
0100
,
1000
0010
0100
0001
,
1000
0100
0010
1001
,
1000
0000
0000
0001
0010
0000
0000
0100
,
1000
0000
0000
0001
0100
0000
0000
0010
,
1000
0100
0010
0001
,
1000
0100
0010
0000
0001
0000
2000
0000
,
3001
0000
0010
0000
1000
0010
0001
0000
,
1000
0000
0010
0000
0001
0010
1000
0000
,
0100
0010
0100
0010
0000
0001
1000
0010
,
0200
0000
0000
0302
,
1003
0000
0100
0000
0001
0100
1000
0000
,
0001
0000
0100
0000
1000
0100
0001
0000
,
0010
0100
0010
0100
0000
1000
0001
0010
,
0200
0000
0000
0000
,
0300
0000
0000
0000
,
0000
0000
0000
0000
;
#NOTES:
     dance-single:
     :
     Hard:
     12:
     :
0000
0000
0000
0000
,
0000
0000
0000
0000
,
0000
0000
0000
0000
,
0000
0000
0000
0000
,
0000
0000
0000
0000
,
0000
0000
0000
0000
,
2000
0000
0000
3010
0200
0000
0000
0301
,
0020
0000
0000
0130
2000
0000
0000
3010
,
0100
0001
0100
2000
0000
3100
0001
0010
,
0200
0000
1000
0000
0010
0010
0310
0000
,
0002
0000
0000
0013
0200
0000
0000
1300
,
0020
0000
0000
0130
0002
0000
0000
0013
,
0100
1000
0100
0002
0000
0103
1000
0010
,
0200
0000
0001
0000
0010
0010
0310
0000
,
1000
0000
0001
0000
0010
0000
0100
0000
1000
0100
1000
0000
0100
0000
0020
0000
,
0000
0000
0032
0000
0000
0000
1003
0000
0010
1000
0010
0000
1000
0000
0001
1000
,
0001
0000
1000
0000
0100
0000
0010
0000
0001
0010
0001
0000
0010
0000
0200
0000
,
0000
0000
2300
0000
0000
0000
3001
0000
0100
0001
0100
0000
0001
0000
1000
0001
,
1000
0000
0001
0000
0100
0000
0010
0000
1000
0010
1000
0000
0010
0000
0200
0000
,
0000
0000
0302
0000
0000
0000
1003
0000
0100
1000
0100
0000
1000
0000
0001
1000
,
0001
0000
1000
0000
0010
0000
0100
0000
0001
0100
0001
0000
0100
0000
0020
0000
,
0000
0000
2030
0000
0000
0000
3001
0000
0010
0001
0010
0000
0001
0000
1000
0001
,
2000
0000
0000
3100
0010
1000
0010
0001
,
0200
1000
0001
1300
,
0100
0000
0001
0000
0010
0000
0100
0000
0010
0100
0010
0000
0100
0000
1000
0000
,
0001
0000
1000
0000
0010
0000
0100
0000
0010
0100
0010
0000
0200
0000
0000
0000
,
0302
0000
0000
0103
0010
0001
0010
1000
,
0200
0001
1000
0301
,
0100
0000
1000
0000
0010
0000
0100
0000
0010
0100
0010
0000
0100
0000
0001
0000
,
1000
0000
0001
0000
0010
0000
0100
0000
0010
0100
0010
0000
0200
0000
0000
0000
,
2300
0000
0000
3001
0100
1000
0100
0010
,
0001
0010
2000
0000
3100
0010
0002
0000
,
1003
0000
0010
0100
0001
0000
2000
0000
0000
0000
3100
0000
0001
0000
0100
0000
,
1000
0000
0100
0000
0010
0000
0001
0000
1000
0001
1000
0000
0020
0000
0000
0000
,
2030
0000
0000
3001
0010
1000
0010
0100
,
0001
0100
2000
0000
3010
0100
0002
0000
,
1003
0000
0100
0010
0001
0000
2000
0000
0000
0000
3010
0000
0001
0000
0010
0000
,
1000
0000
0010
0000
0100
0000
0001
0000
1000
0001
1000
0000
0100
0000
0100
0000
,
0010
0001
1000
0010
0100
0001
1000
0100
,
0100
1000
0001
0100
0010
1000
0001
0010
,
0010
0001
1000
0010
0100
0001
1000
0100
,
0100
1000
0001
0100
0010
1000
0011
0000
,
0001
1000
0001
0100
0010
1000
0001
0010
,
0010
0001
1000
0010
0100
0001
1000
0100
,
0100
1000
0001
0100
0010
1000
0001
0010
,
0001
0010
0001
0000
1000
0000
0010
1000
0010
0000
0100
0000
0200
0000
0000
0000
,
0302
0000
0000
1003
0100
0001
0100
0010
,
1000
0010
0002
0000
0103
0010
2000
0000
,
3001
0000
0010
0100
1000
0000
0002
0000
0000
0000
0103
0000
1000
0000
0100
0000
,
0001
0000
0010
0000
0100
0000
1000
0000
0001
0100
1000
0000
0200
0000
0000
0000
,
0302
0000
0000
1003
0010
0001
0010
0100
,
1000
0100
0002
0000
0013
0100
2000
0000
,
3001
0000
0100
0010
1000
0000
0002
0000
0000
0000
0013
0000
1000
0000
0010
0000
,
0001
0000
0100
0000
0010
0000
1000
0000
0001
0010
1000
0000
0010
0000
0010
0000
,
0002
0000
0000
0000
,
0003
0000
0000
0000
,
0000
0000
0000
0000
;
#NOTES:
     dance-double:
     :
     Easy:
     3:
     :
00000000
00000000
00000000
00000000
,
00000000
00000000
00000000
00000000
,
00000000
00000000
00000000
00000000
,
00000000
00000000
00000000
00000000
,
00000000
00000000
00000000
00000000
,
00000000
00000000
00000000
00000000
,
10000000
00000000
00000000
00000000
,
00010000
00000000
00000000
00000000
,
00100000
00000000
00000000
00000000
,
00001000
00000000
00000000
00000000
,
00010000
00000000
00000000
00000000
,
00000100
00000000
00000000
00000000
,
00000010
00000000
00000000
00000000
,
00000001
00000000
00000000
00000000
,
00000100
00000000
00000010
00000000
,
00002000
00000000
00003000
00000000
,
00000100
00000000
00010000
00000000
,
00002000
00000000
00003000
00000000
,
00100000
00000000
00010000
00000000
,
20000000
00000000
30000000
00000000
,
01000000
00000000
00100000
00000000
,
00002000
00000000
00003000
00000000
,
00010000
00000000
00000100
00000000
,
00001000
00000000
00001000
00000000
,
00000001
00000000
00000010
00000000
,
00000100
00000000
00000100
00000000
,
00010000
00000000
00001000
00000000
,
00100000
00000000
00100000
00000000
,
01000000
00000000
10000000
00000000
,
00020000
00000000
00030000
00000000
,
00100000
00000000
00001000
00000000
,
00010000
00000000
00000100
00000000
,
00001000
00000000
00000010
00000000
,
00000200
00000000
00000300
00000000
,
00000001
00000000
00000010
00000000
,
00000100
00000000
00010000
00000000
,
00001000
00000000
00100000
00000000
,
00020000
00000000
00030000
00000000
,
01000000
00000000
01000000
00000000
,
00100000
00000000
00100000
00000000
,
10000000
00000000
00010000
00000000
,
01000000
00000000
00001000
00000000
,
00010000
00000000
00010000
00000000
,
00000100
00000000
00000100
00000000
,
00000010
00000000
00000001
00000000
,
00000100
00000000
00000010
00000000
,
00001000
00000000
00000100
00000000
,
00010000
00000000
00001000
00000000
,
00100000
00000000
01000000
00000000
,
20000000
00000000
30000000
00000000
,
00100000
00000000
01000000
00000000
,
00001000
00000000
00010000
00000000
,
00000100
00000000
00001000
00000000
,
00000002
00000000
00000003
00000000
,
00000100
00000000
00000000
00000000
,
00000000
00000000
00000000
00000000
;
#NOTES:
     dance-double:
     :
     Medium:
     8:
     :
00000000
00000000
00000000
00000000
,
00000000
00000000
00000000
00000000
,
00000000
00000000
00000000
00000000
,
00000000
00000000
00000000
00000000
,
00000000
00000000
00000000
00000000
,
00000000
00000000
00000000
00000000
,
00000002
00000000
00000000
00000000
,
00002003
00000000
00000000
00000000
,
00003100
00010000
00001000
00100000
,
00010000
10000000
00200000
00000000
,
20300000
00000000
00000000
00000000
,
30020000
00000000
00000000
00000000
,
01030000
00001000
00010000
00000010
,
00001000
00000001
00000200
00000000
,
00000310
00000000
00001000
00000000
00000010
00010000
00000000
00001000
,
00000000
00100000
00000000
01000000
00000000
10000000
00000000
00010000
,
00100000
00000000
01000000
00000000
10000000
00100000
00000000
01000000
,
00000000
00001000
00000000
00010000
00000000
00000100
00000000
00001000
,
00000001
00000000
00000100
00000000
00000010
00001000
00000000
00000100
,
00000000
00010000
00000000
00001000
00000000
00100000
00000000
00010000
,
10000000
00000000
01000000
00000000
00100000
00001000
00000000
00010000
,
00000000
00000010
00000000
00000100
00000000
00000001
00000000
00001000
,
00000200
00000000
00000000
00010300
00001000
00010000
00001000
00010000
,
00001000
00100000
00010000
10000000
,
00010000
01000000
00001000
00000000
00010000
00000100
00001000
00000000
,
00000002
00000000
00000003
00000010
,
00000200
00000000
00000000
00010300
00001000
00010000
00001000
00010000
,
00001000
01000000
00010000
10000000
,
00010000
00100000
00001000
00000000
00010000
00000010
00001000
00000000
,
00000001
00000000
00000000
00000000
,
00000100
00000000
00000010
00000000
00000100
00001000
00010000
00000000
,
00001000
00000000
00010000
00000000
00001000
00010000
00100000
00000000
,
10000000
00010000
10000000
00010000
00000000
00100000
02000000
00000000
,
20000000
00000000
33000000
00000000
,
01000000
00000000
00100000
00000000
01000000
00010000
00001000
00000000
,
00010000
00000000
00001000
00000000
00010000
00001000
00000010
00000000
,
00000001
00001000
00000001
00001000
00000000
00000010
00000200
00000000
,
00000002
00000000
00000303
00000000
,
00000001
00000000
00000000
00000100
00000010
00000000
00000000
00001000
,
00000100
00000000
00000000
00010000
00001000
00000000
00000000
00100000
,
01000000
10000000
00010000
00100000
,
01000000
00010000
00001000
00011000
,
00010000
00000000
00000000
00000100
00001000
00000000
00000000
00000001
,
00000100
00000000
00000000
00000010
00001000
00000000
00000000
00000100
,
00010000
00001000
01000000
00010000
,
10000000
01000000
00100000
00000000
00010000
00000000
20000000
00000000
,
30100000
00000000
01000000
00000000
00100000
00010000
00001000
00000000
,
00010000
00000000
00001000
00000000
00010000
00001000
00000100
00000000
,
00000001
00001000
00000001
00001000
00000000
00000100
00000010
00000001
,
00000200
00000000
00000000
00000302
,
00000013
00000000
00000100
00000000
00000010
00001000
00010000
00000000
,
00001000
00000000
00010000
00000000
00001000
00010000
01000000
00000000
,
10000000
00010000
10000000
00010000
00000000
01000000
00100000
10000000
,
02000000
00000000
00000000
00000000
,
03000000
00000000
00000000
00000000
,
00000000
00000000
00000000
00000000
;
#NOTES:
     dance-double:
     :
     Hard:
     12:
     :
00000000
00000000
00000000
00000000
,
00000000
00000000
00000000
00000000
,
00000000
00000000
00000000
00000000
,
00000000
00000000
00000000
00000000
,
00000000
00000000
00000000
00000000
,
00000000
00000000
00000000
00000000
,
20000000
00000000
00000000
31000000
00200000
00000000
00000000
00310000
,
00002000
00000000
00000000
00003100
00000020
00000000
00000000
00000031
,
00000100
00001000
00000100
00000002
00000000
00000103
00001000
00010000
,
00200000
00000000
10000000
00000000
01000000
01000000
01300000
00000000
,
00020000
00000000
00000000
10030000
00200000
00000000
00000000
00310000
,
00002000
00000000
00000000
00003100
00000020
00000000
00000000
00000031
,
00001000
00000100
00000001
00000020
00000000
00000130
00001000
00010000
,
00200000
00000000
00010000
00000000
01000000
01000000
01300000
00000000
,
10000000
00000000
00100000
00000000
01000000
00000000
00010000
00000000
01000000
00010000
01000000
00000000
00010000
00000000
00200000
00000000
,
00000000
00302000
00000000
00013000
00000010
00000100
00001000
00000100
,
00000001
00000000
00000010
00000000
00000100
00000000
00001000
00000000
00000100
00001000
00000100
00000000
00001000
00000000
00000020
00000000
,
00000000
00020030
00000000
00031000
00100000
01000000
00010000
01000000
,
10000000
00000000
01000000
00000000
00100000
00000000
00010000
00000000
00100000
00010000
00100000
00000000
00010000
00000000
02000000
00000000
,
00000000
03002000
00000000
00013000
00000100
00000010
00001000
00000010
,
00000001
00000000
00000100
00000000
00000010
00000000
00001000
00000000
00000010
00001000
00000010
00000000
00001000
00000000
00000200
00000000
,
00000000
00020300
00000000
00031000
01000000
00100000
00010000
00100000
,
20000000
00000000
00000000
31000000
00100000
00001000
00010000
01000000
,
20000000
01000000
00010000
30100000
,
10000000
00100000
01000000
00002000
00000000
00013000
00000010
00000100
,
00002000
00000000
00000000
00000000
00013000
00000000
00100000
00000000
01000000
00100000
01000000
00000000
00020000
00000000
00000000
00000000
,
20030000
00000000
00000000
30100000
01000000
00001000
00010000
00100000
,
20000000
00100000
00010000
31000000
,
10000000
01000000
00100000
00002000
00000000
00013000
00000100
00000010
,
00000002
00000000
00000000
00000000
00001003
00000000
00000100
00000000
00000010
00000100
00000010
00000000
00000002
00000000
00000000
00000000
,
00002003
00000000
00000000
00003010
00000100
00001000
00010000
00100000
,
00010000
00001000
00000200
00000000
00001300
00010000
00200000
00000000
,
10300000
00000000
00010000
10000000
00010000
00000000
02000000
00000000
00000000
00000000
03010000
00000000
00100000
00000000
10000000
00000000
,
00100000
00001000
00010000
00000010
00001000
00100000
20000000
00000000
,
30020000
00000000
00000000
00130000
01000000
00010000
00001000
00000010
,
00001000
00010000
02000000
00000000
03010000
00001000
00000020
00000000
,
00000031
00000000
00001000
00000001
00001000
00000000
00000200
00000000
00000000
00000000
00001300
00000000
00000010
00000000
00000001
00000000
,
00000010
00000000
00001000
00000000
00010000
00000000
01000000
00000000
00001000
00010000
00000010
00000000
00001000
00000000
00001000
00000000
,
00000100
00010000
00001000
01000000
00010000
10000000
00100000
01000000
,
01000000
00001000
00010000
00000100
00001000
00000001
00000010
00000100
,
00000100
00000010
00001000
00010000
00001000
01000000
00100000
10000000
,
00010000
01000000
00001000
00010000
00000010
00001000
00000110
00000000
,
00000010
00010000
00001000
00100000
00010000
10000000
01000000
00100000
,
00100000
00001000
00010000
00000010
00001000
00000001
00000100
00000010
,
00000010
00000100
00001000
00010000
00001000
00100000
01000000
10000000
,
00010000
00100000
00001000
00010000
00000100
00001000
00000002
00000000
,
00002003
00000000
00000000
00003100
00000010
00001000
00010000
01000000
,
00010000
00001000
00000020
00000000
00001030
00010000
02000000
00000000
,
13000000
00000000
00010000
00100000
01000000
00000000
00200000
00000000
00000000
00000000
00301000
00000000
00010000
00000000
01000000
00000000
,
00100000
00001000
00010000
00000000
00000100
00000000
00010000
00001000
00100000
00000000
01000000
00000000
20000000
00000000
00000000
00000000
,
30020000
00000000
00000000
01030000
00100000
00010000
00001000
00000100
,
00001000
00010000
00200000
00000000
00310000
00001000
00000200
00000000
,
00000301
00000000
00001000
00000010
00000100
00000000
00000020
00000000
00000000
00000000
00010030
00000000
00001000
00000000
00000100
00000000
,
00000010
00000000
00010000
00001000
00100000
00000000
00001000
00000000
00010000
00000000
00010000
00000000
00001000
00000000
00001000
00000000
,
00000200
00000000
00000000
00000000
,
00000300
00000000
00000000
00000000
,
00000000
00000000
00000000
00000000
;
