
//----- song ID: hand -----//
#TITLE:Heavens and the Earth;
#ARTIST:The Lonely Hearts;
#BANNER:Heavens and the Earth.png;
#BACKGROUND:Heavens and the Earth-bg.png;
#CDTITLE:./CDTitles/DDR HOTTEST PARTY.png;
#MUSIC:Heavens and the Earth.ogg;
#SAMPLESTART:48.001;
#SAMPLELENGTH:15;
#BPMS:0=70;
#STAGE:2;
#NOTES:
     dance-single:
     :
     Beginner:
     2:
     :
0000
0000
0000
0000
,
0000
0000
0000
0000
,
0000
0000
0000
0000
,
0000
0000
0000
0000
,
0001
0000
0000
0000
,
0001
0000
0000
0000
,
0010
0000
0000
0000
,
0010
0000
0000
0000
,
0010
0000
0000
0000
,
0000
0000
0000
0000
,
1000
0000
0000
0000
,
1000
0000
0000
0000
,
0100
0000
0000
0000
,
0000
0000
0000
0000
,
0010
0000
0000
0000
,
0010
0000
0000
0000
,
0100
0000
0000
0000
,
0100
0000
0000
0000
,
0001
0000
0000
0000
,
0001
0000
0000
0000
,
0001
0000
0000
0000
,
0000
0000
0000
0000
,
1000
0000
0000
0000
,
1000
0000
0000
0000
,
0100
0000
0000
0000
,
0100
0000
0000
0000
,
0010
0000
0000
0000
,
0000
0000
0000
0000
,
0001
0000
0000
0000
,
0000
0000
0000
0000
,
0100
0000
0000
0000
,
0000
0000
0000
0000
,
1000
0000
0000
0000
,
1000
0000
0000
0000
,
1000
0000
0000
0000
,
0000
0000
0000
0000
;
#NOTES:
     dance-single:
     :
     Easy:
     5:
     :
0000
0000
0000
0000
,
0000
0000
0000
0000
,
0000
0000
0000
0000
,
0000
0000
0000
0000
,
0001
0100
0001
0010
,
0100
0000
1000
0001
,
1000
0010
0100
0001
,
1000
0000
0001
0000
,
1000
0010
0100
0000
,
0001
0100
0010
0000
,
1000
0100
1000
0100
,
0020
0000
0030
0000
,
0001
0100
0001
0100
,
0020
0000
0030
0000
,
1000
0100
0010
0100
,
1000
0001
0100
0010
,
1000
1000
0001
0001
,
0020
0000
0030
0000
,
0001
0100
0010
0100
,
0001
1000
0100
0010
,
0001
0001
1000
1000
,
0020
0000
0030
0000
,
1000
0000
0100
0000
0010
0100
0010
0000
,
0001
0100
0001
1000
,
0001
0000
0100
0000
0010
0100
0010
0000
,
1000
0100
1000
0001
,
2000
0000
3000
0000
1000
0010
0100
0000
,
0002
0000
0003
0000
0001
0010
0100
0000
,
1000
1000
0010
0010
,
0100
0001
0100
0000
0001
1000
0001
0000
,
1000
0000
0100
0000
0010
0001
1000
0000
,
0001
0100
1000
0100
,
0001
0100
0010
0000
1000
0010
0100
0000
,
0001
0001
1000
1000
,
2002
0000
0000
0000
,
3003
0000
0000
0000
,
0000
0000
0000
0000
;
#NOTES:
     dance-single:
     :
     Medium:
     7:
     :
0000
0000
0000
0000
,
0000
0000
0000
0000
,
0000
0000
0000
0000
,
0000
0000
0000
0000
,
1000
0100
1000
0100
0010
0001
0100
0001
,
0010
0100
1000
0100
1000
0010
0100
0010
,
1000
0001
1000
0000
0010
0100
0010
0000
,
1000
0001
0010
0100
1000
0010
0100
0000
,
0001
1000
0001
0000
0001
0100
0010
1000
,
0001
1000
2002
3003
,
1000
0100
0010
0001
1000
0100
0001
0100
,
1000
0010
0100
0001
1000
0010
0001
0010
,
1000
0010
1000
0100
0001
0100
1000
0001
,
0200
0000
0300
0000
,
0001
0100
0001
0010
0100
1000
0010
0100
,
0010
1000
0100
1000
0001
0100
0010
0000
,
1000
0010
1000
0100
0010
0001
0100
0010
,
0100
0001
0010
0001
1000
0010
0100
0000
,
0001
1000
0010
0001
0010
1000
0001
0100
,
0010
1000
0100
0001
0100
1000
0001
0100
,
0010
1000
0010
0100
0001
0010
0100
1000
,
0001
0010
0100
0010
1000
0010
0001
0000
,
1001
1000
0100
0010
0001
0100
0001
0010
,
0110
0100
1000
0001
0100
0010
1000
0010
,
1010
1000
0001
0100
0010
0010
1000
1000
,
0100
0010
0100
0001
0200
0000
0300
0000
,
1000
0010
0100
0001
0010
0100
1100
0000
,
0001
0100
0010
1000
0100
0010
0011
0000
,
1000
0100
0001
0100
0010
0100
1001
0000
,
0001
0100
1000
0100
0010
0100
1001
0000
,
0001
0100
0001
0100
0001
0010
0100
1000
,
0100
0001
0100
0010
0100
1000
0001
0001
,
0100
0010
1000
0000
0100
0010
0001
0000
,
1000
0010
0001
0010
1000
0000
0001
0000
,
2002
0000
0000
0000
,
3003
0000
0000
0000
,
0000
0000
0000
0000
;
#NOTES:
     dance-single:
     :
     Hard:
     11:
     :
0000
0000
0000
0000
,
0000
0000
0000
0000
,
0000
0000
0000
0000
,
0000
0000
0000
0000
,
0001
0100
0010
1000
0001
1000
0100
0001
,
0100
1000
0010
0100
1000
0100
0001
0011
,
1001
1000
0010
0100
0001
0010
1000
0001
,
0200
0000
0300
0000
2000
0000
3000
0000
0010
0000
0000
0100
0000
0000
0010
0000
,
1000
0001
0100
0010
1000
0001
0010
0100
,
1000
0000
0000
0010
0000
0000
1010
0000
2002
0000
0000
0000
3003
0000
0000
0000
,
0001
0000
0010
0100
0010
0000
0001
0000
1000
0000
0010
0100
0000
0000
0100
0010
,
1000
0000
0010
0100
0010
0000
1000
0100
0020
0000
0032
0000
2003
0000
3100
0010
,
0001
0000
0100
1000
0100
0000
0001
1000
0200
0000
0320
0000
0032
0000
0103
0010
,
2000
0000
3000
0000
,
1000
0000
0001
0100
0001
0000
0010
0100
0010
0000
0001
0100
0000
0010
1000
0000
,
0001
0000
1000
0010
1000
0000
0100
0010
0100
0000
0010
0001
0000
1000
0100
0000
,
2000
0000
3020
0000
0032
0000
0023
0000
1030
0000
0001
0100
0000
0001
0010
0000
,
0110
0000
1000
0010
0000
1000
0100
0000
0110
0000
0001
0000
1001
0000
0000
0000
,
0001
0000
1000
0010
1000
0100
0010
0001
0010
0000
0100
1000
0000
0001
0010
0000
,
0001
0000
1000
0100
1000
0100
0010
0100
0010
0000
0100
1000
0000
0001
0010
0000
,
0011
0000
0001
0200
0000
0000
1000
0000
0301
0000
1000
0100
0010
0000
0100
0000
,
0220
0000
0000
0000
0330
0001
2000
0002
0000
0000
0000
0000
3003
0000
0001
0000
,
1000
0000
0010
0100
0001
0000
0010
0100
1000
0000
0001
0010
0000
0000
1000
0010
,
0001
0000
0100
0010
1000
0000
0100
0010
0001
0000
1000
0000
0100
0000
0001
0000
,
0100
0000
1000
0010
1000
0000
1010
0000
0110
0000
0101
0000
0011
0000
0110
0000
,
2100
0000
0000
3020
0000
0000
0130
0000
0202
0000
0000
0000
0303
0000
0100
0000
,
0001
0010
0100
1000
0001
0000
0011
0000
0110
0000
1100
0000
1001
0000
1010
0000
,
1000
0010
0100
0001
1000
0000
1010
0000
0110
0000
1010
0000
1001
0000
0011
0000
,
1000
0100
0001
0100
1000
0000
1100
0000
1010
0000
0110
0000
0101
0000
0011
0000
,
0010
0001
0100
0010
1000
0000
1010
0000
1001
0000
0011
0000
0110
0000
1100
0000
,
0001
0010
0100
1000
0010
0000
1010
0000
1001
0000
0100
0000
0110
0000
0001
0000
,
1001
0100
0001
0000
1001
0010
1000
0000
0010
1000
0010
0100
0010
0001
0010
0000
,
1000
0000
0100
0010
0001
0000
0100
0001
0010
0100
0010
0000
0100
1000
0100
0000
,
1000
0010
0100
0010
0000
0000
1001
0000
0001
0010
0100
0010
0100
0000
1000
0000
,
2002
0000
0000
0000
,
3003
0000
0000
0000
,
0000
0000
0000
0000
;
#NOTES:
     dance-double:
     :
     Easy:
     5:
     :
00000000
00000000
00000000
00000000
,
00000000
00000000
00000000
00000000
,
00000000
00000000
00000000
00000000
,
00000000
00000000
00000000
00000000
,
00010000
10000000
00010000
10000000
,
01000000
00000000
10000000
01000000
,
00010000
00010000
00001000
00001000
,
00010000
00000000
00011000
00000000
,
00010000
00001000
00000010
00000000
,
00000001
00001000
00000001
00000000
,
00000001
00000100
00000010
00001000
,
00020000
00000000
00030000
00000000
,
10000000
01000000
00100000
00010000
,
00002000
00000000
00003000
00000000
,
00000001
00000100
00000001
00000100
,
00001000
00010000
00001000
00001000
,
00010000
00100000
00010000
00100000
,
20000000
00000000
30000000
00000000
,
10000000
01000000
10000000
01000000
,
00010000
00001000
00010000
00010000
,
00001000
00000010
00001000
00000010
,
00000002
00000000
00000003
00000000
,
00000001
00000000
00001000
00000000
00000100
00000000
00000010
00000001
,
00000010
00001000
00010000
00001000
,
00010000
00000000
00100000
00000000
10000000
00100000
10000000
00000000
,
00010000
01000000
10000000
01000000
,
00020000
00000000
00030000
00000000
10000000
01000000
10000000
01000000
,
00020000
00000000
00030000
00000000
00001000
00010000
00001000
00000000
,
00010000
00001000
00000100
00000001
,
00000010
00000001
00000010
00000000
00000100
00001000
00000100
00000000
,
00001000
00000000
00000001
00000000
00000100
00001000
00010000
00000000
,
00001000
00001000
00010000
00010000
,
00100000
10000000
01000000
00000000
00100000
00010000
01000000
00000000
,
00100000
00000000
10000000
00000000
01000000
00010000
00001000
00000000
,
00022000
00000000
00000000
00000000
,
00033000
00000000
00000000
00000000
,
00000000
00000000
00000000
00000000
;
#NOTES:
     dance-double:
     :
     Medium:
     8:
     :
00000000
00000000
00000000
00000000
,
00000000
00000000
00000000
00000000
,
00000000
00000000
00000000
00000000
,
00000000
00000000
00000000
00000000
,
10000000
01000000
10000000
01000000
00100000
00010000
10000000
01000000
,
00010000
00001000
00010000
00001000
00000010
00000001
00001000
00000010
,
00000100
00000010
00000100
00000000
00000001
00001000
00000001
00000000
,
00000001
00000100
00001000
00010000
00100000
10000000
00010000
00000000
,
10000000
01000000
00100000
00010000
01000000
00010000
00100000
01000000
,
10000000
01000000
00010000
00001000
00022000
00000000
00033000
00000000
,
00010000
00001000
00000100
00000001
00001000
00000100
00000010
00000001
,
00000100
00001000
00000100
00001000
00010000
00100000
00010000
00100000
,
10000000
00010000
01000000
10000000
01000000
00010000
00100000
01000000
,
20000000
00000000
30000000
00000000
,
10000000
00000000
01000000
00010000
00001000
00000010
00000001
00000000
,
00001000
00000000
00000001
00000100
00010000
00001000
00000010
00000000
,
00001000
00000000
00000001
00000100
00001000
00010000
00100000
00000000
,
10000000
00000000
01000000
00010000
00001000
00100000
01000000
00000000
,
10000000
00000000
00100000
00010000
00001000
00000010
00000001
00000000
,
00001000
00000000
00000001
00000100
00000010
00001000
00000100
00000000
,
00000010
00000000
00000001
00000100
00001000
00010000
01000000
00000000
,
10000000
00100000
01000000
00100000
00010000
00001000
00010000
00000000
,
00011000
00001000
00000100
00000010
00010000
00001000
00000100
00000010
,
00001010
00001000
00100000
01000000
00001000
00010000
00100000
01000000
,
01100000
00100000
10000000
01000000
00010000
00000100
00000010
00000001
,
00001000
00000010
00000100
00000001
00002000
00000000
00003000
00000000
,
00000001
00000100
00000010
00001000
00010000
01000000
00100000
00000000
,
10000000
01000000
00010000
00001000
00010000
00100000
10000000
00000000
,
10000000
01000000
00100000
00010000
00001000
00000100
00000010
00000000
,
00000001
00000100
00001000
00010000
00001000
00000010
00000001
00000000
,
00000001
00000100
00000001
00000010
00001000
00010000
00001000
00010000
,
01000000
10000000
00100000
00000000
01000000
00010000
00100000
00000000
,
00010000
10000000
01000000
00010000
00001000
00000100
00000001
00000010
,
00000100
00001000
00000100
00000000
00010000
00001000
00010000
00000000
,
00022000
00000000
00000000
00000000
,
00033000
00000000
00000000
00000000
,
00000000
00000000
00000000
00000000
;
#NOTES:
     dance-double:
     :
     Hard:
     11:
     :
00000000
00000000
00000000
00000000
,
00000000
00000000
00000000
00000000
,
00000000
00000000
00000000
00000000
,
00000000
00000000
00000000
00000000
,
10000000
01000000
00100000
00010000
01000000
00100000
00010000
00001000
,
00000100
00000001
00001000
00000100
00000001
00000100
00001000
00001010
,
00001001
00000001
00000100
00001000
00010000
00100000
10000000
00010000
,
02000000
00000000
03000000
00000000
20000000
00000000
30000000
00000000
01000000
00000000
00000000
00100000
00000000
00000000
10000000
00000000
,
00010000
00100000
01000000
10000000
01000000
00010000
00001000
00000010
,
00000001
00000000
00000000
00000100
00000000
00000000
00000010
00000000
00000220
00000000
00000000
00000000
00000330
00000000
00000000
00000000
,
00000001
00000000
00001000
00000100
00001000
00000000
00000010
00000000
00000100
00000000
00001000
00010000
00000000
00000000
00100000
01000000
,
00100000
00000000
10000000
00010000
10000000
00000000
01000000
00100000
00020000
00000000
00032000
00000000
00003200
00000000
00000310
00000001
,
00000010
00000000
00000001
00001000
00000001
00000000
00000100
00000010
00002000
00000000
00023000
00000000
02030000
00000000
03100000
10000000
,
00200000
00000000
00300000
00000000
,
10000000
00000000
01000000
00100000
00010000
00000000
10000000
01000000
00100000
00000000
01000000
00010000
00000000
00001000
00000010
00000000
,
00000001
00000000
00000100
00001000
00000100
00000000
00000010
00000100
00000010
00000000
00001000
00000100
00000000
00000010
00000001
00000000
,
00000200
00000000
00002300
00000000
00023000
00000000
00230000
00000000
10300000
00000000
00100000
01000000
00000000
00010000
10000000
00000000
,
10100000
00000000
00100000
01000000
00000000
00010000
01000000
00000000
01010000
00000000
10000000
00000000
10010000
00000000
00000000
00000000
,
00010000
00000000
10000000
00100000
10000000
00100000
01000000
00010000
01000000
00000000
00010000
00100000
00000000
01000000
00010000
00000000
,
00001000
00000000
00000010
00000001
00000010
00000001
00001000
00000100
00001000
00000000
00000001
00000100
00000000
00000010
00001000
00000000
,
00001010
00000000
00000001
00000100
00002000
00000000
00010000
00000000
00023000
00000000
00100000
00000000
00130000
00000000
10100000
00000000
,
20020000
00000000
00000000
00000000
30030000
10000000
00010000
20000000
00000000
00000000
00000000
00000000
30000000
00000000
10000000
00000000
,
01000000
00000000
00010000
00001000
00000010
00000000
00000001
00001000
00000001
00000000
00000100
00000010
00000000
00000000
00001000
00000001
,
00000100
00000000
00001000
00010000
00100000
00000000
10000000
00010000
10000000
00000000
00100000
00000000
10000000
00000000
01000000
00000000
,
00010000
00000000
00001000
00000010
00000001
00000000
00000010
00000000
00000011
00000000
00001000
00000000
00001100
00000000
00000001
00000000
,
00000201
00000000
00000000
00002300
00000000
00000000
00013000
00000000
00022000
00000000
00000000
00000000
00033000
00000000
00000000
00000000
,
00001000
00010000
00100000
01000000
00100000
00000000
10000000
00000000
11000000
00000000
01000000
00000000
01100000
00000000
00100000
00000000
,
00010000
10000000
01000000
00010000
00001000
00000000
00000010
00000000
00000011
00000000
00000001
00000000
00001001
00000000
00001000
00000000
,
00000001
00000100
00000010
00000100
00001000
00000000
00010000
00100000
10000000
00000000
10000000
00000000
00010000
00000000
00010000
00000000
,
10000000
01000000
00100000
00010000
10000000
00000000
01000000
00010000
00001000
00000000
00000010
00000000
00000001
00000000
00000001
00000000
,
00001000
00000001
00000100
00000010
00001000
00000000
00000001
00000100
00001000
00000000
00010000
00000000
00100000
00000000
01000000
00000000
,
00100000
10000000
10100000
00000000
00010000
01000000
01010000
00000000
10000000
01000000
10000000
01000000
00010000
00001000
00010000
00001000
,
00000010
00000000
00000001
00001000
00000001
00000000
00000100
00000010
00001000
00000000
00000100
00000010
00001000
00000000
00010000
01000000
,
10000000
00010000
10000000
00100000
00000000
10000000
01000000
00000000
01000000
00010000
00001000
00000010
00000001
00000000
00001000
00000000
,
00002002
00000000
00000000
00000000
,
00003003
00000000
00000000
00000000
,
00000000
00000000
00000000
00000000
;
