
//----- song ID: hame -----//
#TITLE:走れメロンパン;
#ARTIST:日向美ビタースイーツ♪;
#TITLETRANSLIT:Hashire melonpan;
#ARTISTTRANSLIT:Hinatabi Bitter Sweets♪;
#BANNER:Hashire melonpan.png;
#BACKGROUND:Hashire melonpan-bg.png;
#CDTITLE:./CDTitles/jubeat saucer fulfill.png;
#MUSIC:Hashire melonpan.ogg;
#SAMPLESTART:51.501;
#SAMPLELENGTH:15;
#BPMS:0=170;
#BGSTAGE:16;
#NOTES:
     dance-single:
     :
     Beginner:
     2:
     :
0000
0000
0000
0000
,
0000
0000
0000
0000
,
0000
0000
0000
0000
,
0000
0000
0000
0000
,
0000
0000
0000
0000
,
0000
0000
0000
0000
,
0001
0000
0000
0000
,
0000
0000
0000
0000
,
0010
0000
0000
0000
,
0000
0000
0000
0000
,
0001
0000
0000
0000
,
0000
0000
0000
0000
,
0001
0000
0000
0000
,
0100
0000
0000
0000
,
0100
0000
0000
0000
,
0000
0000
0000
0000
,
0010
0000
0000
0000
,
0010
0000
0000
0000
,
1000
0000
0000
0000
,
0000
0000
0000
0000
,
1000
0000
0000
0000
,
0100
0000
0000
0000
,
1000
0000
0000
0000
,
0000
0000
0000
0000
,
1000
0000
0000
0000
,
0010
0000
0000
0000
,
1000
0000
0000
0000
,
0000
0000
0000
0000
,
1000
0000
0000
0000
,
0010
0000
0000
0000
,
0001
0000
0000
0000
,
0000
0000
0000
0000
,
0001
0000
0000
0000
,
0001
0000
0000
0000
,
0100
0000
0000
0000
,
0000
0000
0000
0000
,
0000
0000
0000
0000
,
1001
0000
0000
0000
,
0000
0000
0000
0000
,
0001
0000
0001
0000
,
0010
0000
0000
0000
,
1001
0000
0000
0000
,
0000
0000
0000
0000
,
1000
0000
1000
0000
,
0010
0000
0000
0000
,
1001
0000
0000
0000
,
0000
0000
0000
0000
,
1000
0000
0010
0000
,
1000
0000
0000
0000
,
0001
0000
0000
0000
,
0001
0000
0000
0000
,
0001
0000
0000
0000
,
0000
0000
0000
0000
,
1001
0000
0000
0000
,
0000
0000
0000
0000
,
1000
0000
1000
0000
,
0010
0000
0000
0000
,
1001
0000
0000
0000
,
0000
0000
0000
0000
,
0001
0000
0001
0000
,
0010
0000
0000
0000
,
1001
0000
0000
0000
,
0000
0000
0000
0000
,
0001
0000
0010
0000
,
0001
0000
0000
0000
,
1000
0000
0000
0000
,
1000
0000
0000
0000
,
1000
0000
0000
0000
,
0000
0000
0000
0000
,
1001
0000
0000
0000
,
0000
0000
0000
0000
,
1001
0000
0000
0000
,
0000
0000
0000
0000
;
#NOTES:
     dance-single:
     :
     Easy:
     5:
     :
0000
0000
0000
0000
,
0000
0000
0000
0000
,
0000
0000
0000
0000
,
0000
0000
0000
0000
,
0000
0000
0000
0000
,
0000
0000
0000
0000
,
1000
0000
0100
0000
,
0010
0001
0010
0000
,
0001
0000
1000
0000
,
0010
0100
0010
0000
,
1001
0000
0000
0000
,
0000
0000
0000
0000
,
0001
0000
0100
0000
,
0010
1000
0010
0000
,
0100
0100
0000
0000
,
0000
0000
0000
0000
,
1000
0000
0100
0000
,
0010
0001
0010
0000
,
0110
0000
0000
0000
,
0000
0000
0000
0000
,
1000
0100
0010
0000
,
0100
0010
0001
0000
,
0001
0100
0010
0000
,
0100
0010
1000
0000
,
0001
0010
0001
0000
,
1000
0010
1000
0000
,
1001
0000
0110
0000
,
1001
0000
0000
0000
,
1000
0001
1000
0000
,
1000
0001
0100
0000
,
0010
0000
0010
0000
,
1001
0000
0000
0000
,
0001
1000
0001
0000
,
0001
1000
0100
0000
,
0010
0000
0010
0000
,
1001
0000
0000
0000
,
0000
0000
0000
0000
,
1000
0100
0010
0001
,
1000
0100
0010
0000
,
0002
0000
0000
0000
,
0003
0000
0000
0000
,
0001
0100
0010
1000
,
0001
0100
0010
0000
,
2000
0000
0000
0000
,
3000
0000
0000
0000
,
1000
1000
0100
0000
,
0100
0100
0010
0000
,
0001
0000
1000
0000
,
0001
1000
0001
0000
,
1001
0000
0000
0000
,
1001
0000
0000
0000
,
1001
0000
0000
0000
,
0000
0000
0000
0000
,
0001
0100
0010
1000
,
0001
0100
0010
0000
,
2000
0000
0000
0000
,
3000
0000
0000
0000
,
1000
0100
0010
0001
,
1000
0100
0010
0000
,
0002
0000
0000
0000
,
0003
0000
0000
0000
,
0001
0001
0100
0000
,
0100
0100
0010
0000
,
1000
0000
0001
0000
,
1000
0001
1000
0000
,
1001
0000
0000
0000
,
1001
0000
0000
0000
,
1001
0000
0000
0000
,
1000
0100
0010
0000
,
0020
0000
0000
0000
,
0030
0000
0000
0000
,
1001
0000
0000
0000
,
0000
0000
0000
0000
;
#NOTES:
     dance-single:
     :
     Medium:
     10:
     :
0000
0000
0000
0000
,
0000
0000
0000
0000
,
0000
0000
0000
0000
,
0000
0000
0000
0000
,
0000
0000
0000
0000
,
0000
0000
0000
0000
,
1000
0000
0100
0020
0000
0000
0030
0000
,
0001
0000
0100
0020
0000
0000
0030
0000
,
1000
0000
0001
0000
1000
0100
0010
0001
,
0000
1000
0001
2000
0000
0000
3000
0000
,
2002
0000
0000
3003
,
1000
0100
1000
0000
0001
0100
0010
1000
,
0000
0001
0010
0001
0000
1000
0010
1000
,
0020
0000
1030
0100
0010
0000
0011
0000
,
0001
1001
1000
0010
,
0100
0000
0001
0010
0000
0001
0100
0001
,
0000
1000
0010
1000
0000
1010
0000
0010
,
0100
0001
0010
0000
0001
1000
0000
1001
,
0000
1001
1000
0100
,
0110
0000
0000
0001
0010
0100
1000
0000
,
0001
0000
0011
0000
0010
0001
1000
0000
,
0010
0000
1010
0000
1000
0001
0100
0000
,
0001
0000
0101
0000
0100
0010
1000
0000
,
0100
0000
1100
0000
1000
0001
0010
0000
,
0001
0010
1000
0000
0010
0000
0001
0000
,
1000
0010
0001
0000
0010
0000
1000
0000
,
2020
3030
0202
0303
,
0001
1000
0000
1000
0001
1000
0001
0000
,
1000
0000
1100
0000
0100
0010
0001
0000
,
0100
1001
0010
1001
,
1000
0100
0000
0010
0001
0100
0000
0010
,
1000
0100
0000
0000
0000
0100
1000
0000
,
0001
0000
0101
0000
0100
0010
1000
0000
,
0100
1001
0010
1001
,
0001
0100
0000
0010
1000
0100
0000
0010
,
0001
0100
0000
0000
0000
0000
0000
0000
,
0000
0000
0000
0000
,
0001
0100
1000
0000
0100
0000
0001
0000
,
0001
0100
1000
0000
0100
0000
0001
0000
,
0100
0000
0110
0000
1000
0010
0100
0001
,
0000
1001
0000
0000
0001
0100
0010
0000
,
1000
0100
0001
0000
0100
0000
1000
0000
,
1000
0100
0001
0000
0100
0000
1000
0000
,
0100
0000
0110
0000
0001
0010
0100
1000
,
0000
0001
1000
0001
0000
0000
1001
0000
,
1000
1100
0001
0011
,
0110
0000
1000
0001
0000
0001
1000
0001
,
0000
0100
0010
0100
0000
0110
0000
1001
,
0000
0001
0010
0200
0000
0000
0300
0000
,
1000
0100
1000
0100
0000
0001
0100
0000
,
1000
0001
1000
0001
0000
0010
0001
0020
,
0000
0000
0000
0030
,
0001
1000
0001
0000
0100
0010
0100
0000
,
0001
0010
1000
0000
0010
0000
0001
0000
,
0001
0010
1000
0000
0010
0000
0001
0000
,
0010
0000
0110
0000
1000
0100
0010
0001
,
0000
1001
0000
0000
0001
0010
0100
0000
,
1000
0010
0001
0000
0010
0000
1000
0000
,
1000
0010
0001
0000
0010
0000
1000
0000
,
0010
0000
0110
0000
0001
0100
0010
1000
,
0000
0001
1000
0001
0000
0000
1001
0000
,
1000
1010
0001
0101
,
0110
0000
1000
0001
0000
0001
1000
0001
,
0000
0010
0100
0010
0000
0110
0000
1001
,
0000
0001
0100
0020
0000
0000
0030
0000
,
1000
0010
1000
0010
0000
0001
0010
0000
,
1000
0001
1000
0001
0000
0100
0001
0200
,
0000
0300
0110
1010
,
1001
0000
0011
0000
0110
0000
1000
0002
,
0000
0000
0000
0003
,
0200
0000
0000
0300
,
2002
0000
0000
0000
,
0000
0000
0000
0000
,
0000
0000
0000
0000
,
0000
0000
0000
0000
,
3003
0000
0000
0000
,
0000
0000
0000
0000
;
#NOTES:
     dance-single:
     :
     Hard:
     14:
     :
0000
0000
0000
0000
,
0000
0000
0000
0000
,
0000
0000
0000
0000
,
0000
0000
0000
0000
,
0000
0000
0000
0000
,
0000
0000
0000
0000
,
0001
0100
0010
2000
0000
3010
0100
0001
,
0000
0010
0100
1000
0000
0100
0010
0001
,
1000
0000
1001
0000
0001
0100
1000
0100
,
0000
0010
1000
0200
0000
0000
0300
0000
,
2002
0000
0000
3003
,
1000
0000
0001
0000
0100
0000
0010
0000
1000
0001
1000
0000
0001
0000
0101
0000
,
0000
0100
0010
1010
0000
0001
0010
0011
,
0002
0000
0103
1000
0100
0001
1000
0100
,
0110
2001
3020
0230
,
0301
0000
0001
1000
0000
0001
1000
1010
,
0000
0010
0100
0101
0000
1100
0000
0100
,
1000
1000
0010
0001
0010
1000
0000
1000
,
0001
1002
0203
0320
,
1030
0000
0000
0000
0000
0000
1000
0000
0001
0010
0001
0000
0100
0000
0000
0000
,
0101
0001
1000
0100
1100
1000
0001
0100
,
0101
0001
1000
0100
0010
0100
0100
0000
,
1100
1000
0001
0100
0101
0001
1000
0100
,
1100
1000
0001
0100
0010
0100
0100
0000
,
0001
0010
0001
0010
1000
0010
0001
1000
,
0100
0010
0100
0010
1000
0010
0000
0010
,
0002
0100
0010
0103
,
0001
0000
0100
0000
0010
0000
1000
0000
0001
1000
0001
0000
1000
0000
1000
0000
,
0001
0001
0100
0010
1000
1000
0100
0010
,
0011
0001
1001
1000
1100
0100
0000
0100
,
0010
0011
0000
0100
0010
1010
0000
1000
,
0001
0100
0000
0000
0000
0001
0001
0001
,
1000
1000
0100
0010
0001
0001
0100
0010
,
1010
1000
1001
0001
0101
0100
0010
0100
,
0010
1010
0000
0100
0010
0011
0000
0001
,
1000
0200
0000
0000
0000
0000
0000
0000
,
0300
0000
0000
0000
0000
0000
0000
0000
0001
0100
0001
0000
1000
0010
1000
0000
,
0001
0100
1000
0100
0001
0100
1000
0100
,
0001
0100
1000
0100
0001
1000
0100
0010
,
0011
0000
0101
0000
0001
0100
0010
1000
,
0000
0000
1001
0000
0000
0000
1000
0001
1000
0000
0100
0000
0010
0000
0001
0000
,
1000
0100
0001
0100
1000
0100
0001
0100
,
1000
0100
0001
0100
1000
0001
0100
0010
,
1010
0000
1100
0000
1000
0100
0010
0001
,
0000
0000
1001
0000
0100
0000
0110
0000
0000
0000
1000
0001
1000
0000
0000
0000
,
0002
0023
0230
2300
,
3001
0000
0100
1000
0000
0100
0001
1000
,
0000
1000
0100
0011
0000
0001
1000
0001
,
0000
0100
0010
1000
0000
1000
0001
0000
,
0001
0100
0010
0100
0001
0100
0010
0000
,
1000
0100
0010
0100
1000
0100
0010
0000
,
0001
0010
0100
1000
0010
1010
1001
0001
,
0100
0000
0010
0000
1010
0000
1000
0000
0001
0100
0001
0000
1000
0000
0010
0000
,
1000
0010
0001
0010
1000
0010
0001
0010
,
1000
0010
0001
0010
1000
0001
0010
0100
,
1100
0000
1010
0000
1000
0010
0100
0001
,
0000
0000
1001
0000
0000
0000
0001
1000
0001
0000
0010
0000
0100
0000
1000
0000
,
0001
0010
1000
0010
0001
0010
1000
0010
,
0001
0010
1000
0010
0001
1000
0010
0100
,
0101
0000
0011
0000
0001
0010
0100
1000
,
0000
0000
1001
0000
0010
0000
0110
0000
0000
0000
0001
1000
0001
0000
0000
0000
,
2000
3200
0320
0032
,
1003
0000
0010
0001
0000
0010
1000
0001
,
0000
0001
0010
1100
0000
1000
0001
1000
,
0000
0010
0100
0001
0000
0001
1000
0000
,
1000
0010
0100
0010
1000
0010
0100
0000
,
0001
0010
0100
0010
0001
0010
0100
0000
,
1000
0100
0010
0001
0101
0100
0110
0000
,
1010
1000
1100
0000
0101
0001
0011
0010
,
0002
0000
0100
0000
1000
1000
1000
0000
,
0203
0000
1000
0000
0010
0010
0010
0000
,
0302
0000
0000
0000
,
0000
0000
0000
0000
,
0000
0000
0000
0000
,
0000
0000
0000
0000
,
0003
0000
0000
0000
,
0000
0000
0000
0000
;
#NOTES:
     dance-double:
     :
     Easy:
     5:
     :
00000000
00000000
00000000
00000000
,
00000000
00000000
00000000
00000000
,
00000000
00000000
00000000
00000000
,
00000000
00000000
00000000
00000000
,
00000000
00000000
00000000
00000000
,
00000000
00000000
00000000
00000000
,
20000000
00000000
00000000
30000000
,
02000000
00000000
00000000
03000000
,
00100000
00000000
00001000
00000000
,
00010000
00001000
00010000
00000000
,
00011000
00000000
00000000
00000000
,
00000000
00000000
00000000
00000000
,
00010000
00000000
00001000
00000000
,
00000010
00000001
00000010
00000000
,
00000110
00000000
00000000
00000000
,
00000000
00000000
00000000
00000000
,
00000001
00000000
00000100
00000000
,
00001000
00010000
00001000
00000000
,
00011000
00000000
00000000
00000000
,
00000000
00000000
00000000
00000000
,
00001000
00010000
00100000
00000000
,
01000000
00000000
00100000
00000000
,
10000000
01000000
00100000
00000000
,
00010000
00000000
00100000
00000000
,
00001000
00010000
00001000
00000000
,
00010000
00001000
00010000
00000000
,
00022000
00000000
00000000
00000000
,
00033000
00000000
00000000
00000000
,
00010000
00000100
00010000
00000100
,
00001000
00000000
00001001
00000000
,
00000001
00000010
00000100
00000000
,
00000110
00000000
00000000
00000000
,
00000001
00000100
00000001
00000100
,
00000010
00000000
00000110
00000000
,
00000010
00010000
00001000
00000000
,
00011000
00000000
00000000
00000000
,
00000000
00000000
00000000
00000000
,
00001000
00010000
00001000
00100000
,
00010000
00100000
00010000
00000000
,
01000000
00000000
00000000
00000000
,
01100000
00000000
00000000
00000000
,
10000000
01000000
10000000
00010000
,
00100000
00010000
00100000
00000000
,
00001000
00000000
00000000
00000000
,
00011000
00000000
00000000
00000000
,
00010000
00000000
00001000
00000000
,
00000010
00000001
00000100
00000000
,
00001000
00000000
00010000
00000000
,
00011000
00000000
00000000
00000000
,
00001000
01000000
00010000
00000000
,
00100000
00010000
10000000
00000000
,
01000000
00000000
00100000
00000000
,
00001000
00010000
00001000
00000000
,
00010000
00001000
00010000
00000010
,
00001000
00000010
00001000
00000000
,
00000100
00000000
00000000
00000000
,
00000110
00000000
00000000
00000000
,
00000001
00000100
00000001
00001000
,
00000010
00001000
00000010
00000000
,
00010000
00000000
00000000
00000000
,
00011000
00000000
00000000
00000000
,
00001000
00000000
00010000
00000000
,
00100000
10000000
01000000
00000000
,
00010000
00000000
00001000
00000000
,
00011000
00000000
00000000
00000000
,
00010000
00000100
00001000
00000000
,
00000010
00001000
00000001
00000000
,
00000100
00000000
00000010
00000000
,
00010000
00001000
00010000
00000000
,
00022000
00000000
00000000
00000000
,
00033000
00000000
00000000
00000000
,
00011000
00000000
00000000
00000000
,
00000000
00000000
00000000
00000000
;
#NOTES:
     dance-double:
     :
     Medium:
     10:
     :
00000000
00000000
00000000
00000000
,
00000000
00000000
00000000
00000000
,
00000000
00000000
00000000
00000000
,
00000000
00000000
00000000
00000000
,
00000000
00000000
00000000
00000000
,
00000000
00000000
00000000
00000000
,
10000000
00000000
00100000
02000000
00000000
00000000
03000000
00000000
,
00010000
00000000
01000000
00200000
00000000
00000000
00300000
00000000
,
10000000
00000000
10010000
00000000
00010000
01000000
00001000
00010000
,
00000000
00010000
00001000
00020000
00000000
00000000
00000000
00000000
,
00002000
00000000
00000000
00033000
,
00001000
00010000
00000000
00010000
00000100
00001000
00000010
00001000
,
00000000
00000001
00000010
00000001
00000000
00001000
00000010
00001000
,
00000020
00000000
00001030
00000100
00000010
00000000
00000011
00000000
,
00000001
00000101
00000100
00001000
,
00010000
00001000
00000000
00011000
00000000
00010000
00001000
00010000
,
00000000
00001000
01000000
00001000
00000000
00011000
00000000
00010000
,
00100000
01000000
00010000
00000000
00100000
01000000
00000000
01100000
,
00000000
10010000
10000000
00100000
,
01100000
00000000
00000000
10000000
00100000
01000000
00010000
00000000
,
00100000
00000000
00101000
00000000
00001000
00010000
00001000
00000000
,
00010000
00000000
00010100
00000000
00010000
00001000
00010000
00000000
,
00000010
00000000
00001010
00000000
00001000
00000001
00000010
00000000
,
00000100
00000000
00001100
00000000
00001000
00000100
00010000
00000000
,
00001000
00000000
00010000
00000000
00100000
01000000
00100000
00000000
,
00010000
00000000
00001000
00000000
00000010
00000100
00000010
00000000
,
00001000
00010000
01000000
10000000
,
00020000
00000000
01000000
01030000
,
10000000
00000000
10100000
00000000
00100000
01000000
00010000
00000000
,
00100000
00000000
00101000
00000000
00001000
00010000
00001000
00000000
,
00010000
00000100
00000000
00000100
00010000
00001000
00000000
00001000
,
01000000
00010000
00000000
00000000
00100000
00001000
00010000
00000000
,
00001000
00000000
00011000
00000000
00010000
00000010
00001000
00000000
,
00000100
00000000
00000110
00000000
00000010
00000001
00000100
00000000
,
00000010
00001000
00000000
00000100
00010000
00000100
00000000
00001000
,
00000001
00000010
00000000
00000000
00000000
00000000
00000000
00000000
,
00000000
00000000
00000000
00000000
,
00000001
00000100
00001000
00011000
,
00010000
00000000
00100000
00000000
10000000
00100000
10000000
00000000
,
00010000
00000000
01010000
00000000
01000000
00000000
10000000
01000000
,
00000000
10010000
00000000
00000000
00010000
10000000
00010000
00000000
,
10000000
01000000
00010000
00011000
,
00001000
00000000
00000010
00000000
00000001
00000010
00000001
00000000
,
00001000
00000000
00001010
00000000
00000010
00000100
00000001
00001000
,
00000000
00000100
00000010
00000100
00000000
00000000
00001001
00000000
,
00001000
00000010
00001000
00000100
,
00010000
00000000
00001000
00010000
00000000
00100000
00000000
00010000
,
00000000
00001000
00010000
00001000
00000000
00011000
00000000
00010000
,
00000000
00001000
00000010
00002000
00000000
00000000
00003000
00000000
,
00010000
00001000
00010000
00001000
00000000
00001000
00000010
00000000
,
00000100
00001000
00000100
00010000
00000000
00010000
00001000
00200000
,
00000000
00000000
00000000
00300000
,
00010000
10000000
00010000
00000000
01000000
00000000
01100000
00000000
,
10000000
01000000
00010000
00011000
,
00001000
00000000
00000010
00000000
00000001
00000010
00000001
00000000
,
00001000
00000000
00001100
00000000
00000100
00000000
00000001
00000100
,
00000000
00001001
00000000
00000000
00001000
00000001
00001000
00000000
,
00000001
00000100
00001000
00011000
,
00010000
00000000
00100000
00000000
10000000
00100000
10000000
00000000
,
00010000
00000000
00110000
00000000
00100000
01000000
10000000
00010000
,
00000000
01000000
00100000
01000000
00000000
00000000
10010000
00000000
,
00010000
00100000
00010000
01000000
,
00001000
00000000
00010000
00001000
00000000
00000010
00000000
00001000
,
00000000
00010000
00001000
00010000
00000000
00011000
00000000
00001000
,
00000000
00010000
00100000
00020000
00000000
00000000
00030000
00000000
,
00001000
00010000
00001000
00010000
00000000
00010000
00100000
00000000
,
01000000
00010000
01000000
00001000
00000000
00001000
00010000
00000020
,
00000000
00000000
00001030
00001100
,
00000100
00000000
00010100
00000000
00010000
00000000
00001000
00010000
,
00002000
00000000
00000000
00003000
,
00020000
00000000
00000000
00030000
,
00022000
00000000
00000000
00000000
,
00000000
00000000
00000000
00000000
,
00000000
00000000
00000000
00000000
,
00000000
00000000
00000000
00000000
,
00033000
00000000
00000000
00000000
,
00000000
00000000
00000000
00000000
;
#NOTES:
     dance-double:
     :
     Hard:
     14:
     :
00000000
00000000
00000000
00000000
,
00000000
00000000
00000000
00000000
,
00000000
00000000
00000000
00000000
,
00000000
00000000
00000000
00000000
,
00000000
00000000
00000000
00000000
,
00000000
00000000
00000000
00000000
,
10000000
01000000
00100000
00020000
00000000
00130000
01000000
10000000
,
00000000
00100000
01000000
00010000
00000000
00100000
01000000
00010000
,
00001000
00000000
00011000
00000000
00010000
00001000
00000010
00000001
,
00000000
00001000
00000100
00000020
00000000
00000000
00000030
00000000
,
00002002
00000000
00000000
00003003
,
00000001
00000000
00000010
00000000
00000100
00000000
00001000
00000100
00001000
00000000
00000100
00000000
00010000
00000000
00001000
00000000
,
00000000
00001000
00010000
00100000
00000000
00100000
10000000
01000000
,
00020000
00000000
10030000
00100000
00010000
00100000
01000000
00010000
,
00001000
00021000
00030200
00002300
,
00003010
00000000
00000100
00000001
00000000
00000001
00000010
00000100
,
00000000
00001000
00000010
00000100
00000000
00000101
00000000
00000011
,
00000010
00000001
00001000
00000010
00010000
00001000
00000000
00001000
,
00100000
00020000
02030000
23000000
,
30010000
00000000
00100000
00000000
00000000
00000000
10000000
00000000
00100000
01000000
00100000
00000000
10000000
00000000
00000000
00000000
,
10100000
00100000
01000000
00010000
00110000
00100000
00001000
00010000
,
00011000
00001000
00000010
00000001
00000011
00000010
00000100
00000000
,
00001100
00001000
00000010
00000100
00000110
00000010
00010000
00001000
,
00011000
00010000
00001000
01000000
00010000
00100000
00100000
00000000
,
00010000
00100000
00001000
00010000
01000000
00100000
00010000
00100000
,
00001000
00010000
01000000
00100000
00010000
01000000
00000000
01000000
,
00020000
00100000
00032000
00000100
,
00003010
00000000
00000100
00000000
00000001
00000000
00000010
00000000
00000001
00001000
00000001
00000000
00001001
00000000
00000000
00000000
,
00001001
00000001
00000100
00001000
00010000
00001000
00000010
00001000
,
00010000
01000000
00100000
00001000
00010000
01000000
00000000
01000000
,
10000000
10100000
00100000
00010000
00001000
00011000
00000000
00010000
,
00001000
00000010
00000000
00000000
00000000
00000001
00000001
00000001
,
00000100
00001000
00000100
00000001
00000010
00001000
00010000
00000100
,
00001000
00000001
00000100
00001000
00000100
00000001
00000010
00001000
,
00010000
00001000
00000000
00001000
00010000
00100000
00000000
00100000
,
10000000
02000000
00000000
00000000
00000000
00000000
00000000
00000000
,
03000000
00000000
00000000
00000000
00000000
00000000
00000000
00000000
10000000
01000000
10000000
00000000
00010000
01000000
00010000
00000000
,
10000000
01000000
00010000
00000000
00001000
00000010
00000001
00000000
,
00000001
00000100
00001000
00000000
00010000
00100000
10000000
00000000
,
10100000
00000000
11000000
00000000
00100000
10000000
01000000
00010000
,
00000000
00000000
00011000
00000000
00000000
00000000
00001000
00010000
00001000
00000000
00100000
00000000
00001000
00000000
00000000
00000000
,
00010000
00001000
00000010
00000000
00000001
00000100
00001000
00000000
,
00010000
00100000
10000000
00000000
01000000
00010000
00001000
00000000
,
00011000
00000000
00010100
00000000
00000100
00001000
00000010
00001010
,
00000000
00000000
00001000
00000000
00000100
00000000
00000011
00000000
00000000
00000000
00000001
00001000
00000001
00000000
00000000
00000000
,
00000002
00000203
00000320
00002030
,
00013000
00000000
00000000
00000000
01000000
00000000
00100000
00000000
00000000
00000000
00100000
10000000
00100000
00000000
10000000
00000000
,
00000000
10000000
01000000
00010000
00001000
00010000
01000000
10000000
,
00000000
00100000
01000000
00100000
00000000
10000000
10010000
00000000
,
10000000
01000000
10000000
01000000
00010000
01000000
00010000
00000000
,
00001000
00010000
00001000
00010000
00001000
00000100
00001000
00000100
,
00000002
00000000
00000013
00000000
00000001
00000100
00000110
00000010
,
00001000
00000000
00001010
00000000
00000001
00000000
00001001
00000000
00001000
00000100
00000010
00000000
00000001
00000000
00000100
00000000
,
00000001
00000100
00001000
00000000
00010000
00100000
10000000
00000000
,
10000000
01000000
00010000
00000000
00001000
00000010
00000001
00000000
,
00000011
00000000
00000101
00000000
00000010
00000001
00000100
00001000
,
00000000
00000000
00011000
00000000
00000000
00000000
00010000
00001000
00010000
00000000
00000010
00000000
00010000
00000000
00000000
00000000
,
00001000
00010000
00100000
00000000
10000000
01000000
00010000
00000000
,
00001000
00000010
00000001
00000000
00000100
00001000
00010000
00000000
,
00011000
00000000
01001000
00000000
01000000
00010000
00100000
00110000
,
00000000
00000000
00010000
00000000
01000000
00000000
10100000
00000000
00000000
00000000
10000000
00010000
10000000
00000000
00000000
00000000
,
20000000
32000000
03200000
00320000
,
00031000
00000000
00000000
00000000
00000100
00000000
00000010
00000000
00000000
00000000
00000010
00000001
00000010
00000000
00000001
00000000
,
00000000
00000001
00000100
00001000
00010000
00001000
00000100
00000001
,
00000000
00000010
00000100
00000010
00000000
00000001
00001001
00000000
,
00000001
00000100
00000001
00000100
00001000
00000100
00001000
00000000
,
00010000
00001000
00010000
00001000
00010000
01000000
00010000
01000000
,
20000000
00000000
30100000
00000000
11000000
01000000
01100000
00100000
,
00101000
00001000
00011000
00010000
00010100
00000100
00001100
00001000
,
00000200
00000000
00000001
00000000
00000010
00000000
00010300
00001000
,
00010000
00000000
00200000
00000000
00001000
00001000
00301000
00000000
,
00022000
00000000
00000000
00000000
,
00000000
00000000
00000000
00000000
,
00000000
00000000
00000000
00000000
,
00000000
00000000
00000000
00000000
,
00033000
00000000
00000000
00000000
,
00000000
00000000
00000000
00000000
;
