
//----- song ID: gsun -----//
#TITLE:Good Sound United;
#ARTIST:Hommarju;
#BANNER:Good Sound United.png;
#BACKGROUND:Good Sound United-bg.png;
#CDTITLE:./CDTitles/DDR A3.png;
#MUSIC:Good Sound United.ogg;
#SAMPLESTART:84;
#SAMPLELENGTH:15;
#BPMS:0=200,40=100,42=200,106=100,114=200,126=100,128=200,176=100,180=105,184=110,186=120,188=125,190=135,192=145,194=150,196=155,198=165,200=175,202=185,204=190,206=195,208=200,240=100,248=200;
#STAGE:29;
#NOTES:
     dance-single:
     :
     Beginner:
     5:
     :
0000
0000
0000
0000
,
0000
0000
0000
0000
,
0000
0000
0000
0000
,
0000
0000
0000
0000
,
0000
0000
0000
0000
,
0000
0000
0000
0000
,
0000
0000
0000
0000
,
0001
0000
0001
0000
,
0010
0000
0010
0000
,
0100
0000
0100
0000
,
1000
0000
1000
0000
,
1000
0000
0100
0100
,
1000
0000
0010
0000
,
0010
0000
0100
0000
,
0000
0000
0001
0000
,
0001
0000
0100
0100
,
0001
0000
0010
0000
,
0010
0000
0100
0000
,
0000
0000
1000
0000
,
0100
0000
1000
0000
,
0010
0000
0010
0010
,
1000
0000
0100
0000
,
0000
0000
0001
0000
,
0100
0000
0001
0000
,
0010
0000
0010
0010
,
0001
0000
0100
0000
,
0000
0000
1001
0000
,
0000
0000
1001
0000
,
0000
0000
1000
0000
,
0010
0000
1000
0000
,
0010
0000
0100
0000
,
0001
0000
0100
0000
,
0001
0000
0010
0000
,
0100
0000
0010
0000
,
0100
0000
0100
0000
,
1000
0000
0000
0000
,
1000
0000
0010
0000
,
0100
0000
0010
0000
,
0100
0000
0100
0000
,
0001
0000
0000
0000
,
1001
0000
0000
0000
,
0110
0000
0000
0000
,
1001
0000
0000
0000
,
0110
0000
0000
0000
,
1001
0000
0001
0000
,
0100
0000
0100
0000
,
0010
0000
0010
0000
,
1000
0000
1000
0000
,
1001
0000
0000
0000
,
1001
0000
0000
0000
,
0001
0000
1000
0000
,
1001
0000
0000
0000
,
0010
0010
1000
0000
,
0100
0100
1000
0000
,
0020
0000
0000
0000
,
0030
0000
0000
0000
,
0010
0010
0001
0000
,
0100
0100
0001
0000
,
0020
0000
0000
0000
,
0030
0000
0000
0000
,
0010
0000
0010
0000
,
0100
0100
0100
0000
,
0001
0000
0100
0000
,
0010
0010
0001
0000
,
0001
0000
0100
0000
,
1000
0000
0000
0000
,
1000
0000
0100
0000
,
0010
0010
1000
0000
,
1000
0000
0100
0000
,
0001
0000
0000
0000
,
0001
0000
0100
0000
,
0010
0010
1000
0000
,
1000
0000
0010
0000
,
0100
0000
0000
0000
,
1000
0000
0100
0000
,
0010
0010
0001
0000
,
0001
0000
0100
0000
,
0010
0000
0000
0000
,
1001
0000
0000
0000
,
0110
0000
0000
0000
,
1001
0000
0000
0000
,
1000
1000
0010
0000
,
1001
0000
0000
0000
,
0110
0000
0000
0000
,
0001
0001
0010
0000
,
0100
0100
1000
0000
,
1001
0000
0000
0000
,
0000
0000
0000
0000
;
#NOTES:
     dance-single:
     :
     Easy:
     9:
     :
0000
0000
0000
0000
,
0000
0000
0000
0000
,
0000
0000
0000
0000
,
0000
0000
0000
0000
,
0000
0000
0000
0000
,
0000
0000
0000
0000
,
0000
0000
0000
0000
,
1000
0000
0100
0000
1000
0010
1000
0000
,
0100
0000
0010
0000
0001
0100
0001
0000
,
1000
0000
0001
0000
1000
0001
1000
0000
,
1001
0000
0001
0100
,
0010
0000
1000
0001
1000
0000
0100
0000
,
0001
0100
1000
0010
,
0100
0000
0001
1000
0001
0000
0100
0000
,
0010
0100
0010
0000
1000
0000
0100
0000
,
0010
0000
0001
1000
0001
0000
0100
0000
,
1000
0100
0001
0010
,
0100
0000
1000
0001
1000
0000
0100
0000
,
0010
0100
0010
0000
0001
0000
1000
0000
,
0100
0000
0010
0001
0010
0000
0001
0000
,
0100
0001
0010
0001
,
1000
0000
0010
1000
0010
0000
1000
0000
,
0100
1000
0100
0000
1000
0000
0001
0000
,
0010
0000
0100
1000
0100
0000
0000
1000
,
0000
1100
0100
1000
,
0001
0000
0100
0001
0100
0000
0010
0000
,
0010
0000
1000
0100
,
0010
0001
0010
0000
0001
0000
0100
0000
,
0010
1000
0010
0000
1000
0000
0001
0000
,
0100
0010
1000
0001
,
0100
0000
0010
0000
1000
0001
1000
0000
,
0100
0010
0001
0000
1001
0000
0000
0000
,
1000
0000
0000
0010
0000
0000
1010
0000
,
1000
0000
0000
0100
0000
0000
1100
0000
,
1000
0000
0000
0010
0000
0000
1010
0000
,
0001
1000
0001
1000
0001
0000
1000
0000
,
0001
0000
0000
0010
0000
0000
0011
0000
,
0001
0000
0000
0100
0000
0000
0101
0000
,
0001
0000
0000
0010
0000
0000
0011
0000
,
1000
0001
1000
0001
1000
0000
0001
0000
,
1000
0000
0000
0001
0000
0000
1001
0000
,
0010
0000
0000
0100
0000
0000
0110
0000
,
1000
0000
0000
0001
0000
0000
1000
0000
,
0000
0000
0010
0000
0000
0100
0000
0000
,
0110
0000
1001
0000
0010
1000
0100
0000
,
0110
0000
1001
0000
0010
0001
0100
0000
,
0110
0000
1001
0000
0010
1000
0100
0000
,
1000
0000
0000
0001
0000
0000
1000
0000
0000
0001
0000
0000
1000
0000
0000
0000
,
0001
0001
0010
0010
,
0100
0100
1000
1000
,
0001
0010
0100
1000
,
0001
1000
0001
0000
,
1000
0000
0010
0000
0100
0001
0100
0000
,
0001
0000
0010
0000
0100
1000
0100
0000
,
1000
0000
0010
0000
0100
0001
0100
0000
,
0001
0000
0010
0000
0100
1000
0100
0000
,
1000
0010
0001
0010
,
1000
0100
0001
0100
,
1000
0001
1000
0000
0001
1000
0001
0000
,
2002
0000
0000
3003
,
1000
1000
1000
0000
0001
0001
0001
0000
,
1000
1000
0001
0001
1000
0001
1001
0000
,
1000
0000
0010
0000
0100
0010
0100
0000
,
0001
1000
0010
0100
,
0001
0000
0010
0000
0100
0010
0100
0000
,
1000
0010
1000
1001
,
0001
0000
0010
0000
0100
0010
0100
0000
,
1000
0001
0010
0100
,
1000
0000
0010
0000
0100
0010
0100
0000
,
0001
0010
0001
1001
,
1000
0010
0001
0010
,
1000
0010
1000
0000
0001
0010
0001
0000
,
1000
0100
0001
0100
,
1000
0000
0100
1000
0001
0000
1000
0000
,
0001
0010
1000
0010
,
0001
0000
0010
0001
0000
1000
0010
0000
,
1000
0001
0100
1000
,
0100
0001
1001
0000
,
1000
0000
0000
0010
0000
0000
0110
0000
,
0001
0000
0000
0010
0000
0000
0110
0000
,
1000
0000
0000
0010
0000
0000
0110
0000
,
0001
1000
0001
0000
,
1000
0000
0000
0100
0000
0000
0010
0000
,
0000
0000
0010
0000
0000
0001
0000
0000
,
1000
0100
0010
0001
,
1000
0100
1000
0000
0001
0100
0001
0000
,
1001
0000
0000
0000
,
0000
0000
0000
0000
;
#NOTES:
     dance-single:
     :
     Medium:
     13:
     :
0000
0000
0000
0000
,
0000
0000
0000
0000
,
0000
0000
0000
0000
,
0000
0000
0000
0000
,
0000
0000
0000
0000
,
0000
0000
0000
0000
,
0000
0000
0000
0000
,
1000
0010
1000
0000
0001
0010
0001
0000
,
1000
0100
0010
0000
0001
0100
0010
0000
,
1000
0100
0010
0001
0010
0100
1000
0000
,
2002
0000
3003
0000
1000
0010
1000
0010
,
0100
0001
0100
0000
0010
0000
1100
0000
,
0010
0000
0101
0000
0001
0010
0001
0010
,
0100
1000
0100
0000
0010
0000
1001
0000
,
0001
1000
0001
0000
1000
0100
1000
0100
,
0010
0001
0010
0000
0100
0000
1010
0000
,
0100
0000
0011
0000
0001
0100
0001
0100
,
0010
0000
1000
0000
0010
0000
0000
0000
1000
0000
0100
0010
0100
0000
0010
0000
,
0001
1000
0001
0000
1000
0010
0100
0010
,
1000
0100
0010
0000
0001
0000
0110
0000
,
1000
0000
0110
0000
0001
0100
0010
0100
,
0001
0010
0100
0000
1000
0000
1001
0000
,
1000
0001
1000
0000
0001
0100
0010
1000
,
0010
0100
0001
0000
1000
0000
0010
0100
,
0000
0100
0010
0000
1000
0100
0010
0001
,
0100
0010
1000
0000
0002
0000
1000
0000
,
1000
0000
0003
0000
1000
0100
0001
0100
,
1000
0001
0010
0100
2000
0000
3000
0000
0001
0000
0100
0000
1000
0000
0100
0000
,
0001
0010
0100
1000
0002
0000
0003
0000
1000
0000
0100
0000
1000
0000
0100
0000
,
0010
0001
0010
0000
0001
0100
0001
0100
,
0010
1000
0010
0000
1000
0100
0010
0000
,
0001
0100
0010
0000
2002
0000
3003
0000
,
1000
0100
1000
0100
1000
0000
1100
0000
,
0001
0100
0001
0100
0001
0000
0101
0000
,
1000
0100
1100
0000
0001
0100
0101
0000
,
1000
0100
1000
0001
0100
0001
1001
0000
,
1000
0010
1000
0010
1000
0000
1010
0000
,
0001
0010
0001
0010
0001
0000
0011
0000
,
1000
0010
1010
0000
0001
0010
0011
0000
,
1000
0010
1000
0001
0010
0001
1001
0000
,
0001
0000
0000
0001
0000
0000
0010
0000
0000
0010
0000
0000
0011
0000
0000
0000
,
1000
0000
0000
1000
0000
0000
0010
0000
0000
0010
0000
0000
1010
0000
0000
0000
,
0001
0000
0000
0001
0000
0000
0100
0000
0000
0100
0000
0000
0001
0000
0000
0001
,
0000
1000
0000
0000
0100
0000
0000
0100
0000
0000
0010
0000
0000
0010
0000
0000
,
1001
0000
0001
0000
0100
0000
0001
0000
1000
0100
0010
0000
0001
0000
0000
0000
,
1001
0000
1000
0000
0100
0000
1000
0000
0001
0100
0010
0000
1000
0000
0000
0000
,
1001
0000
0001
0000
0100
0000
0001
0000
1000
0100
0010
0000
0001
0000
0000
0000
,
0101
0000
0000
1010
0000
0000
1100
0000
0000
0011
0000
0000
1001
0000
0000
0000
,
0001
0100
0001
0000
1000
0010
1000
0000
,
0100
1000
0100
0000
0010
0001
0010
0000
,
0001
0100
0001
0000
1000
0010
1000
0000
,
0100
0000
0100
0000
0100
0010
0100
0000
,
1000
0001
0100
0000
0001
1000
0100
0000
,
1000
0001
0010
0000
0001
1000
0010
0000
,
1000
0100
0010
0000
0001
0100
0010
0000
,
1000
0010
0100
0000
0001
0010
0100
0000
,
1000
0010
1000
0010
0100
0001
0010
0100
,
0010
0001
0010
0001
0100
0010
1000
0001
,
1000
0100
0010
0001
0100
0010
1000
0001
,
0200
0000
0000
0300
,
0100
0100
0001
0001
1000
1000
0010
0010
,
1000
0010
1000
0000
0001
0100
0001
0000
2000
0000
0001
0000
0001
0000
3000
0000
,
0001
0100
0010
0100
0001
0010
0100
0000
,
0010
0101
0010
1100
,
1000
0100
0010
0100
1000
0010
0100
0000
,
0010
0000
0101
0000
0010
0100
0110
0000
,
0001
0100
1000
0100
0001
0010
0100
0000
,
1000
0110
0001
0110
,
1000
0100
0001
0100
1000
0010
0100
0000
,
0001
0010
0001
0010
0100
1000
0100
1000
,
0001
0100
0010
1000
0100
0010
1000
0010
,
0100
0011
0100
1010
,
1000
0100
0010
0001
0100
0010
0001
0010
,
0100
0000
1010
0000
0100
0010
0110
0000
,
0001
1000
0100
0010
0100
1000
0010
0000
,
0110
0000
0001
1000
0000
1000
0001
0000
,
1000
0010
0100
0001
0010
0100
1000
0000
,
0002
1000
1000
0003
,
0001
0000
0000
0100
0000
0000
0001
0000
0000
0100
0000
0000
0101
0000
0000
0000
,
1000
0000
0000
0010
0000
0000
1000
0000
0000
0010
0000
0000
1010
0000
0000
0000
,
0001
0000
0000
0010
0000
0000
0100
0000
0000
1000
0000
0000
1001
0000
0000
0000
,
1000
0000
0001
0000
0100
0000
0010
0100
0010
0000
1000
0000
0001
0000
0000
0000
,
1000
0000
0000
0100
0000
0000
1100
0000
0000
0001
0000
0000
0100
0000
0000
0101
,
0000
1000
0000
0000
0010
0000
0000
0110
0000
0000
0001
0000
0000
1000
0000
0000
,
0001
0010
0100
1000
0001
0010
0100
1000
,
0001
0010
0001
0000
1000
0000
0010
0000
0100
0000
0001
0000
1000
0000
0000
0000
,
1001
0000
0000
0000
,
0000
0000
0000
0000
;
#NOTES:
     dance-single:
     :
     Hard:
     16:
     :
0000
0000
0000
0000
,
0000
0000
0000
0000
,
0000
0000
0000
0000
,
0000
0000
0000
0000
,
0000
0000
0000
0000
,
0000
0000
0000
0000
,
0000
0000
0000
0000
,
0001
0100
0010
1000
0010
0100
0001
0000
,
1000
0100
0010
0000
0001
0100
0010
0000
,
1000
0000
0100
0000
0010
0000
0001
0000
1000
0001
1000
0001
1000
0000
0000
0000
,
2002
0000
3003
0000
1000
0100
0010
0001
,
1000
0000
0100
0000
0010
0001
0010
0001
0010
0000
0001
0000
0100
0000
0001
0000
,
0010
0001
0100
0000
0001
0100
0010
1000
,
0001
0000
0100
0000
0010
1000
0010
1000
0010
0000
1000
0000
0100
0000
1000
0000
,
0010
0010
0010
0000
1000
0100
0010
0001
,
0100
0000
0010
0000
1000
0001
1000
0001
1000
0000
0010
0000
1000
0000
0100
0000
,
1000
0010
1000
0000
0001
0010
0100
1000
,
0010
0000
0100
0000
0001
1000
0001
1000
0001
0000
0100
0010
0100
0000
0001
1000
,
0001
1000
1001
0001
1000
0100
0010
0100
,
1000
0000
0001
0000
0100
0010
1000
0010
0100
0000
0001
0000
0010
0000
0001
0000
,
0100
0010
1000
0100
0010
0100
1000
0001
,
0100
0000
0010
0000
1000
0001
0100
0001
1000
0000
0000
0000
0100
0000
0100
0000
,
0010
0010
0110
0000
0001
0010
0100
0010
,
0001
0000
1000
0000
0010
0100
0001
0100
0010
0000
1000
0000
1010
0000
0100
0000
,
0001
0101
1001
0000
0001
0010
0001
1000
,
0010
0000
0100
0000
0001
1000
0010
1000
0001
0000
0000
0000
0010
0000
0010
0000
,
0100
0000
0100
0000
0110
0000
0000
0000
1000
0100
1000
0100
0001
0100
1000
0000
,
0001
0100
1000
0000
1000
0100
0001
0000
1000
0010
1000
0010
0001
0010
1000
0000
,
0001
0010
1000
0000
1000
0010
0001
0000
1000
0000
0100
0000
1000
0000
0100
0000
,
0010
0001
0010
0001
0100
0001
0100
0001
,
1000
0000
0010
0000
1000
0000
0010
0000
1000
0100
1000
0000
0001
0100
0001
0000
,
1000
0001
1000
0001
1000
0001
1000
0001
2000
0000
0010
0000
0020
0000
3030
0000
,
1001
0100
0010
1001
0100
0010
1001
0000
,
0110
1000
0001
0110
1000
0001
0110
0000
,
1010
0100
0001
1010
0100
0001
1010
0001
,
0011
0100
1000
0011
0100
1000
0011
0000
,
0010
0000
0001
0000
0100
0000
0010
0000
1000
0000
0001
0100
0001
0000
0010
0000
,
0100
0000
1000
0000
0010
0000
0100
0000
0001
0000
0010
0100
0010
0000
0001
0000
,
0101
0000
1000
0000
0010
0000
0101
0000
1000
0000
0010
1000
0010
0000
0100
0000
,
0101
0001
1000
0010
1010
0000
1001
0000
,
1000
0000
0000
1010
0000
0000
1100
0000
0000
1010
0000
0000
1100
0000
0000
0000
,
0001
0000
0000
0011
0000
0000
0101
0000
0000
0011
0000
0000
0101
0000
0000
0000
,
1010
0000
0000
1010
0000
0000
0101
0000
0000
0101
0000
0000
1100
0000
0000
1100
,
0000
0001
0000
0000
0011
0000
0000
0011
0000
0000
0110
0000
0000
0110
0000
0000
,
1001
0000
0001
0100
0010
0000
1000
0100
1000
0100
0010
0001
0010
0000
0000
0000
,
1001
0000
1000
0100
0010
0000
0001
0100
0001
0100
0010
1000
0010
0000
0000
0000
,
1001
0000
0001
0100
0010
0000
1000
0100
1000
0100
0010
0001
0010
0000
0000
0000
,
1001
0000
1000
0100
0000
0001
0100
0000
1000
0100
0000
0001
0100
0000
1000
0000
,
0001
0010
0100
1000
0001
0010
0100
1000
,
0001
0010
0100
1000
0001
0010
0100
1000
,
0001
0010
0100
1000
0001
0010
0100
1000
,
0001
0000
0001
0000
0001
1000
1001
0000
,
0001
0100
0010
1000
0100
0010
0001
0000
,
0010
0100
1000
0000
0010
0100
0001
0000
,
1000
0100
0010
0001
0100
0010
1000
0000
,
0010
0100
0001
0000
0010
0100
1000
0000
,
0001
0100
0001
0100
0010
1000
0010
1000
,
0100
1000
0100
1000
0001
0010
0001
0010
,
0001
0100
0001
0000
1000
0100
1000
0000
0001
1000
0001
1000
0001
1000
0001
1000
,
0002
0000
0000
0003
,
1000
0010
0100
0010
1000
0010
0100
0000
0001
0010
0100
0010
0001
0010
0100
0000
,
1000
0100
0001
0100
1000
0010
0001
0010
2000
0000
0001
0000
0001
0000
3000
0000
,
1000
0000
0001
0100
0001
0000
1000
0000
0100
0000
0010
0000
0001
1000
0001
1000
,
0001
0010
1000
0010
0001
0010
1000
0010
,
0001
0000
1000
0100
1000
0000
0001
0000
0100
0000
0010
0000
1000
0001
1000
0001
,
1000
0010
0001
0010
1000
1000
1000
0000
,
0001
0000
1000
0100
1000
0000
0001
0000
0100
0000
0010
0000
1000
0100
1000
0100
,
0010
0001
0010
1000
0010
0001
0010
1000
,
0010
0000
0001
0100
0001
0000
1000
0000
0100
0000
0010
0000
0001
0100
0001
0100
,
0010
1000
0100
0010
0001
0100
0110
0010
,
1000
0000
0001
0100
0010
0000
1000
0000
0001
0000
0010
0000
0100
1000
0100
1000
,
0001
0100
0010
0100
0001
0100
0010
0100
,
0001
0000
1000
0100
0010
0000
0001
0000
1000
0000
0010
0000
0100
0001
0100
0001
,
1000
0100
0010
0001
0010
0010
0010
0000
,
0001
0000
1000
0100
0010
0000
0001
0000
0100
0000
0010
0000
1000
0001
1000
0010
,
1000
0010
1010
0100
0001
0101
0100
0010
,
1000
0000
0001
0100
0010
0000
1000
0000
0100
0000
0010
0000
0001
1000
0001
0010
,
0002
1000
1000
0003
,
0011
0000
0000
1010
0000
0000
0011
0000
0000
1010
0000
0000
0011
0000
0000
0000
,
1100
0000
0000
0101
0000
0000
1100
0000
0000
0101
0000
0000
1100
0000
0000
0000
,
1001
0000
0000
0110
0000
0000
1001
0000
0000
0110
0000
0000
1001
0000
0000
0000
,
0001
0000
1000
0000
0001
0000
0100
0010
0100
0010
0100
0000
1001
0000
0000
0000
,
1010
0000
0000
1010
0000
0000
1100
0000
0000
1100
0000
0000
0011
0000
0000
0011
,
0000
0100
0000
0000
0101
0000
0000
0101
0000
0000
1010
0000
0000
1010
0000
0000
,
1000
0100
0010
0001
1000
0100
0010
0001
,
1000
0010
1000
0010
1000
0010
1000
0010
0100
0001
0100
0001
0100
0000
0000
0000
,
0110
0000
0000
0000
,
0000
0000
0000
0000
;
#NOTES:
     dance-double:
     :
     Easy:
     9:
     :
00000000
00000000
00000000
00000000
,
00000000
00000000
00000000
00000000
,
00000000
00000000
00000000
00000000
,
00000000
00000000
00000000
00000000
,
00000000
00000000
00000000
00000000
,
00000000
00000000
00000000
00000000
,
00000000
00000000
00000000
00000000
,
00000001
00000000
00001000
00000000
00000001
00000010
00000001
00000000
,
00000100
00000010
00001000
00000100
,
00010000
00000000
00001000
00000000
00010000
00001000
00010000
00000000
,
00011000
00000000
00001000
00010000
,
00001000
00000000
01000000
00010000
01000000
00000000
00010000
00000000
,
00100000
01000000
10000000
00010000
,
01000000
00000000
00010000
00100000
00010000
00000000
00100000
00000000
,
00001000
00010000
00001000
00000000
00010000
00000000
00000100
00000000
,
00001000
00000000
00000100
00000010
00000100
00000000
00000010
00000000
,
00000001
00001000
00000001
00000010
,
00000100
00000000
00001000
00000010
00001000
00000000
00000010
00000000
,
00010000
00001000
00010000
00000000
00001000
00000000
00010000
00000000
,
00001000
00000000
00100000
00010000
00100000
00000000
00010000
00000000
,
01000000
00100000
10000000
00010000
,
00100000
00000000
00010000
01000000
00010000
00000000
01000000
00000000
,
00001000
00010000
00001000
00000000
00010000
00000000
00000010
00000000
,
00001000
00000000
00000010
00000100
00000010
00000000
00000000
00000100
,
00000000
00000110
00000001
00000100
,
00000010
00000000
00001000
00000100
00001000
00000000
00000100
00000000
,
00000100
00000000
00010000
00001000
,
01000000
00010000
01000000
00000000
00010000
00000000
00100000
00000000
,
01000000
10000000
01000000
00000000
10000000
00000000
01000000
00000000
,
00100000
00010000
00100000
00001000
,
00010000
00000000
00000100
00000000
00001000
00000100
00001000
00000000
,
00000001
00001000
00000001
00000000
00001001
00000000
00000000
00000000
,
00000001
00000000
00000000
00000100
00000000
00000000
00000101
00000000
,
00000010
00000000
00000000
00001000
00000000
00000000
00001010
00000000
,
00010000
00000000
00000000
00001000
00000000
00000000
00011000
00000000
,
00001000
00010000
00001000
00010000
00001000
00000000
00000000
00000000
,
00100000
00000000
00000000
00010000
00000000
00000000
00110000
00000000
,
00010000
00000000
00000000
01000000
00000000
00000000
01010000
00000000
,
00100000
00000000
00000000
10000000
00000000
00000000
10100000
00000000
,
10000000
00010000
10000000
00010000
10000000
00000000
00000000
00000000
,
00010000
00000000
00000000
00100000
00000000
00000000
00101000
00000000
,
00010000
00000000
00000000
00000010
00000000
00000000
00001010
00000000
,
00000001
00000000
00000000
00000100
00000000
00000000
00001000
00000000
,
00000000
00000000
00010000
00000000
00000000
00100000
00000000
00000000
,
01100000
00000000
10010000
00000000
10000000
01000000
00100000
00000000
,
00101000
00000000
00011000
00000000
00001000
00010000
00000100
00000000
,
00001100
00000000
00000110
00000000
00000001
00001000
00000001
00000000
,
00000100
00000000
00000000
00000100
00000000
00000000
00000100
00000000
00000000
00000100
00000000
00000000
00000100
00000000
00000000
00000000
,
00000001
00000100
00000010
00001000
,
00010000
01000000
00100000
10000000
,
01000000
00100000
00010000
00100000
,
00001000
00001000
00011000
00000000
,
00010000
00000000
00000010
00000000
00001000
00000010
00001000
00000000
,
00000100
00000000
00000010
00000000
00000001
00001000
00000001
00000000
,
00000100
00000000
00000010
00000000
00001000
00000100
00001000
00000000
,
00000100
00000000
00010000
00000000
00001000
00010000
00001000
00000000
,
01000000
00010000
00100000
10000000
,
00100000
00010000
01000000
00001000
,
00010000
00001000
00010000
00000000
00001000
00010000
00001000
00000000
,
00022000
00000000
00000000
00033000
,
00001000
00000010
00000001
00001001
,
00000001
00000100
00001000
00011000
,
00010000
00000000
01000000
00000000
00100000
01000000
00100000
00000000
,
00010000
10000000
01000000
00100000
,
00010000
00000000
01000000
00000000
00001000
00010000
00001000
00000000
,
00010000
00000100
00001000
00001001
,
00000001
00000000
00000010
00000000
00000100
00000010
00000100
00000000
,
00001000
00000001
00000010
00000100
,
00001000
00000000
00000010
00000000
00010000
00001000
00010000
00000000
,
00001000
00100000
00010000
10010000
,
10000000
01000000
00100000
00010000
,
00100000
00001000
00100000
00000000
00001000
00010000
00001000
00000000
,
00010000
00000010
00001000
00000100
,
00000001
00000000
00000100
00000010
00000100
00000000
00001000
00000000
,
00000001
00000100
00001000
00000100
,
00000001
00000000
00001000
00000100
00000000
00010000
00001000
00000000
,
01000000
00010000
00100000
01000000
,
10000000
00010000
10010000
00000000
,
10000000
00000000
00000000
01000000
00000000
00000000
01100000
00000000
,
00001000
00000000
00000000
00010000
00000000
00000000
00011000
00000000
,
00000100
00000000
00000000
00000010
00000000
00000000
00000110
00000000
,
00000001
00001000
00000001
00000000
,
00000001
00000000
00000000
00001000
00000000
00000000
00000010
00000000
,
00000000
00000000
00010000
00000000
00000000
00001000
00000000
00000000
,
00100000
00010000
01000000
00100000
,
10000000
00100000
10000000
00000000
00010000
00100000
00010000
00000000
,
10010000
00000000
00000000
00000000
,
00000000
00000000
00000000
00000000
;
#NOTES:
     dance-double:
     :
     Medium:
     13:
     :
00000000
00000000
00000000
00000000
,
00000000
00000000
00000000
00000000
,
00000000
00000000
00000000
00000000
,
00000000
00000000
00000000
00000000
,
00000000
00000000
00000000
00000000
,
00000000
00000000
00000000
00000000
,
00000000
00000000
00000000
00000000
,
00000001
00000010
00000001
00000000
00001000
00000010
00001000
00000000
,
00000001
00000100
00000010
00000000
00001000
00000100
00010000
00000000
,
00001000
00100000
00010000
00100000
01000000
10000000
01000000
00000000
,
20020000
00000000
30030000
00000000
10000000
01000000
10000000
01000000
,
00100000
00010000
00100000
00000000
00010000
00000000
01100000
00000000
,
00100000
00000000
00011000
00000000
00001000
00010000
00001000
00010000
,
00000100
00001000
00000100
00000000
00000010
00000000
00001001
00000000
,
00001000
00000001
00001000
00000000
00000001
00000100
00000001
00000100
,
00000010
00001000
00000010
00000000
00001000
00000000
00000110
00000000
,
00000010
00000000
00011000
00000000
00010000
00001000
00010000
00001000
,
01000000
00000000
00010000
00000000
01000000
00000000
00000000
00000000
00100000
00000000
10000000
00010000
10000000
00000000
00010000
00000000
,
01000000
00100000
10000000
00000000
00010000
10000000
01000000
00100000
,
00010000
01000000
00100000
00000000
01000000
00000000
00011000
00000000
,
00100000
00000000
00011000
00000000
00010000
00000010
00001000
00000100
,
00000010
00000100
00001000
00000000
00000010
00000000
00000110
00000000
,
00000001
00001000
00000001
00000000
00001000
00000001
00000100
00000010
,
00001000
00000100
00000010
00000000
00000100
00000000
00010000
00001000
,
00000000
00001000
00010000
00000000
00001000
00100000
00010000
01000000
,
00100000
01000000
00010000
00000000
20000000
00000000
00010000
00000000
,
00010000
00000000
30000000
00000000
10000000
01000000
00010000
01000000
,
10000000
01000000
00100000
00000000
00020000
00000000
00030000
00000000
00001000
00000000
00000100
00000000
00000001
00000000
00000100
00000000
,
00001000
00000100
00000010
00000000
00000002
00000000
00000003
00000000
00000001
00000000
00000100
00000000
00000001
00000000
00000100
00000000
,
00000010
00001000
00000010
00001000
00010000
01000000
00010000
01000000
,
00100000
10000000
00100000
10000000
01000000
00100000
00010000
00000000
,
00100000
00001000
00010000
00000000
00022000
00000000
00033000
00000000
,
00000100
00001000
00000100
00001000
00000010
00000000
00001010
00000000
,
00000100
00000001
00000100
00000001
00000010
00000000
00000011
00000000
,
00000001
00001000
00000100
00000000
00010000
00001000
01000000
00000000
,
00001000
00010000
01000000
10000000
00010000
00100000
01000000
00000000
,
00100000
00010000
00100000
00010000
01000000
00000000
01010000
00000000
,
00100000
10000000
00100000
10000000
01000000
00000000
11000000
00000000
,
10000000
00010000
00100000
00000000
00001000
00010000
00000010
00000000
,
00010000
00001000
00000010
00000001
00001000
00000100
00000010
00000000
,
00000001
00000000
00000000
00000001
00000000
00000000
00000100
00000000
00000000
00000100
00000000
00000000
00000010
00000000
00000000
00000000
,
00010000
00000000
00000000
00010000
00000000
00000000
00001000
00000000
00000000
00001000
00000000
00000000
00100000
00000000
00000000
00000000
,
00010000
00000000
00000000
00010000
00000000
00000000
01000000
00000000
00000000
01000000
00000000
00000000
00010000
00000000
00000000
00010000
,
00000000
10000000
00000000
00000000
01000000
00000000
00000000
01000000
00000000
00000000
00100000
00000000
00000000
00100000
00000000
00000000
,
10010000
00000000
00010000
00000000
01000000
00000000
00010000
00000000
10000000
01000000
00100000
00000000
00010000
00000000
00000000
00000000
,
00110000
00000000
00100000
00000000
00001000
00000000
00010000
00000000
00001000
00010000
00000100
00000000
00001000
00000000
00000000
00000000
,
00001010
00000000
00001000
00000000
00000100
00000000
00000010
00000000
00000001
00001000
00000001
00000000
00000100
00000000
00000000
00000000
,
00000110
00000000
00000000
00000110
00000000
00000000
00011000
00000000
00000000
00011000
00000000
00000000
00011000
00000000
00000000
00000000
,
00001000
01000000
00001000
00000000
00100000
00010000
00100000
00000000
,
01000000
10000000
01000000
00000000
00100000
00010000
00100000
00000000
,
00001000
00010000
00001000
00000000
00000010
00000100
00000010
00000000
,
00000001
00000000
00000001
00000000
00000001
00001000
00000001
00000000
,
00000010
00000001
00000100
00000000
00000010
00001000
00000100
00000000
,
00010000
00001000
00100000
00000000
00010000
01000000
00100000
00000000
,
01000000
00010000
00100000
00000000
01000000
10000000
00100000
00000000
,
01000000
00001000
00010000
00000000
00000100
00001000
00000010
00000000
,
00000100
00000001
00000100
00000001
00000010
00000100
00001000
00000010
,
00010000
00001000
00010000
00001000
01000000
00010000
00100000
01000000
,
10000000
01000000
00100000
00001000
00010000
00000100
00001000
00000001
,
00000020
00000000
00000000
00000030
,
00000001
00000001
00000100
00000100
00001000
00010000
01100000
00000000
,
10000000
01000000
00010000
00001000
00000020
00000100
00000100
00000030
,
00000001
00000100
00000001
00000010
00000100
00010000
00001000
00000000
,
01000000
00010000
00100000
00000000
01000000
10000000
00100000
00000000
,
10000000
01000000
10000000
00100000
01000000
00001000
00010000
00000000
,
00000100
00000000
00000110
00000000
00001000
00000001
00001000
00000000
,
00000001
00000010
00001000
00000010
00000001
00001000
00000100
00000000
,
00010000
00001000
00100000
00000000
00010000
01000000
00100000
00000000
,
10000000
01000000
00010000
01000000
10000000
00010000
00100000
01000000
,
00100000
00001000
00010000
00001000
00010000
00000100
00001000
00000000
,
00000010
00001000
00000100
00000010
00000001
00001000
00000001
00000000
,
00000100
00000010
00001000
00000000
00000100
00000010
00000001
00000000
,
00001000
00000100
00010000
00001000
00100000
00010000
01000000
00000000
,
00010000
00000000
10010000
00000000
10000000
00010000
10000000
00000000
,
00010000
01000000
00100000
10000000
01000000
00100000
00001000
00000000
,
00010000
00000000
00000100
00001000
00000000
00001000
00000100
00000000
,
00000010
00000001
00000010
00000001
00000100
00000010
00000100
00000010
,
00002000
00000001
00000001
00003000
,
00000001
00000000
00000000
00000100
00000000
00000000
00000010
00000000
00000000
00001000
00000000
00000000
00001010
00000000
00000000
00000000
,
00000010
00000000
00000000
00010000
00000000
00000000
00001000
00000000
00000000
00010000
00000000
00000000
00011000
00000000
00000000
00000000
,
00001000
00000000
00000000
01000000
00000000
00000000
00010000
00000000
00000000
00100000
00000000
00000000
00110000
00000000
00000000
00000000
,
00010000
00000000
00100000
00000000
01000000
00000000
10000000
00010000
10000000
00000000
01000000
00000000
00100000
00000000
00000000
00000000
,
00010000
00000000
00000000
10000000
00000000
00000000
11000000
00000000
00000000
00100000
00000000
00000000
00001000
00000000
00000000
00011000
,
00000000
00000100
00000000
00000000
00001000
00000000
00000000
00001010
00000000
00000000
00000001
00000000
00000000
00001000
00000000
00000000
,
00000001
00000100
00000001
00000100
00000010
00001000
00000010
00010000
,
00001000
00010000
00001000
00000000
01000000
00000000
00010000
00000000
00100000
00000000
01000000
00000000
10000000
00000000
00000000
00000000
,
10010000
00000000
00000000
00000000
,
00000000
00000000
00000000
00000000
;
#NOTES:
     dance-double:
     :
     Hard:
     16:
     :
00000000
00000000
00000000
00000000
,
00000000
00000000
00000000
00000000
,
00000000
00000000
00000000
00000000
,
00000000
00000000
00000000
00000000
,
00000000
00000000
00000000
00000000
,
00000000
00000000
00000000
00000000
,
00000000
00000000
00000000
00000000
,
00000001
00000010
00000001
00000100
00000010
00001000
00000100
00001000
,
00000010
00010000
00001000
00010000
00001000
00100000
00010000
01000000
,
00010000
00000000
00100000
00000000
01000000
00000000
10000000
00000000
00010000
10000000
00010000
10000000
00010000
00000000
00000000
00000000
,
20020000
00000000
30030000
00000000
10000000
01000000
10000000
01000000
,
00100000
00000000
00010000
00000000
10000000
00010000
10000000
00010000
10000000
00000000
00100000
00000000
01000000
00000000
00001000
00000000
,
00010000
00001000
01000000
00100000
00010000
00001000
00010000
00000100
,
00001000
00000000
00000010
00000000
00000100
00000001
00000100
00000001
00000100
00000000
00000010
00000000
00010000
00000000
00001000
00000000
,
00010000
00000010
00000100
00000000
00000001
00000010
00000100
00001000
,
00000001
00000000
00000100
00000000
00000010
00001000
00000010
00001000
00000010
00000000
00010000
00000000
00001000
00000000
00100000
00000000
,
00001000
00010000
00000010
00010000
00001000
01000000
00010000
00100000
,
01000000
00000000
10000000
00000000
00010000
10000000
00010000
10000000
00010000
00000000
10000000
01000000
10000000
00000000
00010000
00100000
,
00010000
10000000
10010000
00010000
10000000
00100000
10000000
00100000
,
01000000
00000000
00010000
00000000
10000000
00010000
10000000
00010000
10000000
00000000
01000000
00000000
00100000
00000000
00001000
00000000
,
00010000
00001000
00100000
01000000
00010000
00001000
00010000
00000010
,
00001000
00000000
00000100
00000000
00000010
00000001
00000010
00000001
00000010
00000000
00000100
00000000
00010000
00000000
00001000
00000000
,
00010000
00000100
00000010
00000000
00000001
00000100
00000010
00001000
,
00000001
00000000
00000010
00000000
00000100
00001000
00000100
00001000
00000100
00000000
00010000
00000000
00010000
00000000
01000000
00000000
,
00001000
00001000
00000100
00010000
00001000
00100000
00010000
01000000
,
00100000
00000000
10000000
00000000
00010000
10000000
00010000
10000000
00010000
00000000
00000000
00000000
00100000
00000000
00100000
00000000
,
01000000
00000000
01000000
00000000
01100000
00000000
00000000
00000000
10000000
01000000
00100000
00010000
10000000
01000000
00100000
00000000
,
01000000
00010000
00001000
00000000
00010000
00001000
00000010
00000000
00000001
00000100
00000010
00001000
00000001
00000100
00000010
00000000
,
00000100
00001000
00010000
00000000
00001000
00010000
00100000
00000000
10000000
00000000
01000000
00000000
10000000
00000000
01000000
00000000
,
00100000
00010000
00100000
00010000
00001000
00000100
00001000
00000100
,
00000010
00000000
00000001
00000000
00000010
00000000
00000001
00000000
00000100
00000001
00000100
00000000
00000010
00001000
00000010
00000000
,
00001000
00000001
00001000
00000001
00001000
00000001
00001000
00000001
00002000
00000000
00000010
00000000
00000020
00000000
00003030
00000000
,
00000010
00000100
00001000
00010000
00000010
00000100
00001000
00010000
,
00000010
00000100
00001000
00010000
00100000
00000000
10010000
00000000
,
01000000
00001000
00010000
00100000
01000000
00001000
00010000
00100000
,
01000000
00001000
00010000
00100000
02000000
00010000
03010000
00000000
,
00010000
00100000
00001000
00010000
00000010
00001000
00000100
00010000
,
00001000
01000000
00010000
00100000
00001000
00010000
00000100
00000000
,
00000010
00000100
00010000
00001000
00000010
00000100
00010000
00001000
,
00000010
00000100
00010000
00001000
00000010
00000000
00001001
00000000
,
00000101
00000000
00000000
00001100
00000000
00000000
00011000
00000000
00000000
00110000
00000000
00000000
01100000
00000000
00000000
00000000
,
11000000
00000000
00000000
01010000
00000000
00000000
00011000
00000000
00000000
00001100
00000000
00000000
00000110
00000000
00000000
00000000
,
00000101
00000000
00000000
00001100
00000000
00000000
00011000
00000000
00000000
00110000
00000000
00000000
01100000
00000000
00000000
11000000
,
00000000
00010000
00000000
00000000
11000000
00000000
00000000
01010000
00000000
00000000
00011000
00000000
00000000
00001010
00000000
00000000
,
00000011
00000000
00000001
00000100
00000001
00000000
00001000
00000100
00001000
00000100
00010000
00001000
00010000
00000000
00000000
00000000
,
00001000
00000000
00100000
00010000
00100000
00000000
01000000
10000000
01000000
10000000
00100000
10000000
00100000
00000000
00000000
00000000
,
01000000
00000000
00010000
00100000
00010000
00000000
00100000
00001000
00100000
00001000
00010000
00001000
00010000
00000000
00000000
00000000
,
00000100
00000000
00001000
00000010
00000000
00000100
00000001
00000000
00000010
00000100
00000000
00001000
00000001
00000000
00001000
00000000
,
00000001
00000010
00000100
00001000
00000010
00000100
00001000
00010000
,
00000010
00001000
00010000
01000000
00001000
00010000
00100000
01000000
,
00010000
00100000
01000000
10000000
00100000
01000000
00010000
10000000
,
01000000
00000000
01000000
00000000
01000000
00100000
01100000
00000000
,
10000000
00100000
10000000
00100000
01000000
00010000
00100000
00000000
,
00001000
00010000
00000100
00000000
00010000
00001000
01000000
00000000
,
00001000
00010000
00001000
00010000
00000100
00001000
00000010
00000000
,
00000100
00000001
00000010
00000000
00000100
00001000
00000010
00000000
,
00000100
00000001
00000100
00000001
00001000
00000010
00001000
00000010
,
00010000
00001000
00010000
00001000
01000000
00010000
00100000
00010000
,
10000000
00100000
10000000
00000000
00010000
00100000
00010000
00000000
10000000
00010000
10000000
00010000
10000000
00010000
10000000
00010000
,
20000000
00000000
00000000
30000000
,
10000000
00100000
10000000
00100000
01000000
00010000
01000000
00000000
00010000
00100000
00010000
00100000
00001000
00010000
00001000
00000000
,
00010000
00000100
00001000
00000010
00000100
00000001
00000010
00000100
00002000
00000000
00000001
00000000
00000001
00000000
00003000
00000000
,
00001000
00000000
00000010
00000100
00000010
00000000
00001000
00000000
00000001
00000000
00000010
00000000
00000100
00010000
00000100
00010000
,
00000100
00010000
01000000
00100000
00001000
00010000
01000000
00100000
,
00010000
00000000
01000000
00100000
01000000
00000000
00010000
00000000
10000000
00000000
01000000
00000000
00100000
00001000
00100000
00001000
,
00100000
00001000
00010000
00000100
00001000
00000001
00001001
00000000
,
00000001
00000000
00000100
00000010
00000100
00000000
00000001
00000000
00000010
00000000
00000100
00000000
00010000
00001000
00010000
00001000
,
00100000
00001000
00010000
00100000
01000000
00001000
00010000
01000000
,
00100000
00000000
00001000
00010000
00001000
00000000
01000000
00000000
00100000
00000000
10000000
00000000
00010000
01000000
00010000
01000000
,
00100000
10000000
01000000
00100000
00001000
00010000
00011000
00001000
,
00000100
00000000
00000001
00000010
00000100
00000000
00001000
00000000
00000010
00000000
00000100
00000000
00001000
00010000
00001000
00010000
,
00001000
00010000
00100000
01000000
00100000
00010000
00001000
01000000
,
00010000
00000000
10000000
00100000
01000000
00000000
00010000
00000000
10000000
00000000
01000000
00000000
00100000
00001000
00100000
00001000
,
00010000
00001000
00000010
00000001
00001000
00001000
00001000
00000000
,
00000001
00000000
00000010
00000100
00000010
00000000
00001000
00000000
00010000
00000000
01000000
00000000
00100000
00010000
00100000
00010000
,
00100000
00001000
00001000
00000010
00010000
00010000
00100000
00010000
,
10000000
00000000
01000000
00100000
00010000
00000000
01000000
00000000
00001000
00000000
00010000
00000000
00000100
00001000
00000100
00000010
,
00000002
00001000
00001000
00000003
,
00000011
00000000
00000000
00001010
00000000
00000000
00011000
00000000
00000000
01010000
00000000
00000000
11000000
00000000
00000000
00000000
,
10100000
00000000
00000000
00110000
00000000
00000000
00011000
00000000
00000000
00001100
00000000
00000000
00000101
00000000
00000000
00000000
,
00000011
00000000
00000000
00001010
00000000
00000000
00011000
00000000
00000000
01010000
00000000
00000000
11000000
00000000
00000000
00000000
,
10000000
00000000
00100000
00000000
01000000
00000000
00010000
10000000
00010000
10000000
00010000
00000000
10010000
00000000
00000000
00000000
,
11000000
00000000
00000000
01010000
00000000
00000000
00011000
00000000
00000000
00001010
00000000
00000000
00000011
00000000
00000000
00000101
,
00000000
00001000
00000000
00000000
00000101
00000000
00000000
00001100
00000000
00000000
00011000
00000000
00000000
00110000
00000000
00000000
,
10000000
01000000
00100000
00010000
01000000
00100000
00010000
00001000
,
00000100
00000010
00000100
00000010
00000100
00000010
00000100
00000010
00001000
00000001
00001000
00000001
00001000
00000000
00000000
00000000
,
00001001
00000000
00000000
00000000
,
00000000
00000000
00000000
00000000
;
