
//----- song ID: gtto -----//
#TITLE:Go To The Oasis;
#ARTIST:GRAN-NEW DRAMATIC BOYS;
#BANNER:Go To The Oasis.png;
#BACKGROUND:Go To The Oasis-bg.png;
#CDTITLE:./CDTitles/DDR A3.png;
#MUSIC:Go To The Oasis.ogg;
#SAMPLESTART:77.804;
#SAMPLELENGTH:15;
#BPMS:0=182;
#STAGE:16;
#NOTES:
     dance-single:
     :
     Beginner:
     3:
     :
0000
0000
0000
0000
,
0000
0000
0000
0000
,
0000
0000
0000
0000
,
0000
0000
0000
0000
,
0000
0000
0000
0000
,
0000
0000
0000
0000
,
0000
0000
0000
0000
,
0000
0000
0000
0000
,
0000
0000
0000
0000
,
0000
0000
0000
0000
,
0001
0000
0000
0000
,
0100
0000
0000
0000
,
0010
0000
0010
0000
,
0010
0000
0000
0000
,
1000
0000
0000
0000
,
0100
0000
0000
0000
,
0010
0000
0010
0000
,
0010
0000
0000
0000
,
0000
0000
0000
0000
,
0001
0000
0000
0000
,
0100
0000
0000
0000
,
0001
0000
0010
0000
,
0001
0000
0000
0000
,
0100
0000
0000
0000
,
0010
0000
0000
0000
,
1000
0000
1000
0000
,
0100
0000
0000
0000
,
1000
0000
0000
0000
,
0100
0000
0000
0000
,
1000
0000
0010
0000
,
1000
0000
0000
0000
,
0100
0000
0000
0000
,
0010
0000
0000
0000
,
0001
0000
0001
0000
,
0100
0000
0000
0000
,
0002
0000
0000
0000
,
0003
0000
0000
0000
,
0010
0000
0100
0000
,
0010
0000
0000
0000
,
0100
0000
0000
0000
,
0001
0000
0000
0000
,
1001
0000
0000
0000
,
0000
0000
0000
0000
,
2000
0000
0000
0000
,
3000
0000
0000
0000
,
0010
0000
0100
0000
,
0010
0000
0000
0000
,
0100
0000
0000
0000
,
1000
0000
0000
0000
,
2000
0000
0000
0000
,
3000
0000
0000
0000
,
0100
0000
0010
0000
,
1000
0000
0000
0000
,
0200
0000
0000
0000
,
0300
0000
0000
0000
,
0010
0000
0010
0000
,
0001
0000
0000
0000
,
0000
0000
0000
0000
,
0000
0000
0000
0000
,
0001
0000
0001
0000
,
0100
0000
0000
0000
,
1001
0000
0000
0000
,
0000
0000
0000
0000
,
1000
0000
1000
0000
,
0100
0000
0000
0000
,
1001
0000
0000
0000
,
0000
0000
0000
0000
,
0001
0000
0001
0000
,
0010
0000
0010
0000
,
0100
0000
0000
0000
,
0000
0000
0000
0000
,
1000
0000
1000
0000
,
0010
0000
0010
0000
,
0100
0000
0000
0000
,
0000
0000
0000
0000
,
0001
0000
0010
0000
,
0001
0000
0100
0000
,
0010
0000
0000
0000
,
0000
0000
0000
0000
,
1000
0000
0010
0000
,
0100
0000
0000
0000
,
1001
0000
0000
0000
,
2000
0000
0000
0000
,
3000
0000
0000
0000
,
0100
0000
0100
0000
,
0010
0000
0000
0000
,
0002
0000
0000
0000
,
0003
0000
0000
0000
,
0100
0000
0100
0000
,
0020
0000
0000
0000
,
0000
0000
0000
0030
,
0000
0000
0000
0000
;
#NOTES:
     dance-single:
     :
     Easy:
     6:
     :
0000
0000
0000
0000
,
0000
0000
0000
0000
,
0000
0000
0000
0000
,
0000
0000
0000
0000
,
0000
0000
0000
0000
,
0000
0000
0000
0000
,
0000
0000
0000
0000
,
0000
0000
0000
0000
,
0000
0000
0000
0000
,
0000
0000
0000
0000
,
0001
0010
0100
0000
,
1000
0010
0100
0000
,
0001
1000
0001
1000
,
0002
0000
0000
0003
,
1000
0100
0010
0000
,
0001
0100
0010
0000
,
1000
0001
1000
0001
,
2000
0000
0000
3000
,
0002
0000
0000
0003
,
0001
1000
0001
1000
,
0100
0010
0100
0000
,
1100
0000
0101
0000
,
1001
0000
0000
0000
,
0001
1000
0001
1000
,
0010
0100
0010
0000
,
1010
0000
0011
0000
,
1010
0000
1001
0000
,
1000
0001
1000
0001
,
0010
0100
0010
0000
,
0011
0000
1010
0000
,
1001
0000
0000
0000
,
1000
0001
1000
0001
,
0100
0010
0100
0000
,
0101
0000
1100
0000
,
0101
0000
1001
0000
,
1000
0010
0100
0010
,
1000
0010
0100
0000
,
0001
0001
1000
0000
,
1000
1000
0001
0000
,
1000
0010
0100
0001
,
0010
0100
1000
0000
,
0001
0000
0010
0000
0001
0000
0010
0001
,
0000
1000
1000
0000
,
0001
0100
0010
0100
,
0001
0100
0010
0000
,
1000
1000
0001
0000
,
0001
0001
1000
0000
,
0001
0100
0010
1000
,
0100
0010
0110
0000
,
1000
0100
0001
0100
,
1000
0000
1001
0000
,
0001
0010
0001
0000
,
1000
0100
1000
0000
,
0001
0100
1000
0100
,
0001
0000
1001
0000
,
1000
0010
1000
0000
,
0001
0100
0001
0000
,
2000
0000
0000
0000
,
0000
3000
1001
0000
,
1000
0010
1000
0010
,
0100
0001
0010
0000
,
0011
0000
1010
0000
,
0011
0000
1001
0000
,
0001
0100
0001
0100
,
0010
1000
0100
0000
,
1100
0000
0101
0000
,
1100
0000
1001
0000
,
0001
0100
0001
0100
,
0010
1000
0100
1000
,
0010
0000
0100
0000
0010
0000
0100
0010
,
0000
0000
0010
0010
,
2000
0000
3100
0100
,
0002
0000
0103
0100
,
1000
0000
0001
0000
0100
0000
0010
0100
,
0000
0000
0110
0000
,
1000
0010
1000
0010
,
0100
0001
0010
0001
,
0100
0000
0010
0000
0100
0000
0010
0100
,
0000
0000
0100
0100
,
0002
0000
0013
0010
,
2000
0000
3010
0010
,
0001
0000
0000
0000
,
0002
0000
0203
0000
,
0310
0000
0010
1000
,
0010
0100
0001
1000
,
0002
0000
0000
0003
,
2000
0000
3020
0000
,
0130
0000
0100
0001
,
0100
0010
1000
0001
,
2000
0000
0000
0000
,
0000
0000
0000
3000
,
0000
0000
0000
0000
;
#NOTES:
     dance-single:
     :
     Medium:
     12:
     :
0000
0000
0000
0000
,
0000
0000
0000
0000
,
0000
0000
0000
0000
,
0000
0000
0000
0000
,
0000
0000
0000
0000
,
0000
0000
0000
0000
,
0000
0000
0000
0000
,
0000
0000
0000
0000
,
0000
0000
0000
0000
,
0000
0000
0000
0000
,
1000
0000
0010
1000
0010
0000
0100
0001
,
0100
0000
0000
1001
0000
0000
0000
0000
0001
0000
1000
0000
,
0010
0100
0010
0100
0010
0100
,
0010
0000
0110
0000
1000
0001
1000
0000
,
0001
0000
0100
0001
0100
0000
0010
1000
,
0010
0000
0000
1001
0000
0000
0000
0000
1000
0000
0001
0000
,
0100
0010
0100
0010
0100
0010
,
0220
0000
0000
0330
,
2002
0000
0000
3003
,
1000
0000
1100
0000
0001
0000
0100
0001
,
0000
0101
0000
0011
0000
0010
0000
0001
,
1000
0010
0001
0000
0010
1000
0001
0100
,
0000
0110
0000
0000
0001
1000
0001
0000
,
1000
0000
1010
0000
0001
0000
0010
0001
,
0000
0011
0000
0101
0000
0100
0001
1000
,
0020
0000
0230
0000
1300
0100
0001
1000
,
0000
1000
0100
0010
0000
0110
0000
0000
,
0001
0000
0101
0000
1000
0000
0100
1000
,
0000
1100
0000
1010
0000
0010
1000
0001
,
0010
0000
1000
0000
0010
0001
1000
0100
,
0000
0110
0000
0000
1000
0001
1000
0000
,
0001
0000
0011
0000
1000
0000
0010
1000
,
0000
1010
0000
1100
0000
0100
1000
0001
,
0020
0000
0230
0000
0301
0100
1000
0001
,
0000
0001
0100
0010
1000
0000
1001
0000
,
0001
0000
0010
1000
0010
0000
0001
1000
,
0001
0000
1001
0000
1000
0010
0100
0010
,
1000
1010
0110
0101
,
1001
0000
1100
0000
0100
1000
0001
0000
,
0200
0000
0310
0010
,
1000
1000
0001
0001
,
0200
0000
0300
0100
0020
0000
0030
0110
,
0000
0010
0010
0000
0100
0100
0010
0000
,
1000
0000
0100
0001
0100
0000
1000
0001
,
1000
0000
1001
0000
0001
0100
0010
0100
,
0001
0101
0110
1010
,
1001
0000
0011
0000
0010
0001
1000
0000
,
0020
2030
3002
0203
,
0302
0000
0023
0000
0130
0100
0000
0000
,
1000
0000
0100
0000
0001
0000
0010
1000
,
0000
1000
0010
1000
0000
0001
1000
0000
,
0100
0000
0001
0000
0100
1000
0001
1000
,
0000
1001
0000
0000
0001
0100
0010
0000
,
1000
0000
0010
0000
0100
0000
0001
0010
,
0000
0010
0001
0100
0000
0010
0100
0000
,
1000
0000
0100
0000
0001
0010
0100
1000
,
0000
1000
0100
0010
0001
0000
1001
0000
,
2000
0000
3200
0000
,
0310
0001
0000
0001
2000
0000
0000
0000
,
3001
0000
0100
0010
1000
0000
0100
0010
,
0001
0000
0000
1001
0000
0000
0000
0000
1000
0000
1000
0000
,
0100
0001
0001
0100
1000
1000
,
0001
0000
1001
0000
0001
0010
0100
0000
,
1000
0000
0010
0100
0001
0000
0010
0100
,
1000
0000
0000
1001
0000
0000
0000
0000
0001
0000
0001
0000
,
0100
1000
1000
0100
0001
0001
,
2000
0000
0002
3003
,
0001
0010
0001
0010
0100
1000
0100
1000
,
0001
0100
0010
1000
0000
1000
0010
0100
,
0101
0000
1100
0000
0101
0000
0001
1000
,
0000
0100
0000
0110
0000
0011
0000
0001
,
1000
0000
0100
0010
0001
0000
0011
0000
,
1010
0000
1000
0001
0100
0001
1000
0000
,
0100
1000
0010
0000
0100
0001
0010
0001
,
0000
0001
1000
0000
0110
0000
1001
0000
,
1000
0010
1000
0010
0100
0001
0100
0001
,
1000
0100
0010
0001
0000
0001
0010
0100
,
1100
0000
0101
0000
1100
0000
1000
0001
,
0000
0100
0000
0110
0000
1010
0000
1000
,
0001
0000
0100
0010
1000
0000
1010
0000
,
0011
2002
0000
0000
,
3003
0000
0000
0000
,
1000
0000
0001
0100
0010
0000
1000
0100
,
0010
0000
0000
0110
0000
0000
0000
0000
0001
0000
0010
0000
,
0110
0100
1000
0100
0001
0100
,
0110
0000
0000
0000
0000
0000
0000
0000
0001
0000
1000
0001
1000
0000
0000
0000
,
0001
0000
1000
0010
0100
0000
0001
0010
,
0100
0000
0000
0110
0000
0000
0000
0000
1000
0000
0100
0000
,
0110
0010
0001
0010
1000
0010
,
0220
0000
0000
0000
,
0000
0000
0000
0330
,
0000
0000
0000
0000
;
#NOTES:
     dance-single:
     :
     Hard:
     15:
     :
0000
0000
0000
0000
,
0000
0000
0000
0000
,
0000
0000
0000
0000
,
0000
0000
0000
0000
,
0000
0000
0000
0000
,
0000
0000
0000
0000
,
0000
0000
0000
0000
,
0000
0000
0000
0000
,
0000
0000
0000
0000
,
0000
0000
0000
0000
,
1000
0000
0100
0010
0001
0000
0100
0010
,
1000
0000
0000
1001
0000
0000
0001
0000
0100
0000
0100
0000
,
0010
1000
1010
0001
0100
0101
,
0110
0000
1001
0000
1000
0100
0001
0100
,
1000
0000
0001
0010
0100
0000
1000
0010
,
0100
0000
0000
0110
0000
0000
1000
0000
0010
0000
0010
0000
,
0100
0001
0011
1000
0100
1100
,
2002
0000
0000
3003
,
0220
0000
0000
0330
,
1000
0010
1010
0000
1000
0010
1000
1100
,
0000
0011
0000
1100
0000
1000
0001
0100
,
0010
0000
1001
0000
0001
0010
0100
1100
,
0000
0101
0000
0000
1000
0001
1000
0000
,
0001
0100
0101
0000
0001
0100
0001
0011
,
0000
1100
0000
0011
0000
0001
1000
0010
,
0100
0000
1001
0000
1000
0100
0010
0011
,
0000
1010
0000
0110
0000
1000
1001
0000
,
0001
0000
0010
0100
1000
0000
0001
0000
1000
0000
0010
0100
0001
0000
0011
0000
,
0000
0000
1100
0000
1000
0000
1010
0000
0000
0000
0010
0100
0010
0000
0010
0000
,
1000
1000
1001
0000
0001
0010
1000
0010
,
0000
0000
0110
0000
0000
0000
0001
0010
0100
0000
1000
0000
0010
0000
0000
0000
,
1000
0000
0100
0010
0001
0000
1000
0000
0001
0000
0100
0010
1000
0000
1100
0000
,
0000
0000
0011
0000
0001
0000
0101
0000
0000
0000
0100
0010
0100
0000
0100
0000
,
0001
0000
1001
0000
1000
0100
0001
0100
,
0000
0110
0010
0001
1000
0000
1001
0000
,
0001
0000
1000
0100
0010
0000
0100
0000
1000
0000
0001
0100
0010
0000
0100
0000
,
0001
0000
1001
0000
1000
0100
0010
0001
,
0011
0001
0101
0000
1010
1000
0001
0100
,
0000
0000
0001
0000
0100
0000
0010
0000
1000
0001
1000
0001
1000
0000
0000
0000
,
0100
0000
1001
0000
1010
0001
0101
0000
,
0011
1000
1100
0000
0101
0001
1000
0100
,
1100
0000
0000
0000
0001
0100
0001
0100
0010
0000
0000
0000
0010
0000
0110
0000
,
0000
0100
0010
0000
1000
1000
0001
0000
,
1000
0000
0001
0010
0100
0000
0010
0000
0001
0000
1000
0010
0100
0000
0010
0000
,
1000
0000
1001
0000
0001
0010
0100
1000
,
1100
1000
1010
0000
0101
0001
1000
0010
,
0000
0000
1000
0000
0010
0000
0100
0000
0001
1000
0001
1000
0001
0000
0000
0000
,
0010
0100
1001
0000
0101
1000
1010
0000
,
1100
0001
0011
0000
0110
0110
0000
0000
,
1000
0000
0010
0100
0001
0000
0100
0000
0010
0000
1000
0100
0010
0000
0011
0000
,
0000
0001
0100
1010
0000
0010
1000
0010
,
1000
0000
1000
0000
0100
0000
0100
0000
0010
0000
0001
1000
0001
0000
1001
0000
,
0000
0000
0001
0000
0010
0000
0100
0000
1000
0001
1000
0001
1000
0000
0000
0000
,
0001
0000
0100
0010
1000
0000
0010
0000
0100
0000
0001
0010
0100
0000
1100
0000
,
0000
1000
0010
0101
0000
0101
0001
0100
,
0001
0000
0001
0000
0010
0000
0010
0000
0100
0000
1000
0001
1000
0000
1001
0000
,
0000
0000
1000
0000
0100
0000
0010
0000
0001
1000
0001
1000
0001
0000
0000
0000
,
1000
0000
0010
0100
0000
0000
0001
1000
,
0000
0000
1000
0000
0001
0000
0100
0000
0010
1000
0001
1000
0001
0000
0000
0000
,
1000
0000
0001
0010
0100
0000
1000
0000
0001
0000
0100
0010
1000
0000
0100
0000
,
0010
0000
0000
0011
0000
0000
0001
0000
0100
0000
0101
0000
,
1000
0010
1010
0001
1000
0100
,
0010
0000
0000
0000
1001
0000
0000
0000
1000
0010
1000
0010
0100
0000
0000
0000
,
0001
0000
1000
0100
0010
0000
0001
0000
1000
0000
0010
0100
0001
0000
0010
0000
,
0100
0000
0000
1100
0000
0000
1000
0000
0010
0000
1010
0000
,
1000
0001
0101
0100
0001
1000
,
0010
0000
0000
0000
1001
0000
0000
0000
0001
0100
0001
0100
0010
0000
0000
0000
,
1000
0000
0100
0000
0010
0001
0010
0000
0100
0000
1000
0001
0000
0001
1000
0000
,
0001
0000
0100
0000
0010
1000
0010
0000
0100
0000
0001
1000
0000
1000
0001
0000
,
0010
0100
1000
0000
0010
0100
0001
1001
,
0000
0000
1000
0000
0001
0010
0001
0000
0100
0000
0010
0000
0110
0000
0000
0000
,
0100
0010
1010
1000
0001
0100
0010
0100
,
0001
0010
0011
0001
1000
0100
0010
0100
,
1000
0000
0010
0100
0010
0000
0000
0000
1000
0100
0010
0000
0001
0000
1001
0000
,
0000
0000
1000
0000
0001
0010
0100
0000
1001
0000
1000
0001
1000
0000
0000
0000
,
0001
0000
0100
0000
0010
1000
0010
0000
0100
0000
0001
1000
0000
1000
0001
0000
,
1000
0000
0100
0000
0010
0001
0010
0000
0100
0000
1000
0001
0000
0001
1000
0000
,
0010
0100
0001
0000
0010
0100
1000
1001
,
0000
0000
0001
0000
1000
0010
1000
0000
0100
0000
0010
0000
0110
0000
0000
0000
,
0100
0000
0010
0000
0011
0000
0000
0000
0001
0000
0100
0000
0010
1000
0010
0000
,
1000
2002
0000
0000
,
3003
0000
0000
0000
,
1000
0000
0001
0010
0100
0000
1000
0010
,
0100
0000
0000
1001
0000
0000
0001
0100
0001
0100
0010
1000
,
0100
1000
0100
1000
0001
0010
0001
0100
0010
1000
0100
0010
,
0001
0000
1001
0000
0001
0010
1000
0010
,
0001
0000
1000
0010
0100
0000
0001
0010
,
0100
0000
0000
1001
0000
0000
1000
0100
1000
0100
0010
0001
,
0100
0001
0100
0001
1000
0010
1000
0100
0010
0001
0100
0010
,
1000
0000
1001
0000
1000
0010
0001
0010
,
0000
1010
0000
2002
0000
0000
3003
0000
,
0000
0000
0000
0000
;
#NOTES:
     dance-double:
     :
     Easy:
     6:
     :
00000000
00000000
00000000
00000000
,
00000000
00000000
00000000
00000000
,
00000000
00000000
00000000
00000000
,
00000000
00000000
00000000
00000000
,
00000000
00000000
00000000
00000000
,
00000000
00000000
00000000
00000000
,
00000000
00000000
00000000
00000000
,
00000000
00000000
00000000
00000000
,
00000000
00000000
00000000
00000000
,
00000000
00000000
00000000
00000000
,
00010000
00100000
01000000
00000000
,
10000000
00100000
01000000
00000000
,
00001000
00010000
00001000
00010000
,
00002000
00000000
00000000
00003000
,
00010000
00000010
00001000
00000000
,
00000100
00000010
00000001
00000000
,
00000100
00000010
00000100
00000010
,
00000200
00000000
00000000
00000000
,
00000000
00000000
00000000
00000300
,
00000001
00001000
00000001
00001000
,
00000100
00001000
00000010
00000000
,
00001010
00000000
00001100
00000000
,
00011000
00000000
00000000
00000000
,
00010000
00001000
00010000
00001000
,
01000000
00010000
01000000
00000000
,
00110000
00000000
10100000
00000000
,
01100000
00000000
10010000
00000000
,
10000000
00100000
01000000
00010000
,
00100000
00001000
00010000
00000000
,
00000100
00001000
00000010
00000000
,
00000110
00000000
00000000
00000000
,
00000001
00000100
00000001
00000010
,
00000100
00010000
00001000
00000000
,
01000000
00010000
00100000
00000000
,
01100000
00000000
00000000
00000000
,
10000000
01000000
00010000
00000000
,
00010000
01000000
10000000
00000000
,
10000000
01000000
00100000
00010000
,
00001000
00000100
00000010
00000000
,
00000001
00001000
00000100
00010000
,
00000010
00001000
00000100
00000010
,
00000011
00000000
00000000
00000000
00000001
00000000
00001000
00000010
,
00000000
00000100
00000100
00000000
,
00000001
00000100
00001000
00000000
,
00001000
00000100
00000001
00000000
,
00000001
00000100
00000010
00001000
,
00010000
01000000
00100000
00000000
,
10100000
00000000
01000000
00000000
,
11000000
00000000
10010000
00000000
,
10000000
00010000
01000000
00001000
,
00010000
00010000
00010000
00000000
,
00001000
00100000
00001000
00000000
,
00010000
00000010
00010000
00000000
,
00001000
00010000
00000100
00001000
,
00000010
00000100
00000010
00000000
,
00000100
00000010
00010000
00000000
,
00000100
00001000
00000001
00000000
,
00000200
00000000
00000000
00000000
,
00000000
00000300
00000110
00000000
,
00000001
00000100
00000010
00010000
,
00001000
00000000
00011000
00000000
,
00010000
00100000
10000000
00000000
,
10000000
01000000
00010000
00000000
,
00001000
00100000
01000000
00100000
,
00001000
00010000
00001000
00000000
,
00010000
00000010
00000100
00000010
,
00010000
00001000
00010000
00000000
,
00001000
00010000
00001000
00000010
,
00000001
00001000
00000001
00000000
,
00000001
00000100
00001000
00000000
,
00010000
00100000
10000000
00000000
,
00020000
00000000
01030000
00001000
,
00020000
00000000
00030100
00010000
,
00001000
00000000
00000010
00000000
00001000
00000000
00010000
00001000
,
00000000
00010000
00011000
00000000
,
00010000
00001000
00010000
01000000
,
10000000
00010000
10000000
00000000
,
10000000
00100000
00010000
00000000
,
00001000
00000100
00000001
00000000
,
00002000
00000000
00003010
00010000
,
00002000
00100000
00003000
00001000
,
00011000
00000000
00000000
00000000
,
00020000
00000000
00032000
00000000
,
00003010
00000000
00000010
00000001
,
00000100
00000010
00001000
00000100
,
00020000
00000000
00000000
00030000
,
00002000
00000000
00023000
00000000
,
00130000
00000000
00100000
10000000
,
01000000
00100000
00010000
01000000
,
00002000
00000000
00000000
00000000
,
00000000
00000000
00000000
00003000
,
00000000
00000000
00000000
00000000
;
#NOTES:
     dance-double:
     :
     Medium:
     12:
     :
00000000
00000000
00000000
00000000
,
00000000
00000000
00000000
00000000
,
00000000
00000000
00000000
00000000
,
00000000
00000000
00000000
00000000
,
00000000
00000000
00000000
00000000
,
00000000
00000000
00000000
00000000
,
00000000
00000000
00000000
00000000
,
00000000
00000000
00000000
00000000
,
00000000
00000000
00000000
00000000
,
00000000
00000000
00000000
00000000
,
10000000
00000000
00100000
01000000
00100000
00000000
10000000
00010000
,
10000000
00000000
00000000
10010000
00000000
00000000
00000000
00000000
10000000
00000000
01000000
00000000
,
00100000
00001000
00010000
00001000
00100000
00001000
,
00010000
00000000
00011000
00000000
00010000
00001000
00010000
00000000
,
00001000
00000000
00000010
00000100
00000010
00000000
00000001
00001000
,
00000001
00000000
00000000
00001001
00000000
00000000
00000000
00000000
00000001
00000000
00000010
00000000
,
00000100
00010000
00001000
00010000
00000100
00010000
,
00002000
00000000
00000000
00000000
,
00020000
00000000
00000000
00033000
,
00010000
00000000
00100000
00000000
10000000
00010000
01000000
00010000
,
00000000
00110000
00000000
10010000
00000000
10000000
01000000
00100000
,
00010000
00000000
00101000
00000000
00100000
00001000
00010000
00001000
,
00000000
00011000
00000000
00000000
00000000
00000000
00000000
00000000
,
00010000
00000000
00001000
00000000
00000010
00000001
00001000
00000001
,
00000000
00000101
00000000
00001001
00000000
00001000
00000001
00000100
,
00002000
00000000
00023000
00000000
00130000
01000000
00100000
10000000
,
00000000
00010000
01000000
00100000
00000000
01100000
00000000
00000000
,
10000000
00000000
10100000
00000000
10000000
00000000
01000000
10000000
,
00000000
11000000
00000000
10010000
00000000
10000000
01000000
00100000
,
00010000
00000000
01000000
00000000
00001000
00010000
00001000
00010000
,
00000000
00011000
00000000
00001000
00000010
00000001
00001000
00000000
,
00000001
00000000
00000101
00000000
00000001
00000000
00000010
00000001
,
00000000
00000011
00000000
00001001
00000000
00000001
00000010
00000100
,
00002000
00000000
00003020
00000000
00010030
00001000
00010000
00001000
,
00000000
00010000
00001000
00010000
01000000
00000000
01100000
00000000
,
10000000
00000000
00100000
01000000
00010000
00000000
00100000
01000000
,
10000000
00000000
10010000
00000000
10000000
01000000
00100000
00010000
,
00001000
00000100
00000110
00000000
,
00000011
00000000
00001100
00000000
00000001
00000100
00000001
00000000
,
00002000
00000000
00003010
00001000
,
00100000
01000000
00010000
00100000
,
01000000
00000000
00000000
00010000
00001000
00000000
00010000
00000100
,
00000000
00000100
00000010
00000000
00000001
00001000
00001001
00000000
,
00000001
00000000
00000010
00000100
00001000
00000000
00000010
00000100
,
00000001
00000000
00001001
00000000
00000001
00000100
00000010
00001000
,
00010000
01000000
01100000
00000000
,
10100000
00000000
01010000
00000000
10000000
01000000
10000000
00000000
,
00020000
00230000
00320000
00030020
,
00000032
00000000
00000203
00000000
00000310
00000010
00000000
00000000
,
00000001
00000000
00000010
00000000
00001000
00000000
00000010
00000001
,
00000000
00000001
00001000
00000001
00000000
00000001
00000100
00000000
,
00000010
00000000
00001000
00000000
00000100
00010000
00001000
00010000
,
00000000
00011000
00000000
00001000
00100000
00010000
01000000
00000000
,
00100000
00000000
10000000
00000000
00100000
00000000
00010000
00100000
,
00000000
00100000
10000000
01000000
00000000
01000000
00100000
00010000
,
00100000
00000000
00001000
00000000
00010000
00001000
00000010
00000001
,
00000000
00001000
00000100
00000010
00000001
00000000
00001001
00000000
,
00000002
00000000
00000203
00000000
,
00000310
00001000
00000000
00001000
00000200
00000000
00000000
00000000
,
00001300
00000000
00000010
00010000
00000010
00000000
00010000
00001000
,
00010000
00000000
00000000
00011000
00000000
00000000
00000000
00000000
00001000
00000000
00010000
00000000
,
00100000
10000000
01000000
00010000
01000000
10000000
,
00100000
00000000
01100000
00000000
10000000
01000000
00100000
00000000
,
00010000
00000000
01000000
00001000
01000000
00000000
00001000
00010000
,
00001000
00000000
00000000
00011000
00000000
00000000
00000000
00000000
00010000
00000000
00001000
00000000
,
00000100
00000001
00000010
00001000
00000010
00000001
,
00000100
00000000
00000110
00000000
00000001
00000010
00000100
00000000
,
00001000
00000010
00001000
00000010
00000100
00001000
00010000
00100000
,
01000000
00010000
01000000
00010000
00100000
01000000
00010000
00001000
,
00000010
00000100
00001000
00000000
00000010
00000100
00001000
00010000
,
00000000
00010000
00001000
01000000
00010000
00000000
00110000
00000000
,
10010000
00000000
10000000
00100000
00010000
00000000
00001000
00000000
,
00011000
00000000
00001000
00000010
00000001
00000000
00001000
00000000
,
00000001
00000100
00001000
00000000
00001000
00000100
00000001
00001000
,
00000000
00001000
00000100
00000000
00000110
00000000
00001001
00000000
,
00001000
00000100
00000010
00001000
00010000
00001000
00010000
01000000
,
00100000
00010000
01000000
00100000
00010000
00001000
00010000
00001000
,
00000100
00000010
00001000
00000000
00000100
00000010
00001000
00010000
,
00000000
00010000
00001000
00100000
00010000
00000000
01010000
00000000
,
10010000
00000000
10000000
01000000
00010000
00000000
00001000
00000000
,
00011000
00022000
00000000
00000000
,
00033000
00000000
00000000
00000000
,
00010000
00000000
00000100
00001000
00000010
00000000
00000100
00000001
,
00000010
00000000
00000000
00000110
00000000
00000000
00000000
00000000
00000001
00000000
00001000
00000000
,
00000100
00010000
00001000
01000000
00010000
10000000
,
01000000
00000000
00000000
00000000
01100000
00000000
00000000
00000000
00010000
00000000
10000000
00010000
10000000
00000000
00000000
00000000
,
01000000
00000000
00100000
00001000
00010000
00000000
00001000
01000000
,
00010000
00000000
00000000
10010000
00000000
00000000
00000000
00000000
10000000
00000000
00010000
00000000
,
00100000
00001000
00010000
00000010
00001000
00000001
,
00000020
00000000
00000000
00000000
,
00000000
00000000
00000000
00000030
,
00000000
00000000
00000000
00000000
;
#NOTES:
     dance-double:
     :
     Hard:
     15:
     :
00000000
00000000
00000000
00000000
,
00000000
00000000
00000000
00000000
,
00000000
00000000
00000000
00000000
,
00000000
00000000
00000000
00000000
,
00000000
00000000
00000000
00000000
,
00000000
00000000
00000000
00000000
,
00000000
00000000
00000000
00000000
,
00000000
00000000
00000000
00000000
,
00000000
00000000
00000000
00000000
,
00000000
00000000
00000000
00000000
,
00011000
00000000
00010000
00001000
00000010
00000000
00000001
00001000
,
00000100
00000000
00000000
00000110
00000000
00000000
00000001
00000000
00000100
00000000
00000010
00000000
,
00001010
00001000
00000100
00010100
00010000
00001000
,
00011000
00000000
00010000
00100000
01000000
00100000
00010000
00000000
,
00011000
00000000
00001000
00010000
00100000
00000000
10000000
00010000
,
01000000
00000000
00000000
01100000
00000000
00000000
10000000
00000000
01000000
00000000
00100000
00000000
,
00110000
00010000
01000000
01001000
00001000
00010000
,
00022000
00000000
00000000
00000000
,
00000000
00000000
00000000
00033000
,
00001000
00010000
00000100
00000000
00001000
00000010
00001000
00001100
,
00000000
00000011
00000000
00001100
00000000
00000011
00000001
00000001
,
00000100
00000010
00001000
00000000
00000001
00000100
00001000
00010000
,
00000000
00011000
00000000
00001000
00010000
00100000
01000000
00000000
,
00010000
01000000
10000000
00000000
01000000
00010000
00100000
00110000
,
00000000
11000000
00000000
00110000
00000000
11000000
01000000
10000000
,
00100000
01000000
01100000
00000000
01000000
00100000
00010000
00011000
,
00000000
00001000
01000000
00001000
00000000
00010000
00011000
00000000
,
00010000
00000000
00001000
00100000
00001000
00000000
00100000
00000000
00010000
00000000
01000000
00010000
00100000
00000000
00110000
00000000
,
00000000
00000000
11000000
00000000
10000000
00000000
00110000
00000000
00000000
00000000
11000000
00000000
10000000
01000000
10000000
00000000
,
00100000
01000000
00010000
00010000
10000000
00100000
00010000
00001000
,
00000000
00000000
00011000
00000000
00000000
00000000
00010000
00001000
00010000
00000000
00000100
00001000
00000010
00000000
00000000
00000000
,
00001000
00000000
00000010
00000100
00000010
00000000
00000001
00000000
00000010
00000000
00001000
00000100
00001000
00000000
00001100
00000000
,
00000000
00000011
00000001
00001100
00000000
00000011
00000010
00000001
,
00000100
00000010
00000110
00000000
00000010
00000100
00001000
00011000
,
00000000
00010000
00000010
00010000
00001000
00000000
00011000
00000000
,
00001000
00000000
01000000
00010000
01000000
00000000
00100000
00000000
10000000
00000000
00010000
00100000
00010000
00000000
01000000
00000000
,
00001000
00000000
00010000
00000100
00010000
00000000
00000010
00000000
00001000
00000000
00000100
00000000
00000010
00000000
00000001
00000000
,
00000200
00000000
00002300
00000000
00013000
00100000
01000000
00100000
,
10000000
01000000
00100000
01000000
00010000
00010000
00001000
00001000
,
00000010
00000001
00001001
00000000
00001100
00001000
00001010
00000000
,
00010010
00010000
00011000
00000000
01001000
00001000
00101000
00001000
,
01001000
00000000
01000000
00100000
10100000
10000000
00010000
01100000
,
00000000
01000000
00100000
00000000
00001000
00010000
00011000
00000000
,
00010000
00000000
00000100
00001000
00000100
00000000
00000010
00000000
00000001
00000000
00001000
00000010
00001000
00000000
00000100
00000000
,
00010000
00000000
00001000
01000000
00001000
00000000
00100000
00000000
00010000
00000000
01000000
00000000
00100000
00000000
10000000
00000000
,
02000000
00000000
03020000
00000000
00031000
00000010
00000100
00000010
,
00000001
00000100
00000010
00000100
00001000
00001000
00010000
00010000
,
00100000
10000000
10010000
00000000
01010000
00010000
00110000
00000000
,
00101000
00001000
00011000
00000000
00010100
00011000
00000000
00000000
,
00010000
00000000
00000010
00001000
00000010
00000000
00000100
00000001
00001000
00000000
00000100
00000010
00000001
00000000
00001000
00000000
,
00000000
00000001
00000100
00001000
00000000
00001000
00010000
00010000
,
00100000
00000000
10000000
01000000
10000000
00000000
00100000
10000000
00100000
00000000
01000000
00000000
00010000
00000000
00110000
00000000
,
00000000
00000000
10010000
00000000
00000000
00000000
00000000
00000000
10000000
00010000
10000000
00010000
10000000
00000000
00000000
00000000
,
00010000
00000000
01000000
00010000
00100000
00000000
00001000
00100000
00010000
00000000
00100000
00001000
00010000
00000000
00000100
00000000
,
00000000
00000000
00001000
00000100
00000010
00000000
00000011
00000000
00000000
00000000
00000001
00000000
00000100
00000000
00000100
00000000
,
00000010
00000010
00001010
00000000
00000001
00000100
00001000
00011000
,
00000000
00000000
00010000
00000000
00100000
00000000
10000000
00000000
00100000
01000000
00100000
01000000
00100000
00000000
00000000
00000000
,
10000000
00000000
01000000
00100000
00000000
00000000
00001000
00010000
,
00000000
00000000
00010000
00000000
00000100
00000000
00001000
00000000
00000010
00000100
00000010
00000100
00000001
00000000
00000000
00000000
,
00000001
00000000
00000100
00001000
00000100
00000000
00000001
00000000
00000010
00000000
00000100
00001000
00000100
00000000
00010000
00000000
,
00001000
00000000
00000000
00011000
00000000
00000000
00001000
00000000
01000000
00000000
01010000
00000000
,
00010000
00100000
01100000
10000000
01000000
00010000
,
00001000
00000000
00000000
00000000
00011000
00000000
00000000
00000000
00010000
00000000
00100000
10000000
00100000
00000000
00000000
00000000
,
10000000
00000000
01000000
00010000
01000000
00000000
10000000
00000000
00100000
00000000
01000000
00010000
01000000
00000000
00001000
00000000
,
00010000
00000000
00000000
00011000
00000000
00000000
00010000
00000000
00000100
00000000
00001100
00000000
,
00001000
00000010
00000110
00000001
00000100
00001000
,
00010000
00000000
00000000
00000000
00011000
00000000
00000000
00000000
00001000
00000000
00000010
00000001
00000010
00000000
00000000
00000000
,
00000001
00000000
00000100
00000000
00000010
00001000
00000010
00000000
00000100
00000000
00001000
00010000
00000000
00010000
00001000
00000000
,
00100000
00000000
00010000
00000000
01000000
00100000
01000000
00000000
00010000
00000000
10000000
01000000
00000000
01000000
10000000
00000000
,
00100000
00010000
00001000
00000000
00000100
00000001
00000010
00000110
,
00000000
00000000
00000010
00000000
00000001
00000100
00000001
00000000
00001000
00000000
00000100
00000000
00000110
00000000
00000000
00000000
,
00000001
00000100
00000110
00000010
00001000
00000010
00010000
00001000
,
00100000
00010000
01010000
01000000
00100000
10000000
01000000
10000000
,
00100000
00000000
01000000
00010000
01000000
00000000
00000000
00000000
00100000
10000000
01000000
00000000
00100000
00000000
01100000
00000000
,
00000000
00000000
00100000
00000000
00001000
00010000
00001000
00000000
00011000
00000000
00010000
00000100
00010000
00000000
00000000
00000000
,
00001000
00000000
00000010
00000000
00000100
00001000
00000100
00000000
00000010
00000000
00000001
00001000
00000000
00001000
00000010
00000000
,
00000100
00000000
00001000
00000000
00010000
00001000
00010000
00000000
01000000
00000000
00100000
00010000
00000000
00010000
10000000
00000000
,
00100000
01000000
10000000
00000000
01000000
00010000
00100000
00101000
,
00000000
00000000
00001000
00000000
00010000
00000010
00010000
00000000
00000100
00000000
00001000
00000000
00001010
00000000
00000000
00000000
,
00000001
00000000
00000100
00000000
00000010
00000000
00001000
00000000
00010000
00000000
01000000
00000000
00100000
10000000
00100000
10000000
,
00100000
20020000
00000000
00000000
,
30030000
00000000
00000000
00000000
,
10000000
00000000
01000000
10000000
00100000
00000000
01000000
00010000
,
00100000
00000000
00000000
10010000
00000000
00000000
10000000
01000000
10000000
00100000
01000000
00010000
,
00100000
00001000
00010000
00000100
00001000
00000010
00000100
00000001
00000010
00000100
00001000
00000010
,
00000100
00000000
00000110
00000000
00000001
00000100
00001000
00000100
,
00000001
00000000
00000100
00000001
00000010
00000000
00000100
00001000
,
00000010
00000000
00000000
00001001
00000000
00000000
00000001
00000100
00000001
00000010
00000100
00001000
,
00000010
00010000
00001000
01000000
00010000
00100000
01000000
10000000
00100000
01000000
00010000
00100000
,
01000000
00000000
01100000
00000000
10000000
01000000
00010000
00001000
,
00000000
00011000
00000000
00000220
00000000
00000000
00000330
00000000
,
00000000
00000000
00000000
00000000
;
