
//----- song ID: glfl -----//
#TITLE:Glitter Flatter Scatter;
#ARTIST:Project B-;
#BANNER:Glitter Flatter Scatter.png;
#BACKGROUND:Glitter Flatter Scatter-bg.png;
#CDTITLE:./CDTitles/jb Qubell.png;
#MUSIC:Glitter Flatter Scatter.ogg;
#SAMPLESTART:81.625;
#SAMPLELENGTH:15;
#DISPLAYBPM:98:197;
#BPMS:0=98.5,20=197,174=98.5,206=197,331=98.5,332=197;
#STOPS:48=0.102,48.333=0.102,48.666=0.102,49=0.102,49.333=0.102,49.666=0.102,114.5=0.152,115.5=0.152,116.5=0.152,117.5=0.152,136.5=0.152,137.5=0.152,138.5=0.152,139.5=0.152,158.5=0.152,159.5=0.152,160.5=0.152,161.5=0.152,162.5=0.152,163.5=0.152,164.5=0.152,165.5=0.152,298=0.102,298.333=0.102,298.666=0.102,299=0.102,299.333=0.102,299.666=0.102;
#STAGE:14;
#NOTES:
     dance-single:
     :
     Beginner:
     6:
     :
0000
0000
0000
0000
,
0000
0000
0000
0000
,
0000
0000
0000
0000
,
0000
0000
0000
0000
,
0000
0000
0000
0000
,
1000
0000
1000
0000
,
0100
0100
1000
0000
,
0010
0000
0100
0000
,
0010
0000
0000
0000
,
0100
0000
0100
0000
,
1000
1000
0100
0000
,
0001
0000
0001
0000
,
1001
0000
0000
0000
,
0001
0000
0010
0010
,
0001
0000
0100
0000
,
0010
0000
0100
0000
,
0000
0000
0001
0000
,
0010
0000
0001
0001
,
0100
0000
1000
0000
,
1000
0000
0100
0000
,
0000
0000
1000
0000
,
0100
0000
1000
0010
,
1000
0000
0100
0000
,
0010
0000
0001
0000
,
0000
0000
0001
0000
,
0100
0000
0001
0010
,
0001
0000
0100
0000
,
0010
0000
1000
0000
,
0000
0000
1001
0000
,
0000
0000
0000
0000
,
1000
1000
0100
0000
,
0010
0010
1000
0000
,
1000
0010
1000
0000
,
1001
0000
0000
0000
,
0220
0000
0000
0000
,
0330
0000
0001
0001
,
0100
0000
0010
0010
,
0001
0000
0001
0010
,
0001
0000
1001
0000
,
0000
0000
2002
0000
,
0000
0000
0000
0000
,
0000
0000
3003
0000
,
0000
0000
1001
0000
,
0000
0000
1000
0000
,
1000
0000
0100
0000
,
0000
0000
0001
0000
,
0001
0000
0100
0000
,
0000
0000
1000
1000
,
0010
0000
0100
0100
,
0001
0000
0001
0001
,
0010
0000
0100
0100
,
1000
0000
1000
1000
,
0100
0000
0010
1000
,
0010
0000
1000
0100
,
0010
0000
0001
0000
,
0000
0000
0001
0001
,
0100
0000
0010
0001
,
0010
0000
0001
0010
,
0100
0000
1000
0000
,
0000
0000
1000
1000
,
0100
1000
0100
0000
,
0000
0000
1001
0000
,
0000
0000
0000
0000
,
0000
0000
0001
0001
,
0010
0001
0010
0000
,
0000
0000
1001
0000
,
0000
0000
0000
0000
,
0000
0000
0001
0001
,
0010
0000
0010
0010
,
1000
0000
1001
0000
,
0000
0000
0110
0000
,
0000
0000
1000
1000
,
0100
0000
0100
0100
,
0001
0000
1001
0000
,
0000
0000
0110
0000
,
0000
0000
0000
0000
,
0001
0001
0100
0000
,
0001
0010
0001
0010
,
1000
0000
0000
0000
,
1000
0000
0100
0000
,
0010
0010
1000
0000
,
1000
0100
1000
0100
,
0001
0000
0000
0000
,
1001
0000
0000
0000
,
0000
0000
0000
0000
;
#NOTES:
     dance-single:
     :
     Easy:
     9:
     :
0000
0000
0000
0000
,
0000
0000
0000
0000
,
0000
0000
0000
0000
,
0000
0000
0000
0000
,
0000
0000
0000
0000
,
0001
0001
0100
0100
,
0010
1000
0010
0000
,
1000
1000
0100
0100
,
0010
0001
0010
0000
,
0001
0100
0001
0010
,
0100
1000
0001
0000
,
1000
0100
0010
0001
,
0020
0000
0030
0010
,
0010
0000
0001
1000
,
0001
0000
0100
0100
,
0100
0000
1000
0001
,
1000
0000
1000
0100
,
0010
0001
0100
0010
,
1000
0000
0001
0010
,
0100
1000
0010
0100
,
0001
0000
0001
0100
,
0001
0100
0010
0010
,
0010
0000
1000
0100
,
1000
0100
0010
0010
,
0010
0000
0001
0100
,
0101
0000
1000
0100
,
1100
0000
0010
0100
,
0010
0100
0010
0010
,
0110
0000
2002
0000
,
0000
0000
3003
0000
,
1000
0100
1000
0010
,
1000
0000
0100
0000
0010
0100
0010
0000
,
0001
0100
1000
0100
,
0001
1000
0001
1000
0001
0000
0000
0000
,
2002
0000
0000
0000
,
3003
0000
0001
0010
,
0001
0100
0001
0010
,
0100
0010
0100
0000
1000
0000
0010
0000
,
0001
0000
0010
0000
1000
0001
1000
0001
,
1000
0000
0220
0000
,
0000
0000
0000
0330
2002
0000
0000
0000
,
0000
0000
0000
3003
1001
0000
0000
0000
,
0000
0000
0110
0000
,
0000
0000
0001
0100
,
0001
0100
0001
0000
1000
0000
0010
0000
,
1000
0010
1000
0000
0100
0000
1000
0000
,
0100
1000
0100
0000
0010
0000
0001
0000
,
0010
0001
0010
0000
0001
0100
0010
0000
,
1000
0010
0100
0000
0001
0010
0001
0010
,
0001
0000
0001
0000
1000
0010
0100
0000
,
0001
0100
0010
0000
1000
0100
1000
0100
,
1000
1000
0001
0010
,
0100
0010
0001
0010
,
0100
0000
1000
0010
,
0100
0010
1000
0010
,
0100
0000
0001
0100
,
0010
0100
0001
0100
,
0010
0000
1000
0100
,
0010
0100
1000
0100
,
0010
0000
0001
0010
,
0001
0010
1000
0010
,
0001
0000
1000
0010
,
1000
0010
0001
0010
,
1000
0000
0001
0100
,
0001
0100
1000
0100
,
0001
0000
1000
0100
,
1000
0100
0001
0100
,
1000
0000
0001
1000
,
0100
0010
0001
0100
,
0001
1000
0001
0000
0010
0000
0010
0000
,
0100
0000
0100
0000
1000
0001
1000
0000
,
0001
0000
1000
0001
,
0010
0100
1000
0010
,
1000
0001
1000
0000
0100
0000
0100
0000
,
0010
0010
2002
0000
,
3003
1001
1000
0010
,
0100
0000
0001
0000
0010
0100
0010
0000
,
0001
1000
0100
0010
,
0001
1000
0001
0000
1000
0000
0000
0000
,
0001
0001
0100
0010
,
1000
0000
0001
0000
0010
0100
0010
0000
,
0001
0000
1000
0000
0100
1000
0010
0000
,
0100
0001
0100
0001
0010
0000
0110
0000
,
1001
0000
0000
0000
,
0000
0000
0000
0000
;
#NOTES:
     dance-single:
     :
     Medium:
     14:
     :
0000
0000
0000
0000
,
0000
0000
0000
0000
,
0000
0000
0000
0000
,
0000
0000
0000
0000
,
0000
0000
0000
0000
,
1001
0000
1000
0100
0000
0010
0001
0000
,
0011
0000
0101
0000
1001
0000
1000
0001
,
1000
0000
0001
0010
0000
0100
1000
0000
,
1100
0000
1001
0000
0001
0010
1000
0010
,
0001
0000
1000
0100
0000
0010
0100
0000
,
1100
0000
0101
0000
1001
0000
1000
0010
,
1000
0000
0001
0100
0000
0010
1000
0000
,
0001
0000
1000
0000
0001
0000
1000
0000
0001
0000
1000
0000
0001
0000
0000
0000
0000
0000
0100
0000
0000
0010
0000
0000
,
0000
0100
0010
0000
1000
0010
0100
0001
,
0100
0001
0010
0000
0001
0000
0010
0100
,
0000
0010
0100
0000
1000
0100
1000
0001
,
0010
0001
0100
0000
0001
0000
1000
0010
,
0000
1000
0100
0000
0010
0001
0100
0001
,
0010
0001
1000
0000
0001
0000
0100
0010
,
0000
0100
0010
0000
1000
0100
1000
0010
,
1000
0001
1000
0000
0001
0000
0100
1000
,
0000
0100
0001
0000
0101
0000
0011
0000
,
1001
0000
0000
0000
0001
1000
0001
1000
0001
0000
0000
0000
1000
0000
0100
0000
,
0000
0001
0100
0000
1100
0000
1010
0000
,
1001
0000
0000
0000
1000
0001
1000
0001
1000
0000
0000
0000
0001
0000
0100
0000
,
0000
0010
1000
0000
1010
0000
0101
0000
,
0110
0000
0000
0000
0001
1000
0001
1000
0001
0000
0000
0000
1000
0000
0010
0000
,
0000
1000
0100
0000
0010
0001
0100
0010
,
1000
0001
1000
0000
0001
0001
1000
1000
,
0010
0010
0100
0100
0220
0000
0330
0000
,
1000
0000
0001
1000
0000
0001
1000
0000
,
0001
0000
0010
0000
0000
0000
0100
0000
1000
0000
0001
1000
0001
0000
0000
0000
,
1000
0000
0001
0010
0000
0001
0100
0000
,
0001
0000
0100
0001
0100
0000
0010
0000
1000
0000
0100
1000
0100
0000
0000
0000
,
1000
1000
0100
0100
0010
0010
0001
0001
,
2002
0000
3003
0000
0001
0000
0100
0010
,
0000
0100
0010
0000
1000
0010
0000
0100
,
0001
0010
0001
1000
0100
0000
1000
0010
,
0000
1000
0010
0000
0100
0001
0100
0010
,
1000
0010
1000
0000
1000
1000
0001
0001
,
0010
0010
0100
0100
1000
1010
0001
0011
,
1000
1100
0001
0101
2002
0000
0000
0000
,
0000
0000
0000
0000
,
0000
0000
0000
0000
0000
0000
0000
0000
3003
0000
0000
0000
0000
0000
0000
0000
0001
0000
0000
0100
0000
0000
0001
0000
0000
0100
0000
0000
0001
0000
0000
0000
,
1000
0000
0000
0010
0000
0000
1000
0000
0000
0010
0000
0000
1000
0000
0000
0000
0001
0000
0000
1000
0000
0000
0001
0000
0000
1000
0000
0000
0001
0000
0000
1000
,
0000
0000
0100
0000
0000
0010
0000
0000
0100
0000
0000
0010
0000
0000
0100
0000
1000
0000
0000
0100
0000
0000
1000
0000
0000
0100
0000
0000
1000
0000
0000
0000
,
0001
0000
0000
0010
0000
0000
0001
0000
0000
0010
0000
0000
0001
0000
0000
0000
1000
0000
0000
0001
0000
0000
1000
0000
0000
0001
0000
0000
1000
0000
0000
0001
,
0000
0000
0010
0000
0000
0100
0000
0000
0010
0000
0000
0000
0000
0000
0000
0000
0001
0000
0000
0100
0000
0000
0010
0000
0000
1000
0000
0000
0010
0000
0000
0000
,
1000
0000
0000
0100
0000
0000
0010
0000
0000
0001
0000
0000
0010
0000
0000
0000
0001
0000
0000
1000
0000
0000
0100
0000
0000
0010
0000
0000
0001
0000
0000
0100
,
0000
0000
0010
0000
0000
1000
0000
0000
0001
0000
0000
1000
0000
0000
0001
0000
1000
0000
0000
0100
0000
0000
1000
0000
0000
0010
0000
0000
0100
0000
0000
0000
,
0001
0000
0000
0010
0000
0000
0001
0000
0000
0100
0000
0000
0010
0000
0000
0000
1000
0000
0000
0001
0000
0000
0010
0000
0000
1000
0000
0000
0010
0000
0000
0001
,
0000
0000
1000
0000
0000
0100
0000
0000
0010
0000
0000
0000
0000
0000
0000
0000
0001
0000
0000
0000
0010
0000
0001
0000
0000
0000
0010
0000
0001
0000
0000
0000
,
0100
0001
0000
0100
0001
0000
0000
0000
1000
0000
0010
1000
0000
0010
1000
0000
,
0100
1000
0000
0100
1000
0000
0000
0000
0001
0000
0000
1001
0000
0000
1000
0000
,
0000
1010
0000
0000
0010
0000
0000
0110
0000
0000
0101
0000
0000
0001
0000
0000
,
2002
0000
0000
0000
3003
0000
0000
0000
1000
0000
0100
1000
0000
0100
1000
0000
,
0010
1000
0000
0010
1000
0000
0000
0000
0001
0000
0100
0001
0000
0100
0001
0000
,
0010
0001
0000
0010
0001
0000
0000
0000
1000
0000
0000
1001
0000
0000
0001
0000
,
0000
0101
0000
0000
0100
0000
0000
0110
0000
0000
1010
0000
0000
1000
0000
0000
,
2002
0000
0000
0000
3003
0000
0000
0000
1000
0000
0001
0010
0000
0100
0010
0000
,
0001
0010
0000
0100
0010
0000
0000
0000
0001
0000
1000
0010
0000
0100
0010
0000
,
1000
0010
0000
0100
0010
0000
0000
0000
1000
0000
0000
1100
0000
0000
0001
0000
,
0000
0101
0000
0000
1000
0000
0000
1010
0000
0000
0001
0000
0000
0011
0000
0000
,
0220
0000
0000
0000
0330
0000
0000
0000
0001
0000
1000
0100
0000
0010
0100
0000
,
1000
0100
0000
0010
0100
0000
0000
0000
1000
0000
0001
0100
0000
0010
0100
0000
,
0001
0100
0000
0010
0100
0000
0000
0000
0001
0000
0000
0011
0000
0000
1000
0000
,
0000
1010
0000
0000
0001
0000
0000
0101
0000
0000
1000
0000
0000
1100
0000
0000
,
0220
0000
0330
0000
0001
0010
0100
1000
,
0000
0001
1000
0000
0001
0100
0001
0010
,
0001
1000
0001
1000
0001
0000
0000
0000
1000
0000
0100
0000
0010
0000
0001
0000
,
0000
1000
0001
0000
1000
0100
1000
0010
,
1000
0001
1000
0001
1000
0000
0000
0000
0001
0000
0010
0000
0100
0000
0010
0000
,
0100
1000
0010
0100
0110
0000
1001
0000
,
0110
0000
0000
0000
1000
0001
1000
0001
1000
0000
0000
0000
0001
0000
0100
0000
,
0000
0000
0000
0010
0000
0000
1000
0000
0000
0000
0000
0000
0001
0000
0100
0000
0100
0000
0010
0000
1000
0000
1000
0000
,
0001
0100
0010
0100
0001
0010
0100
0000
,
1100
0000
0000
0000
1001
0000
0000
0000
0011
0000
0000
0000
0010
0001
0010
0001
,
0010
0001
1000
0010
1000
0100
1000
0000
,
1010
0000
0000
0000
0110
0000
0000
0000
0101
0000
0000
0000
0001
0100
0001
0100
,
0001
1000
0100
0010
0001
0100
1000
0100
,
0001
0010
0100
1000
0010
0001
0010
1000
,
0001
0100
0010
1000
0100
0010
1000
0010
,
0001
0000
1000
0000
0100
0000
0010
0000
0001
1000
0001
1000
0002
0000
0003
0000
,
1001
0000
0000
0000
,
0000
0000
0000
0000
;
#NOTES:
     dance-single:
     :
     Hard:
     17:
     :
0000
0000
0000
0000
,
0000
0000
0000
0000
,
0000
0000
0000
0000
,
0000
0000
0000
0000
,
0000
0000
0000
0000
,
1001
0000
1000
0100
0010
0100
1000
0000
,
0001
0000
0010
0000
0100
0000
0010
0000
0001
0000
0100
0000
0001
1000
0001
1000
,
0001
0000
1000
0010
0100
0010
1000
0000
,
0001
0000
0100
0000
0010
0000
0100
0000
0001
0100
0001
0100
0010
1000
0010
1000
,
0010
0000
1000
0001
0010
0100
1000
0000
,
0001
0000
0100
0000
0010
0000
1000
0000
0010
0000
0100
0000
0001
1000
0001
1000
,
0001
0000
1000
0100
0010
0001
0100
0010
,
1000
0000
1000
0000
1000
0000
0001
0000
0001
0000
0001
0000
1001
0000
0000
0000
0000
0000
1000
0000
0000
0001
0000
0000
,
0100
0000
0001
0000
1000
0000
0000
0000
0001
0000
0010
0001
0010
0000
0100
0010
,
0100
0000
1000
0001
1000
0000
0000
0000
1001
0000
0000
0000
0001
0000
1000
0000
,
0010
0000
1000
0000
0001
0000
0000
0000
1000
0000
0010
1000
0010
0000
0100
0010
,
0100
0000
0001
0100
0001
1000
0001
1000
0001
0000
0000
0000
1000
0000
0010
0000
,
1000
0000
0100
0000
1000
0000
0000
0000
0001
0000
0010
0001
0010
0000
0100
1000
,
0100
0000
0010
0100
0010
0000
0000
0000
0001
0000
1000
0000
0010
0000
0100
0000
,
0010
0000
1000
0000
0001
0000
0000
0000
1000
0000
0001
0100
0001
0000
1000
0010
,
1000
0000
0010
0100
0010
1000
0010
1000
0010
0000
0000
0000
1000
0000
0001
0000
,
0100
0000
1000
0000
0100
0000
0000
0000
0001
0000
1000
0010
0100
0000
0010
0100
,
0001
0000
1000
0100
1000
0001
1000
0001
1000
0000
0000
0000
0001
0000
1000
0000
,
0010
0000
0001
0000
0010
0000
0000
0000
1000
0000
0001
0100
0010
0000
0100
0010
,
1000
0000
0010
1000
0001
1000
0001
1000
0001
0000
0000
0000
1000
0000
0100
0000
,
0001
0000
0100
0000
1000
0000
0000
0000
0001
0000
1000
0001
0100
0000
0001
1000
,
0100
0000
0010
0001
1000
0010
1000
0010
1000
0000
0000
0000
0001
0000
0100
0000
,
1000
0000
0100
0000
0001
0000
0000
0000
1000
0000
0001
1000
0010
0000
1000
0001
,
0010
0000
0100
1000
0001
0100
0001
0100
0001
0000
0101
0000
1000
0000
1100
0000
,
0001
0011
1000
1010
2002
0000
3003
0000
,
0001
0000
0100
1000
0000
0100
0001
0000
,
1000
0000
0100
0000
0000
0000
0001
0000
0100
0000
0010
0001
0100
0000
0010
1000
,
0100
0000
0000
0000
1000
0000
0010
0000
0000
0000
0100
0000
0001
1000
0010
0100
,
0001
0000
1000
0100
0010
0000
0001
0100
0010
0000
1000
0100
0010
0000
0000
0000
,
0001
0101
0100
0110
1000
1100
0100
0110
,
2002
0000
3003
0000
1000
0000
0010
0001
,
0000
0010
1000
0000
0001
0010
0000
1000
,
0010
0000
0100
1000
0010
0000
0100
0001
0010
0000
0000
0000
0001
0000
0100
0000
,
0000
0000
0010
0000
1000
0001
0100
0010
1000
0000
0001
0010
0100
0000
1000
0010
,
0100
0000
0001
0010
0100
0000
0000
0000
1000
0000
1010
0000
0001
0100
0010
0000
,
0001
0000
0011
0000
1000
0100
0010
0000
0001
0000
1001
0000
0100
0001
1000
0000
,
0100
0000
0110
0000
1000
0001
0100
0000
0220
0000
0000
0000
0000
0000
0000
0000
,
0000
0000
0000
0000
,
0000
0000
0000
0000
0000
0000
0000
0000
0330
0000
0000
0000
0000
0000
0000
0000
0001
0000
0000
0001
0000
0000
0010
0000
0000
0001
0000
0000
0001
0000
0000
0000
,
1000
0000
0000
1000
0000
0000
0010
0000
0000
1000
0000
0000
1000
0000
0000
0000
0001
0000
0000
0001
0000
0000
0100
0000
0000
0100
0000
0000
0010
0000
0000
0010
,
0000
0000
1000
0000
0000
1000
0000
0000
0001
0000
0000
1000
0000
0000
0001
0000
1000
0000
0000
1000
0000
0000
0100
0000
0000
1000
0000
0000
1000
0000
0000
0000
,
0001
0000
0000
0001
0000
0000
0100
0000
0000
0001
0000
0000
0001
0000
0000
0000
1000
0000
0000
1000
0000
0000
0010
0000
0000
0010
0000
0000
0100
0000
0000
0100
,
0000
0000
0001
0000
0000
0001
0000
0000
2000
0000
0000
0000
3000
0000
0000
0000
1002
0000
0000
1000
0000
0000
0100
0000
0000
0100
0000
0000
1003
0000
0000
0000
,
0120
0000
0000
0100
0030
0000
1000
0000
0200
1000
0000
0000
1300
0000
0000
0000
0012
0000
0000
0010
0003
0000
0100
0000
0020
0100
0000
0000
1030
0000
0000
1000
,
0002
0000
0010
0000
0003
0010
0000
0000
1200
0000
0000
1000
0300
0000
0010
0000
2001
0000
0000
0001
3000
0000
0010
0000
0200
0010
0000
0000
0301
0000
0000
0000
,
0021
0000
0000
0001
0030
0000
0100
0000
2000
0100
0000
0000
0001
0000
0000
0000
0010
0000
0000
0010
0000
0000
0001
0000
0000
0001
0000
0000
0100
0000
0000
0100
,
0000
0000
0010
0000
0000
0010
0000
0000
3100
0000
0000
0000
0000
0000
0000
0000
1000
0000
0000
0000
0001
0000
0100
0000
0000
0000
0001
0000
0100
0000
0000
0000
,
0010
1000
0000
0010
1000
0001
1000
0001
1000
0000
0001
0010
0000
0001
0010
0000
,
0100
1000
0000
0100
1000
0001
1000
0001
1000
0000
0001
0100
0000
0010
0100
0000
,
0001
0010
0000
0100
0010
0000
0001
1000
0000
0010
1000
0000
0100
0010
0000
0001
,
2000
0000
0000
0000
3000
0000
0000
0000
0001
0000
1000
0010
0000
1000
0010
0000
,
0100
0001
0000
0100
0001
1000
0001
1000
0001
0000
1000
0100
0000
1000
0100
0000
,
0010
0001
0000
0010
0001
1000
0001
1000
0001
0000
1000
0010
0000
0100
0010
0000
,
1000
0100
0000
0010
0100
0000
1000
0001
0000
0100
0001
0000
0010
0100
0000
1000
,
0002
0000
0000
0000
0003
0000
0000
0000
0001
0000
0100
1000
0000
0100
0010
0000
,
0100
0001
0000
1000
0001
0000
0000
0000
1000
0000
0100
0001
0000
0100
0010
0000
,
0100
1000
0000
0001
1000
0000
0000
0000
0001
0000
0100
0010
0000
0010
1000
0000
,
1000
0100
0000
0100
0010
0000
0010
0001
0000
0001
0100
0000
0100
1000
0000
1000
,
0001
1000
0001
1000
0001
0000
0000
0000
1000
0000
0100
0001
0000
0100
0010
0000
,
0100
1000
0000
0001
1000
0000
0000
0000
0001
0000
0100
1000
0000
0100
0010
0000
,
0100
0001
0000
1000
0001
0000
0000
0000
1000
0000
0100
0010
0000
0010
0001
0000
,
0001
0100
0000
0100
0010
0000
0010
1000
0000
1000
0100
0000
0100
0001
0000
0001
,
1000
0001
1000
0001
1000
0000
0000
0000
0001
0000
1000
0100
0010
0000
0001
0000
,
0100
0001
1000
0000
0100
0000
0000
0000
1000
0000
0001
0010
0001
0000
1000
0010
,
1000
0000
0001
0100
0010
0000
0000
0000
1000
0000
0001
0010
0100
0000
1000
0000
,
0010
1000
0001
0000
0010
0000
0000
0000
0001
0000
1000
0100
1000
0000
0001
0100
,
0001
0000
1000
0001
0000
0001
1000
0000
0001
0000
0100
0010
0100
0000
0001
0000
,
1000
0100
0010
0000
0001
0000
0010
0100
1000
0000
0001
0010
0100
0000
0010
0100
,
1000
0000
0001
1000
0001
1000
0001
0000
0100
0000
0010
1000
0001
0000
0010
0000
,
0001
0000
0000
1000
0000
0000
0010
0000
0000
0000
0000
0000
0100
0000
0000
0000
0000
0000
0001
0000
0000
1000
0000
0000
0001
0000
0000
0000
0100
0000
0000
0000
0001
0000
0000
0000
1000
0000
0000
0000
0100
0000
0000
0000
1000
0000
0000
0000
,
0001
0000
0100
0010
1000
0000
0001
0000
1000
0100
0010
0000
0001
0000
0000
0000
,
1000
0000
0100
0010
0100
0000
1000
0001
1000
0000
0001
0100
0010
0100
0001
0000
,
1000
0000
0001
0100
0010
0000
1000
0000
0100
0010
0001
0000
1000
0000
0000
0000
,
0001
0000
0010
0100
0010
0000
0001
1000
0001
0000
1000
0010
0000
0010
1000
0000
,
0001
0000
0100
0010
0100
0000
0001
0000
1000
0001
1000
0000
0100
0000
0010
0001
,
0100
0000
0001
0100
0001
0000
0100
0010
0100
0000
0010
1000
0010
0000
0000
0000
,
1000
0100
0010
0001
1000
0100
0001
0100
,
1000
0100
1000
0100
0010
0001
0010
0001
1000
0001
0100
0001
2000
0000
3000
0000
,
1001
0000
0000
0000
,
0000
0000
0000
0000
;
#NOTES:
     dance-double:
     :
     Easy:
     9:
     :
00000000
00000000
00000000
00000000
,
00000000
00000000
00000000
00000000
,
00000000
00000000
00000000
00000000
,
00000000
00000000
00000000
00000000
,
00000000
00000000
00000000
00000000
,
00001000
00001000
00010000
00010000
,
00000010
00001000
00000010
00000000
,
00000100
00000100
00000001
00000001
,
00000010
00000100
00000010
00000000
,
00000001
00001000
00000100
00001000
,
00000100
00010000
00001000
00000000
,
00010000
00001000
01000000
00010000
,
00200000
00000000
00300000
00100000
,
00100000
00000000
00010000
10000000
,
00010000
00000000
01000000
01000000
,
01000000
00000000
00010000
00100000
,
00010000
00000000
00100000
00001000
,
00100000
00001000
00010000
00001000
,
00010000
00000000
00001000
00010000
,
00000010
00001000
00000100
00000010
,
00000001
00000000
00000001
00000100
,
00000001
00001000
00000100
00000100
,
00000100
00000000
00001000
00000100
,
00010000
00001000
00010000
00010000
,
00010000
00000000
00001000
00100000
,
00010000
00100000
01000000
01000000
,
01000000
00000000
10000000
00100000
,
10000000
00100000
01000000
00010000
,
10000000
00000000
20020000
00000000
,
00000000
00000000
30030000
00000000
,
10000000
00010000
00100000
00010000
,
00100000
00000000
00001000
00000000
00010000
00001000
00010000
00000000
,
00001000
00000010
00000100
00001000
,
00000010
00000100
00000010
00000000
00000100
00000000
00000000
00000000
,
00002002
00000000
00000000
00000000
,
00003003
00000000
00000001
00001000
,
00000010
00001000
00000010
00010000
,
00001000
00010000
00001000
00000000
00010000
00000000
00100000
00000000
,
01000000
00000000
00010000
00000000
00100000
01000000
00100000
00000000
,
01000000
00000000
02200000
00000000
,
00000000
00000000
00000000
03300000
00022000
00000000
00000000
00000000
,
00000000
00000000
00000000
00033000
00011000
00000000
00000000
00000000
,
00000000
00000000
00000000
00000000
,
00000000
00000000
00010000
00001000
,
00000010
00000001
00000010
00000000
00000001
00000000
00001000
00000000
,
00000100
00001000
00000100
00000000
00010000
00000000
00001000
00000000
,
01000000
00010000
01000000
00000000
00100000
00000000
10000000
00000000
,
00010000
10000000
00010000
00000000
10000000
01000000
10000000
01000000
,
00100000
00010000
00100000
00000000
00001000
00010000
00001000
00010000
,
00000010
00001000
00000010
00000000
00000100
00000001
00000100
00000001
,
00000010
00000001
00000010
00000000
00000100
00001000
00000100
00001000
,
00000100
00010000
00001000
00000000
00010000
00000000
00001000
00000000
,
00010000
01000000
10000000
01000000
,
00100000
00010000
10000000
01000000
,
10000000
01000000
00100000
00000000
,
10010000
00000000
10000000
01000000
,
10000000
01000000
00100000
00001000
,
00010000
00001000
00000010
00000100
,
00001000
00000100
00000010
00000000
,
00001001
00000000
00000001
00000100
,
00000001
00000010
00000100
00001000
,
00000010
00001000
00000100
00010000
,
00001000
00010000
00001000
00000000
,
00011000
00000000
00001000
00010000
,
01000000
00100000
00010000
00100000
,
01000000
10000000
00100000
01000000
,
00100000
00010000
00001000
00000000
,
00011000
00000000
00001000
00010000
,
00000100
00001000
00000100
00000000
00000010
00000000
00000001
00000000
,
00000100
00000001
00000010
00000100
,
00010000
00001000
00010000
00000000
00001000
00000000
00100000
00000000
,
00010000
01000000
00100000
10000000
,
00010000
01000000
00010000
00000000
00100000
00000000
01000000
00000000
,
10000000
01000000
10000000
00000000
01000000
00000000
00100000
00000000
,
00001000
00010000
00022000
00000000
,
00033000
00000000
00001000
00000000
00100000
00010000
00100000
00000000
,
01000000
10000000
00100000
10000000
,
01000000
00000000
00100000
00000000
00001000
00010000
00001000
00000000
,
00010000
00000100
00001000
00000010
,
00000100
00000000
00000001
00000000
00001000
00000010
00001000
00000000
,
00000100
00000000
00000010
00000000
00000001
00000010
00000001
00000000
,
00000010
00000100
00010000
00001000
,
00010000
00001000
01000000
00010000
01000000
00000000
01100000
00000000
,
10010000
00000000
00000000
00000000
,
00000000
00000000
00000000
00000000
;
#NOTES:
     dance-double:
     :
     Medium:
     14:
     :
00000000
00000000
00000000
00000000
,
00000000
00000000
00000000
00000000
,
00000000
00000000
00000000
00000000
,
00000000
00000000
00000000
00000000
,
00000000
00000000
00000000
00000000
,
00011000
00000000
00001000
00100000
00000000
00010000
00100000
00000000
,
00010000
01000000
00100000
00000000
10010000
00000000
00000000
00000000
,
10000000
00000000
01000000
00100000
00000000
00010000
00100000
00000000
,
00001000
00010000
00001000
00000000
00011000
00000000
00000000
00000000
,
00010000
00000000
00000010
00001000
00000000
00000010
00000100
00000000
,
00000001
00000010
00000100
00000000
00000110
00000000
00000000
00000000
,
00000001
00000100
00000010
00000000
00001000
00000100
00001000
00000000
,
00000100
00000000
00010000
00000000
00001000
00000000
00010000
00000000
00001000
00000000
01000000
00000000
00010000
00000000
00000000
00000000
00000000
00000000
00100000
00000000
00000000
00010000
00000000
00000000
,
00000000
00100000
00010000
00000000
10000000
00100000
01000000
00010000
,
01000000
00100000
10000000
00000000
01000000
00000000
00100000
00001000
,
00000000
00010000
00001000
00000000
00010000
00000100
00001000
00000010
,
00000100
00000010
00001000
00000000
00000001
00000000
00000010
00000100
,
00000000
00001000
00000100
00000000
00000010
00000001
00000100
00000010
,
00001000
00000100
00010000
00000000
00001000
00000000
00010000
01000000
,
00000000
00010000
01000000
00000000
10000000
00100000
10000000
01000000
,
10000000
00010000
10000000
00000000
01000000
00000000
00100000
00001000
,
00000000
00010000
00001000
00000000
00011000
00000000
00010100
00000000
,
00001100
00000000
00000000
00000000
00001000
00000100
00001000
00000100
00001000
00000000
00000000
00000000
00000001
00000000
00000010
00000000
,
00000000
00000001
00000100
00000000
00000110
00000000
00010010
00000000
,
00011000
00000000
00000000
00000000
00001000
00010000
00001000
00010000
00001000
00000000
00000000
00000000
00010000
00000000
00001000
00000000
,
00000000
01000000
00010000
00000000
00110000
00000000
01100000
00000000
,
11000000
00000000
00000000
00000000
10000000
01000000
10000000
01000000
10000000
00000000
00000000
00000000
00100000
00000000
10000000
00000000
,
00000000
01000000
00100000
00000000
00010000
00100000
00001000
00010000
,
00001000
00000010
00000001
00001000
00000001
00000001
00000100
00000100
,
00001000
00001000
00010000
00010000
00022000
00000000
00033000
00000000
,
00001000
00000000
00010000
01000000
00000000
00100000
01000000
00000000
,
10000000
00100000
00010000
00001000
00010000
01000000
10000000
00000000
,
01000000
00000000
00100000
00001000
00000000
00010000
00001000
00000000
,
00010000
00001000
00000010
00000001
00000100
00001000
00010000
00000000
,
00001000
00001000
00000010
00000010
00000001
00000001
00001000
00001000
,
00002002
00000000
00003003
00000000
00000001
00000000
00000100
00001000
,
00000000
00010000
00000010
00000000
00010000
00001000
00010000
00100000
,
01000000
00100000
10000000
00000000
00010000
00000000
10000000
01000000
,
00000000
00100000
00010000
00000000
00100000
00001000
00010000
00001000
,
00000010
00000100
00001000
00000000
00000001
00000001
00000100
00000100
,
00001000
00001000
00010000
00010000
00100000
10100000
01000000
01010000
,
00100000
00101000
00001000
00011000
00022000
00000000
00000000
00000000
,
00000000
00000000
00000000
00000000
,
00000000
00000000
00000000
00000000
00000000
00000000
00000000
00000000
00033000
00000000
00000000
00000000
00000000
00000000
00000000
00000000
00001000
00000000
00000000
00010000
00000000
00000000
00001000
00000000
00000000
00010000
00000000
00000000
00001000
00000000
00000000
00000000
,
00010000
00000000
00000000
00000010
00000000
00000000
00001000
00000000
00000000
00000010
00000000
00000000
00001000
00000000
00000000
00000000
00000001
00000000
00000000
00000100
00000000
00000000
00000001
00000000
00000000
00000100
00000000
00000000
00000010
00000000
00000000
00001000
,
00000000
00000000
00000010
00000000
00000000
00001000
00000000
00000000
00000100
00000000
00000000
00010000
00000000
00000000
00000100
00000000
00010000
00000000
00000000
00001000
00000000
00000000
00010000
00000000
00000000
00001000
00000000
00000000
00010000
00000000
00000000
00000000
,
00001000
00000000
00000000
01000000
00000000
00000000
00001000
00000000
00000000
01000000
00000000
00000000
00001000
00000000
00000000
00000000
00100000
00000000
00000000
00010000
00000000
00000000
00100000
00000000
00000000
00010000
00000000
00000000
00100000
00000000
00000000
01000000
,
00000000
00000000
10000000
00000000
00000000
01000000
00000000
00000000
10000000
00000000
00000000
00000000
00000000
00000000
00000000
00000000
10000000
00000000
00100000
00000000
01000000
00000000
00100000
00000000
10000000
00000000
01000000
00000000
00100000
00000000
00000000
00000000
,
00010000
00100000
00010000
00100000
00001000
00010000
00001000
00000000
00010000
00000100
00001000
00000010
00010000
00000010
00001000
00000100
,
00010000
00000010
00001000
00000100
00000010
00000000
00000000
00000000
00000001
00000100
00000001
00000100
00000010
00001000
00000100
00000000
,
00001000
00000000
00000100
00000000
00001000
00000000
00000100
00000000
00010000
00000000
00001000
00000000
00010000
00000000
00000000
00000000
00001000
00000000
00000000
00010000
00000000
00000000
00100000
00000000
00000000
10000000
00000000
00000000
00100000
00000000
00000000
00010000
,
00000000
00000000
00001000
00000000
00000000
00010000
00000000
00000000
01000000
00000000
00000000
00000000
00000000
00000000
00000000
00000000
10000000
00000000
00000000
00000000
01000000
00000000
00100000
00000000
00000000
00000000
01000000
00000000
00100000
00000000
00000000
00000000
,
00010000
00100000
00000000
00010000
00100000
00000000
00000000
00000000
00001000
00000000
00010000
00001000
00000000
00010000
00001000
00000000
,
00010000
00000010
00000000
00010000
00000010
00000000
00000000
00000000
00001000
00000000
00000000
00001100
00000000
00000000
00000100
00000000
,
00000000
00000110
00000000
00000000
00000010
00000000
00000000
00000011
00000000
00000000
00000101
00000000
00000000
00000100
00000000
00000000
,
00002002
00000000
00000000
00000000
00003003
00000000
00000000
00000000
00000001
00000000
00000100
00000010
00000000
00000100
00000010
00000000
,
00001000
00000010
00000000
00001000
00000010
00000000
00000000
00000000
00010000
00000000
00001000
00010000
00000000
00001000
00010000
00000000
,
00001000
00100000
00000000
00001000
00100000
00000000
00000000
00000000
00010000
00000000
00000000
01010000
00000000
00000000
01000000
00000000
,
00000000
01100000
00000000
00000000
00100000
00000000
00000000
10100000
00000000
00000000
11000000
00000000
00000000
01000000
00000000
00000000
,
20020000
00000000
00000000
00000000
30030000
00000000
00000000
00000000
10000000
00000000
01000000
00100000
00000000
00010000
00100000
00000000
,
00001000
00100000
00000000
00001000
00010000
00000000
00000000
00000000
00000010
00000000
00001000
00000100
00000000
00001000
00000010
00000000
,
00000100
00000010
00000000
00000100
00000001
00000000
00000000
00000000
00000100
00000000
00000000
00000110
00000000
00000000
00000010
00000000
,
00000000
00010010
00000000
00000000
00010000
00000000
00000000
00010100
00000000
00000000
00000100
00000000
00000000
00000110
00000000
00000000
,
00002002
00000000
00000000
00000000
00003003
00000000
00000000
00000000
00000001
00000000
00000010
00000100
00000000
00001000
00000100
00000000
,
00010000
00000100
00000000
00010000
00001000
00000000
00000000
00000000
01000000
00000000
00010000
00100000
00000000
00010000
01000000
00000000
,
00100000
01000000
00000000
00100000
10000000
00000000
00000000
00000000
00100000
00000000
00000000
01100000
00000000
00000000
01000000
00000000
,
00000000
01001000
00000000
00000000
00001000
00000000
00000000
00101000
00000000
00000000
00100000
00000000
00000000
01100000
00000000
00000000
,
20020000
00000000
30030000
00000000
10000000
00100000
00010000
00001000
,
01000000
00100000
00010000
00000000
00001000
00000100
00000001
00001000
,
00000001
00001000
00000001
00001000
00000001
00000000
00000000
00000000
00001000
00000000
00000010
00000000
00000100
00000000
00001000
00000000
,
00010000
00000010
00000100
00000000
00000001
00000010
00001000
00010000
,
00001000
00010000
00001000
00010000
00001000
00000000
00000000
00000000
00010000
00000000
00100000
00000000
10000000
00000000
00010000
00000000
,
00100000
00001000
00010000
00000000
00001000
00000010
00000001
00001000
,
00000010
00000000
00010000
00000000
00001000
00000000
00000000
00000000
00010000
00000000
00100000
01000000
00100000
00000000
00000000
00000000
,
10000000
00000000
00000000
00000000
00000000
00000000
01000000
00000000
00000000
00100000
00000000
00000000
01000000
00000000
00000000
00000000
00000000
00000000
00000000
00000000
00000000
00000000
00000000
00000000
00100000
00000000
00000000
00000000
00001000
00000000
00000000
00000000
00001000
00000000
00000000
00000000
00010000
00000000
00000000
00000000
00000100
00000000
00000000
00000000
00000100
00000000
00000000
00000000
,
00001000
00000001
00000100
00000010
00001000
00000100
00000010
00000000
,
00000001
00000000
00001000
00000000
00000100
00000000
00010000
00000000
00011000
00000000
00000000
00000000
00010000
00001000
00010000
00001000
,
00010000
00000000
00001000
01000000
00010000
00100000
00010000
00000000
,
00100000
00000000
01000000
00000000
10000000
00000000
00100000
00000000
01100000
00000000
00000000
00000000
10000000
00010000
10000000
00010000
,
10000000
00000000
00010000
01000000
00100000
00010000
00100000
00000000
,
10000000
01000000
00100000
00010000
00001000
00000100
00000010
00000000
,
00000001
00000010
00000100
00010000
00001000
00000100
00000010
00010000
,
00001000
00000000
00000100
00000000
00001000
00000000
00010000
00000000
00001000
00010000
00001000
00010000
00002000
00000000
00003000
00000000
,
00011000
00000000
00000000
00000000
,
00000000
00000000
00000000
00000000
;
#NOTES:
     dance-double:
     :
     Hard:
     17:
     :
00000000
00000000
00000000
00000000
,
00000000
00000000
00000000
00000000
,
00000000
00000000
00000000
00000000
,
00000000
00000000
00000000
00000000
,
00000000
00000000
00000000
00000000
,
00011000
00000000
00010000
00001000
00000010
00000001
00000010
00000000
,
00000011
00000000
00000000
00000000
00000101
00000000
00000000
00000000
00001000
00000000
00000010
00000000
00001000
00000001
00001000
00000001
,
00001000
00000000
00000001
00000100
00001000
00010000
00001000
00000000
,
01001000
00000000
00000000
00000000
01010000
00000000
00000000
00000000
00010000
01000000
00010000
01000000
00100000
10000000
00100000
10000000
,
00100000
00000000
10000000
00100000
01000000
00010000
00100000
00000000
,
00110000
00000000
00000000
00000000
00101000
00000000
00000000
00000000
00011000
00000000
00000000
00000000
00010000
00001000
00010000
00001000
,
00010000
00000000
00001000
00010000
00001000
00000100
00000001
00000000
,
00000010
00000000
00000010
00000000
00000010
00000000
00000100
00000000
00000100
00000000
00000100
00000000
00000110
00000000
00000000
00000000
00000000
00000000
00000001
00000000
00000000
00000100
00000000
00000000
,
00000000
00000000
00001000
00000000
00010000
00000000
00000000
00000000
00100000
00000000
01000000
00100000
01000000
00000000
00010000
10000000
,
00010000
00000000
00100000
01000000
00100000
00000000
00010000
00000000
10000000
00000000
00000000
00000000
01000000
00000000
00010000
00000000
,
00000000
00000000
00001000
00000000
00000010
00000000
00000000
00000000
00000001
00000000
00001000
00000001
00001000
00000000
00000010
00000100
,
00000010
00000000
00000100
00000001
00001000
00000001
00001000
00000001
00001000
00000000
00000000
00000000
00000001
00000000
00000010
00000000
,
00000000
00000000
00001000
00000000
00010000
00000000
00000000
00000000
01000000
00000000
10000000
01000000
10000000
00000000
00010000
00100000
,
00010000
00000000
00100000
01000000
00100000
00000000
00000000
00000000
01000000
00000000
10000000
00000000
10000000
00000000
00100000
00000000
,
00010000
00010000
00001000
00000000
00010000
00000100
00001000
00000010
,
00000100
00000001
00000100
00000001
00001000
00000010
00001000
00000010
00001000
00000000
00000000
00000000
00000001
00000000
00000100
00000000
,
00001000
00000000
00010000
00000000
00000010
00000000
00000000
00000000
00000100
00000000
00001000
00010000
00001000
00000000
00010000
00100000
,
00010000
00000000
00100000
10000000
00100000
00000000
10000000
00010000
10000000
00000000
00000000
00000000
10000000
00000000
01000000
00000000
,
00010000
00000000
00001000
00000000
00100000
00000000
00000000
00000000
01000000
00000000
00010000
00001000
00010000
00000000
00001000
00000010
,
00001000
00000000
00000010
00000001
00000010
00000000
00000001
00001000
00000001
00000000
00000000
00000000
00000010
00000000
00001000
00000000
,
00010000
00000000
00001000
00000000
00000100
00000000
00000000
00000000
00000010
00000000
00000100
00000010
00000100
00000000
00001000
00010000
,
00001000
00000000
01000000
00100000
01000000
00000000
00000000
00000000
00100000
00000000
10000000
00000000
00010000
00000000
00010000
00000000
,
00100000
00000000
00001000
00000000
00010000
00000000
00010000
00000000
00000100
00000000
00001000
00000010
00001000
00000000
00000001
00000010
,
00000001
00000000
00001000
00000100
00000010
00000001
00000010
00000000
00000001
00000000
00000101
00000000
00001000
00000000
00001100
00000000
,
00000100
00010100
00010000
00011000
00022000
00000000
00033000
00000000
,
00001000
01000000
00100000
00010000
00100000
01000000
00100000
00000000
,
10000000
00000000
01000000
00000000
00100000
00000000
00010000
00000000
01000000
00000000
00010000
00100000
00010000
00000000
00100000
00001000
,
00100000
00000000
00001000
00010000
00000100
00001000
00000100
00000000
,
00000010
00000000
00000001
00001000
00000100
00000000
00000010
00000001
00001000
00000000
00000100
00000010
00000001
00000000
00000000
00000000
,
00000001
00000101
00001000
00001010
00001000
00011000
01000000
01010000
,
02200000
00000000
03300000
00000000
10000000
00010000
00100000
01000000
,
10000000
00100000
00010000
00000000
00001000
00010000
00001000
00000010
,
00001000
00000000
00010000
00000010
00010000
00000000
00000100
00001000
00000100
00000000
00000000
00000000
00001000
00000000
00000100
00000000
,
00010000
00000000
00001000
00000000
00100000
00000000
00000000
00000000
01000000
00000000
00100000
00010000
10000000
00000000
01000000
00100000
,
00010000
00000000
10000000
01000000
00100000
00000000
00000000
00000000
00010000
00000000
01010000
00000000
00100000
00001000
00010000
00000000
,
00000100
00000000
00001100
00000000
00000010
00000001
00000100
00000000
00000001
00000000
00001001
00000000
00000100
00010000
00001000
00000000
,
00010000
00000000
00011000
00000000
00001000
00100000
01000000
00000000
02200000
00000000
00000000
00000000
00000000
00000000
00000000
00000000
,
00000000
00000000
00000000
00000000
,
00000000
00000000
00000000
00000000
00000000
00000000
00000000
00000000
03300000
00000000
00000000
00000000
00000000
00000000
00000000
00000000
10000000
00000000
00000000
10000000
00000000
00000000
01000000
00000000
00000000
00100000
00000000
00000000
00100000
00000000
00000000
00000000
,
00010000
00000000
00000000
00100000
00000000
00000000
00001000
00000000
00000000
00010000
00000000
00000000
00001000
00000000
00000000
00000000
00010000
00000000
00000000
00010000
00000000
00000000
00000010
00000000
00000000
00000010
00000000
00000000
00001000
00000000
00000000
00001000
,
00000000
00000000
00000100
00000000
00000000
00000100
00000000
00000000
00000010
00000000
00000000
00000001
00000000
00000000
00001000
00000000
00000001
00000000
00000000
00000001
00000000
00000000
00000100
00000000
00000000
00000010
00000000
00000000
00000010
00000000
00000000
00000000
,
00001000
00000000
00000000
00000010
00000000
00000000
00010000
00000000
00000000
00001000
00000000
00000000
00010000
00000000
00000000
00000000
00001000
00000000
00000000
00001000
00000000
00000000
00100000
00000000
00000000
00100000
00000000
00000000
00010000
00000000
00000000
00010000
,
00000000
00000000
01000000
00000000
00000000
01000000
00000000
00000000
00200000
00000000
00000000
00000000
00000000
00000000
00300000
00000000
10000000
00000000
00100000
00000000
01000000
00000000
00010000
00000000
10000000
00000000
01000000
00000000
00100000
00000000
00010000
00000000
,
01000000
00100000
00010000
00001000
00010000
00000100
00001000
00000010
00000100
00000001
00000010
00001000
00000001
00000100
00001000
00000001
,
00000010
00000100
00001000
00000100
00010000
00001000
00010000
00010000
00001000
00100000
00010000
01000000
00100000
10000000
00010000
00100000
,
01000000
00000000
00010000
00000000
00001000
00000000
00000010
00000000
00000100
00000000
00001000
00000000
00000010
00000000
00000100
00000000
00000002
00000000
00000000
00000010
00000000
00000000
00000010
00000000
00000000
00001000
00000000
00000000
00001000
00000000
00000000
00000100
,
00000000
00000000
00000100
00000000
00000000
00000010
00000000
00000000
00000013
00000000
00000000
00000000
00000000
00000000
00000000
00000000
00000001
00000000
00000000
00000000
00000010
00000000
00000100
00000000
00000000
00000000
00000010
00000000
00000100
00000000
00000000
00000000
,
00001000
00000100
00000000
00010000
00000100
00010000
00001000
00010000
00001000
00000000
00100000
00010000
00000000
00100000
00010000
00000000
,
01000000
00100000
00000000
01000000
00100000
10000000
00100000
10000000
00100000
00000000
10000000
01000000
00000000
00100000
00010000
00000000
,
00100000
00001000
00000000
00010000
00000100
00000000
00010000
00000010
00000000
00010000
00000100
00000000
00010000
00001000
00000000
01000000
,
00020000
00000000
00000000
00000000
00030000
00000000
00000000
00000000
10000000
00000000
00100000
01000000
00000000
00100000
01000000
00000000
,
00010000
01000000
00000000
00001000
01000000
00001000
00010000
00001000
00010000
00000000
00000010
00001000
00000000
00000010
00001000
00000000
,
00000100
00000010
00000000
00000100
00000010
00000001
00000010
00000001
00000010
00000000
00000001
00000100
00000000
00000010
00001000
00000000
,
00000010
00010000
00000000
00001000
01000000
00000000
00001000
00100000
00000000
00001000
01000000
00000000
00001000
00010000
00000000
00000100
,
00002000
00000000
00000000
00000000
00003000
00000000
00000000
00000000
00000001
00000000
00000100
00001000
00000000
00001000
00010000
00000000
,
00010000
00100000
00000000
00100000
10000000
00000000
00000000
00000000
00010000
00000000
10000000
01000000
00000000
01000000
00010000
00000000
,
00010000
00001000
00000000
00001000
00000010
00000000
00000000
00000000
00000001
00000000
00000100
00001000
00000000
00010000
00000010
00000000
,
00000100
00001000
00000000
00010000
00000100
00000000
00000010
00001000
00000000
00010000
01000000
00000000
00100000
00001000
00000000
00010000
,
01000000
00000000
10000000
00010000
10000000
00000000
00010000
00000000
10000000
00000000
00100000
00010000
00000000
00010000
00001000
00000000
,
00001000
00000100
00000000
00000100
00000001
00000000
00000000
00000000
00001000
00000000
00000001
00000010
00000000
00000010
00001000
00000000
,
00001000
00010000
00000000
00010000
01000000
00000000
00000000
00000000
10000000
00000000
00100000
00010000
00000000
00001000
01000000
00000000
,
00100000
00010000
00000000
00001000
00100000
00000000
01000000
00010000
00000000
00001000
00000010
00000000
00000100
00010000
00000000
00001000
,
00000010
00000000
00000001
00001000
00000001
00000000
00001000
00000000
00000001
00000000
00000100
00000010
00001000
00000000
00000100
00000000
,
00010000
00001000
00010000
00000000
00001000
00000000
00000000
00000000
01001000
00000000
01000000
00000000
01010000
00000000
00010000
00000000
,
00110000
00000000
00010000
10000000
00010000
00000000
00000000
00000000
10000000
00000000
01000000
00100000
00010000
00000000
01000000
00000000
,
00001000
00010000
00001000
00000000
00010000
00000000
00000000
00000000
00010100
00000000
00000100
00000000
00001100
00000000
00001000
00000000
,
00001010
00000000
00001000
00000001
00000000
00000001
00001000
00000000
00000010
00000000
00001000
00000100
00000010
00000000
00000001
00000000
,
00000100
00000010
00000100
00000000
00001000
00000000
00010000
00000000
00100000
00000000
10000000
00100000
10000000
00000000
00010000
00100000
,
00010000
00000000
10000000
01000000
10000000
00000000
00010000
00000000
10000000
00000000
01000000
00010000
00001000
00000000
00000010
00000000
,
00000001
00000000
00000000
00000000
00000000
00000000
00000100
00000000
00000000
00001000
00000000
00000000
00010000
00000000
00000000
00000000
00000000
00000000
00100000
00000000
00000000
00000000
00000000
00000000
10000000
00000000
00000000
00000000
00100000
00000000
00000000
00000000
00010000
00000000
00000000
00000000
00001000
00000000
00000000
00000000
00000100
00000000
00000000
00000000
00000001
00000000
00000000
00000000
,
00001000
00000000
00000001
00000100
00000001
00000000
00000010
00000100
00001000
00000000
00000010
00000100
00000001
00000000
00000000
00000000
,
00000001
00000100
00000010
00001000
00010000
01000000
00100000
10000000
,
00010000
00000000
10000000
01000000
10000000
00000000
00100000
01000000
00010000
00000000
00100000
01000000
10000000
00000000
00000000
00000000
,
10000000
00000000
01000000
00000000
00100000
00000000
00010000
00000000
00001000
00000000
00000100
00000010
00000000
00000010
00000001
00000000
,
00001000
00000000
00000001
00000100
00000001
00000000
00001000
00000000
00000010
00000000
00000100
00001000
00000100
00000000
00001000
00000000
,
00010000
00000000
00100000
01000000
00100000
00000000
10000000
00010000
10000000
00000000
01000000
00100000
01000000
00000000
00000000
00000000
,
10000000
01000000
00100000
00010000
10000000
00100000
01000000
00100000
,
10000000
01000000
10000000
00010000
00100000
00001000
00010000
00000100
00001000
00000100
00000010
00000001
00002000
00000000
00003000
00000000
,
00001001
00000000
00000000
00000000
,
00000000
00000000
00000000
00000000
;
