
//----- song ID: gtit -----//
#TITLE:Get it;
#ARTIST:Dubscribe;
#BANNER:Get it.png;
#BACKGROUND:Get it-bg.png;
#CDTITLE:./CDTitles/DDR A3.png;
#MUSIC:Get it.ogg;
#SAMPLESTART:33.104;
#SAMPLELENGTH:15;
#BPMS:0=174;
#STAGE:14;
#NOTES:
     dance-single:
     :
     Beginner:
     3:
     :
0000
0000
0000
0000
,
0000
0000
0000
0000
,
0000
0000
0000
0000
,
0000
0000
0000
0000
,
0000
0000
0000
0000
,
0002
0000
0000
0000
,
0003
0000
0000
0000
,
2000
0000
0000
0000
,
3000
0000
0000
0000
,
0001
0000
0001
0000
,
0010
0000
0000
0000
,
0010
0000
0010
0000
,
0100
0000
0000
0000
,
0100
0000
0100
0000
,
1000
0000
0000
0000
,
1000
0000
1000
0000
,
0010
0000
0000
0000
,
1001
0000
0000
0000
,
0000
0000
0000
0000
,
0000
0000
0000
0000
,
0000
0000
0000
0000
,
0001
0000
0100
0000
,
0010
0000
0010
0000
,
1000
0000
0000
0000
,
0000
0000
0000
0000
,
1001
0000
0000
0000
,
1000
0000
0100
0000
,
1001
0000
0000
0000
,
0001
0000
0100
0000
,
1001
0000
0000
0000
,
1000
0000
1000
0000
,
0010
0000
0010
0000
,
0100
0000
0000
0000
,
1001
0000
0000
0000
,
1000
0000
0010
0000
,
1001
0000
0000
0000
,
0001
0000
0010
0000
,
1001
0000
0000
0000
,
1000
0000
1000
0000
,
0100
0000
0100
0000
,
0010
0000
0000
0000
,
0002
0000
0000
0000
,
0003
0000
0000
0000
,
0200
0000
0000
0000
,
0300
0000
0000
0000
,
0020
0000
0000
0000
,
0030
0000
0000
0000
,
2000
0000
0000
0000
,
3000
0000
0000
0000
,
1000
0000
0010
0000
,
1000
1000
0010
0000
,
0100
0000
0000
0000
,
0000
0000
0000
0000
,
0001
0000
0010
0000
,
0001
0001
0010
0000
,
0100
0000
0000
0000
,
0000
0000
0000
0000
,
0001
0000
0100
0000
,
0001
0001
0010
0000
,
0100
0000
1000
0000
,
0100
0000
0000
0000
,
1000
0000
0100
0000
,
1000
1000
0010
0000
,
0100
0000
0001
0000
,
0100
0000
0000
0000
,
0002
0000
0000
0000
,
0003
0000
0000
0000
,
2000
0000
0000
0000
,
3000
0000
0000
0000
,
0200
0000
0000
0000
,
0300
0000
0000
0000
,
0010
0000
0010
0000
,
0010
0000
0000
0000
,
1001
0000
0000
0000
,
0000
0000
0000
0000
;
#NOTES:
     dance-single:
     :
     Easy:
     7:
     :
0000
0000
0000
0000
,
0000
0000
0000
0000
,
0000
0000
0000
0000
,
0000
0000
0000
0000
,
0000
0000
0000
0000
,
0001
0000
0000
0001
0000
0000
0000
0000
,
0000
0000
0000
0000
,
1000
0000
0000
1000
0000
0000
0000
0000
,
0001
0000
1000
0000
0100
0010
0001
0000
,
1000
0100
1000
0100
,
0010
0001
0010
0000
,
0001
0100
0001
0100
,
0010
1000
0010
0000
,
1000
0100
0001
0100
,
1000
0001
1000
0000
,
0001
0100
1000
0100
,
0001
1000
0001
0000
,
2002
0000
0000
0000
,
0000
0000
0000
0000
,
3003
0000
0000
0000
,
0000
0000
0000
0000
,
0001
0001
0010
0001
,
1000
1000
0010
1000
,
0001
0100
0001
0000
1000
0100
1000
0000
,
1001
0000
0000
0000
,
2002
0000
0000
0000
3003
0000
1000
0100
,
0010
0001
0001
0000
,
2002
0000
0000
0000
3003
0000
0001
0100
,
0010
1000
1000
0000
,
0220
0000
0330
1000
,
1010
0001
0011
0000
,
1100
0000
0101
0000
,
0110
0010
1001
0000
,
2002
0000
0000
0000
3003
0000
1000
0010
,
0100
0001
0001
0000
,
2002
0000
0000
0000
3003
0000
0001
0010
,
0100
1000
1000
0000
,
0220
0000
0330
1000
,
1100
0001
0101
0000
,
1010
0000
0011
0000
,
0110
0100
1001
0000
,
0001
0001
0100
0100
,
0010
0010
1000
0000
,
1000
1000
0100
0100
,
0010
0010
0001
0000
,
1000
0100
0010
0000
0001
0000
0000
0000
,
0001
0100
0010
0000
1000
0000
0000
0000
,
0001
0100
1000
0100
,
0001
0000
0000
0000
,
2000
0000
3001
0100
,
0010
1000
0100
0010
,
0001
0100
0010
1000
,
0100
0010
0001
0000
,
0002
0000
1003
0010
,
0100
0001
0010
0100
,
1000
0010
0100
0001
,
0010
0100
1000
0000
,
0002
0000
0103
0010
,
1000
0001
0010
0100
,
1000
0001
0100
0010
,
1000
0001
0010
0100
,
2000
0000
3001
1000
,
0100
0010
0001
1000
,
0010
0100
0001
1000
,
0200
0000
0000
0300
,
1000
0001
0010
0001
,
0100
0000
0010
0000
1000
0010
1000
0000
,
0001
0100
0010
1000
,
0010
0100
0110
0000
,
0001
1000
0100
1000
,
0010
0000
0100
0000
0001
0100
0001
0000
,
1000
0010
0100
0001
,
0100
0010
0110
0000
,
1001
0000
0000
0000
,
0000
0000
0000
0000
;
#NOTES:
     dance-single:
     :
     Medium:
     12:
     :
0000
0000
0000
0000
,
0000
0000
0000
0000
,
0000
0000
0000
0000
,
0000
0000
0000
0000
,
0000
0000
0000
0000
,
0001
0000
0000
1001
0000
0000
0000
0000
,
0000
0000
0000
0000
,
1000
0000
0000
1001
0000
0000
0000
0000
,
0001
0010
0100
1000
0001
0010
0100
0000
,
1000
0010
0100
0000
0010
1000
0100
0000
,
0010
0100
1000
0010
0100
1000
0100
0000
,
0001
0010
0100
0000
0010
0001
0100
0000
,
0010
0100
0001
0010
0100
0001
0100
0000
,
1000
0010
0001
0000
0010
1000
0001
0000
,
1000
0010
0001
0010
2000
0000
3000
0000
,
0001
0100
1000
0000
0100
0001
1000
0000
,
0001
0100
1000
0100
0002
0000
0003
0000
,
2002
0000
0000
0000
,
0000
0000
0000
0000
,
0000
0000
0000
0000
,
0000
0000
0000
3003
,
1000
0100
1000
0000
0100
0010
0100
0000
,
0010
0001
0010
0000
0001
1000
0001
0000
,
1000
0010
0100
0001
0010
0100
1000
0001
,
1000
0000
0000
0000
,
2002
0000
3003
0000
1001
0000
0001
0100
,
0010
0000
1000
0100
0010
0001
0100
0000
,
2002
0000
3003
0000
1001
0000
1000
0100
,
0010
0000
0001
0100
0010
1000
0100
0000
,
0220
0000
0000
0330
0000
0000
0110
0000
0000
1000
0000
0100
,
0010
0000
0001
1000
0000
0100
0010
0000
0001
1000
0000
0100
,
0010
0000
0001
1000
0000
0010
0100
0000
0001
1000
0000
0010
,
0100
0000
0000
0000
0001
0000
1000
0000
0000
0000
0010
0000
0100
0000
0000
0001
0000
0000
1000
0000
0000
0000
0000
0000
,
0002
0000
0000
1000
1003
0000
0001
0100
,
0110
0000
1000
0010
0110
0000
1001
0000
,
2000
0000
0000
0001
3001
0000
1000
0100
,
0110
0000
0001
0010
0110
0000
1001
0000
,
0002
0000
0000
0000
0000
0000
0000
0000
0000
0100
0000
0000
0103
0000
0000
0000
0000
0000
0001
0000
0000
0000
0010
0000
,
0001
0000
1000
0100
0000
0010
0001
0000
1000
0100
0000
0010
,
0001
0000
1000
0010
0000
0100
0001
0000
1000
0010
0000
0100
,
0001
0100
1000
0100
0001
1000
0001
0000
,
1000
0000
0010
0000
1000
0100
1000
0000
,
0001
0000
0010
0000
0001
0100
0001
0000
,
1000
0000
0100
0000
1000
0010
1000
0000
,
0001
0000
0100
0000
0001
0010
0001
0000
,
1000
0100
1000
0100
0010
0100
1000
0000
,
0001
0100
0001
0100
0010
0100
0001
0000
,
1000
0010
0001
0010
1000
0100
0001
0100
,
1000
0000
0000
0000
,
2001
0000
0000
0100
0000
0000
3010
0000
0010
1000
0000
1000
,
0100
0000
0100
0010
0000
0010
0001
0000
0001
0100
0000
0100
,
0010
0000
0010
1000
0000
1000
0100
0000
0100
0010
0000
0010
,
0001
0000
0001
0100
0000
0100
0010
0000
0010
1000
0000
1000
,
0002
0000
0000
0100
0000
0000
0013
0000
0010
0001
0000
0001
,
0100
0000
0100
0010
0000
0010
1000
0000
1000
0100
0000
0100
,
0010
0000
0010
0001
0000
0001
0100
0000
0100
0010
0000
0010
,
1000
0000
1000
0100
0000
0100
0010
0000
0010
0001
0000
0001
,
2000
0000
0000
0100
0000
0000
3001
0000
0001
0010
0000
0010
,
1000
0000
1000
0010
0000
0010
0001
0000
0001
1000
0000
1000
,
0001
0000
0001
0010
0000
0010
1000
0000
1000
0010
0000
0010
,
0001
0000
0001
1000
0000
1000
0001
0000
0000
0110
0000
0000
,
0002
0000
0000
0100
0000
0000
1003
0000
1000
0010
0000
0010
,
0001
0000
0001
0010
0000
0010
1000
0000
1000
0001
0000
0001
,
1000
0000
1000
0010
0000
0010
0001
0000
0001
0010
0000
0010
,
2000
0000
0000
3000
,
0001
0010
0100
1000
0001
1000
0100
0010
,
0001
0100
0010
0001
0010
0100
0001
0000
,
1000
0100
0010
0001
1000
0001
0010
0100
,
1000
0010
0100
1000
0100
0010
1000
0000
,
0001
0100
0010
1000
0100
0010
1000
0010
,
0100
1000
0001
0100
1000
0100
0001
0000
,
1000
0010
0100
0001
0010
0100
0001
0100
,
0010
0001
1000
0010
0001
0010
1000
0000
,
1001
0000
0000
0000
,
0000
0000
0000
0000
;
#NOTES:
     dance-single:
     :
     Hard:
     16:
     :
0000
0000
0000
0000
,
0000
0000
0000
0000
,
0000
0000
0000
0000
,
0000
0000
0000
0000
,
0000
0000
0000
0000
,
1001
0000
0000
1001
0000
0000
0000
0000
,
0000
0000
0000
0000
,
1001
0000
0000
1001
0000
0000
0000
0000
,
0001
0000
0010
0100
1000
0000
0010
0100
0002
0000
0023
0000
0230
0000
2300
0000
,
3001
0010
0100
0001
0100
0010
0001
0100
,
0010
0001
0010
0100
0001
0010
0100
1000
,
1000
0010
0100
1000
0100
0010
1000
0100
,
0010
1000
0010
0100
1000
0010
0100
0001
,
0001
0010
1000
0001
1000
0010
0001
1000
,
0010
0001
1000
0001
0010
1000
0001
1000
,
0001
0100
1000
0001
1000
0100
0001
1000
,
0100
0001
1000
0001
0100
1000
0001
1000
,
2002
0000
0000
0000
,
0000
0000
0000
0000
,
0000
0000
0000
0000
,
0000
0000
0000
3003
,
1000
1000
0100
0100
0010
0010
0001
0001
,
1000
1000
0010
0010
0100
0100
0001
0001
,
1000
0100
1000
0100
0010
0001
0010
0001
1000
0010
0100
0001
1000
0001
0100
0010
,
1000
0000
0001
0000
0010
0100
1001
0000
,
2002
0000
0000
0000
3003
0000
0001
0000
2000
0000
0000
0000
3001
0010
0100
1000
,
0010
0000
1100
0001
0011
0000
1010
1000
,
2002
0000
0000
0000
3003
0000
1000
0000
0002
0000
0000
0000
1003
0010
0100
0001
,
0010
0000
0101
1000
1010
0000
0011
0001
,
2002
0000
0000
0000
0000
0000
3003
0000
0000
1000
0000
0000
0001
0000
0000
0000
0000
0000
1000
0000
0010
0000
0100
0000
,
0001
0010
0100
1000
0010
0100
0001
0010
0100
1000
0010
0100
,
0001
0100
0010
1000
0100
0010
0001
0100
0010
1000
0100
0010
,
0001
0000
0000
0000
0100
0000
0000
0000
0010
0000
0000
0000
1000
0000
0000
0000
0100
0000
0000
0000
0010
0000
0000
0000
0001
0000
0000
0000
0000
0000
0100
0000
0000
0010
0000
0000
0100
0000
0000
0000
0000
0000
0100
0000
0000
0000
0000
0000
,
2002
0000
0000
0000
3003
0000
0001
0000
2000
0000
0000
0000
3010
1000
0100
1000
,
0010
0000
0011
0001
1001
0000
1100
1000
,
2002
0000
0000
0000
3003
0000
1000
0000
0002
0000
0000
0000
0013
0001
0100
0001
,
0010
0000
0000
0000
0000
0000
0000
0000
0000
0000
0000
0000
1010
0000
0000
0000
0000
0000
1000
0000
0000
0000
0000
0000
1001
0000
0000
0000
0000
0000
0001
0000
0000
0100
0000
0000
0010
0000
0000
0000
1000
0000
0000
0000
0001
0000
0000
0000
,
2002
0000
0000
0000
0000
0000
3003
0000
0000
0001
0000
0000
0100
0000
0010
0000
1000
0000
0010
0000
1000
0000
0010
0000
,
1000
0100
0010
0001
0100
0010
1000
0010
0100
0001
0010
0100
,
1000
0010
1000
0010
0100
0010
0100
0001
0100
0001
0010
0001
,
1000
0100
0010
0000
0001
1000
0100
0000
0010
0001
0010
0100
1000
0001
0010
0100
,
1000
1000
1010
1010
,
0001
0001
0011
0011
,
1000
1000
1100
1100
,
0001
0001
0101
0101
,
1000
1000
0010
0010
0001
0001
0010
0010
,
1000
1000
0100
0100
0001
0001
0100
0100
,
1000
0010
1000
0010
0100
0001
0100
0001
1000
0010
0100
0001
0010
0100
1000
0010
,
0100
0000
0010
0000
1000
0001
0110
0000
,
2001
0000
0000
0010
0000
0000
3100
0010
0001
0100
0001
0010
,
0100
0010
0001
0100
0001
0010
0100
0010
0001
0100
0001
0010
,
0100
1000
0010
0100
0010
1000
0100
1000
0010
0100
0010
1000
,
0100
1000
0010
0100
0010
1000
0100
0010
0001
0100
0010
1000
,
0002
0000
0000
0100
0000
0000
0013
0001
0100
0010
0100
0001
,
0010
0001
0100
0010
0100
0001
0010
0001
0100
0010
0100
0001
,
0010
0100
1000
0010
1000
0100
0010
0100
1000
0010
1000
0100
,
0010
0100
1000
0010
1000
0100
0010
0001
0100
0010
1000
0100
,
0020
0000
0000
1000
0000
0000
0031
1000
0100
0001
0100
1000
,
0001
1000
0100
0001
0100
1000
0001
1000
0100
0001
0100
1000
,
0001
1000
0010
0001
0010
1000
0001
1000
0010
0001
0010
1000
,
0001
0000
1000
0000
0010
0000
0001
0000
0010
0000
1000
0000
0001
0000
0000
1000
0000
0000
0100
0000
0000
0000
0000
0000
,
1200
0000
0000
0001
0000
0000
1300
0001
0100
1000
0100
0001
,
1000
0001
0010
1000
0010
0001
1000
0001
0100
1000
0100
0001
,
1000
0001
0010
1000
0010
0001
1000
0001
0100
1000
0100
0001
,
2000
0000
0000
3000
,
1000
0000
0001
0010
0100
0000
1000
0000
0100
0010
0001
0000
1000
0000
0001
0010
,
0100
0000
1000
0000
0100
0010
0001
0000
1000
0000
0010
0100
0010
0000
1000
0000
,
0001
0000
0100
0010
1000
0000
0001
0000
1000
0010
0100
0000
0001
0000
0100
0010
,
1000
0000
0001
0000
1000
0010
0100
0000
0001
0000
1000
0001
1000
0000
0001
0000
,
1000
0100
1000
0100
0010
0000
0001
0100
0001
0100
0010
0000
1000
0100
1000
0100
,
0010
0000
0001
0100
0001
0100
0010
0000
1000
0010
0100
0010
1000
0000
0001
0000
,
1000
0001
0010
0001
1000
0000
0001
1000
0010
1000
0001
0000
1000
0001
0010
0001
,
1000
0000
0001
0010
0100
0000
1000
0010
0100
0000
0100
0000
0001
0000
0001
0000
,
1001
0000
0000
0000
,
0000
0000
0000
0000
;
#NOTES:
     dance-double:
     :
     Easy:
     7:
     :
00000000
00000000
00000000
00000000
,
00000000
00000000
00000000
00000000
,
00000000
00000000
00000000
00000000
,
00000000
00000000
00000000
00000000
,
00000000
00000000
00000000
00000000
,
00001000
00000000
00000000
00001000
00000000
00000000
00000000
00000000
,
00000000
00000000
00000000
00000000
,
00010000
00000000
00000000
00010000
00000000
00000000
00000000
00000000
,
00001000
00010000
00000100
00001000
,
00000001
00000100
00000001
00000100
,
00000010
00001000
00000010
00010000
,
00001000
00010000
00001000
01000000
,
00010000
00100000
00010000
00000000
,
10000000
01000000
10000000
01000000
,
00100000
00010000
00100000
00001000
,
00010000
00001000
00010000
00000100
,
00001000
00000100
00000010
00000000
,
00002002
00000000
00000000
00000000
,
00000000
00000000
00000000
00000000
,
00003003
00000000
00000000
00000000
,
00000000
00000000
00000000
00000000
,
00000001
00000001
00000100
00000000
,
00000010
00000010
00001000
00000000
,
00000100
00000000
00010000
00000000
00001000
00010000
00001000
00000000
,
00011000
00000000
00000000
00000000
,
00022000
00000000
00000000
00000000
00033000
00000000
00010000
00001000
,
01000000
00010000
00010000
00000000
,
20020000
00000000
00000000
00000000
30030000
00000000
10000000
01000000
,
00100000
01000000
01000000
00000000
,
02200000
00000000
03300000
10000000
,
01000000
00010000
00001000
00000010
,
00000001
00000100
00001000
00010000
,
00100000
00010000
00001000
00000000
,
00022000
00000000
00000000
00000000
00033000
00000000
00001000
00010000
,
00000100
00001000
00001000
00000000
,
00002002
00000000
00000000
00000000
00003003
00000000
00000001
00000100
,
00000010
00000100
00000100
00000000
,
00000220
00000000
00000330
00000001
,
00000100
00001000
00010000
00100000
,
10000000
01000000
00010000
00001000
,
00000010
00001000
00010000
00000000
,
00001000
00001000
00010000
00010000
,
00000010
00000100
00000010
00000000
,
00010000
00010000
00001000
00001000
,
01000000
00100000
01000000
00000000
,
00001000
00100000
00001000
00000000
00010000
00000000
00000000
00000000
,
00010000
00000010
00010000
00000000
00001000
00000000
00000000
00000000
,
00010000
00001000
00010000
00000000
00001000
00010000
00001000
00000000
,
00000000
00000000
00000000
00000000
,
00022000
00000000
00033000
00001000
,
00010000
01000000
10000000
00010000
,
00100000
01000000
10000000
01000000
,
00010000
00001000
00010000
00000000
,
00022000
00000000
00033000
00010000
,
00001000
00000100
00000001
00001000
,
00000010
00000100
00000001
00000100
,
00001000
00010000
00001000
00000000
,
00020000
00000000
00031000
00100000
,
00010000
01000000
00001000
01000000
,
00010000
00100000
00010000
01000000
,
00100000
10000000
01000000
00100000
,
00002000
00000000
00013000
00000010
,
00001000
00000100
00010000
00000100
,
00001000
00000010
00001000
00000100
,
00000020
00000000
00000000
00000030
,
00000001
00001000
00000001
00000100
,
00000010
00010000
00001000
00000000
,
00010000
00001000
01000000
00010000
,
00100000
01000000
10000000
00000000
,
00010000
10000000
00010000
00100000
,
00001000
00010000
00001000
00000000
,
00010000
00000100
00001000
00000100
,
00000010
00000001
00000100
00000000
,
00000110
00000000
00000000
00000000
,
00000000
00000000
00000000
00000000
;
#NOTES:
     dance-double:
     :
     Medium:
     12:
     :
00000000
00000000
00000000
00000000
,
00000000
00000000
00000000
00000000
,
00000000
00000000
00000000
00000000
,
00000000
00000000
00000000
00000000
,
00000000
00000000
00000000
00000000
,
00001000
00000000
00000000
00011000
00000000
00000000
00000000
00000000
,
00000000
00000000
00000000
00000000
,
00010000
00000000
00000000
00011000
00000000
00000000
00000000
00000000
,
00010000
00001000
00010000
00000100
00001000
00000100
00000010
00000000
,
00000001
00000100
00000001
00000000
00000100
00000010
00000100
00000000
,
00000010
00000100
00000010
00000100
00001000
00010000
00001000
00000000
,
00010000
00001000
00010000
00000000
00001000
01000000
00001000
00000000
,
00100000
00010000
00100000
00010000
00100000
01000000
10000000
00000000
,
00010000
10000000
00010000
00000000
01000000
00100000
01000000
00000000
,
00100000
10000000
01000000
00100000
00020000
00000000
00030000
00000000
,
01000000
00001000
00010000
00000000
00000100
00001000
00000010
00000000
,
00001000
00000100
00000001
00000100
00002000
00000000
00003000
00000000
,
00002002
00000000
00000000
00000000
,
00000000
00000000
00000000
00000000
,
00000000
00000000
00000000
00000000
,
00000000
00000000
00000000
00003003
,
00000001
00000000
00000010
00000000
00000100
00000010
00000100
00000000
,
00010000
00000000
00001000
00000000
00010000
00001000
00010000
00000000
,
00100000
01000000
00100000
10000000
00010000
10000000
01000000
00100000
,
00010000
00000000
00000000
00000000
,
20020000
00000000
30030000
00000000
10010000
00000000
10000000
01000000
,
00010000
00000000
00001000
00000010
00000100
00000010
00000001
00000000
,
00002002
00000000
00003003
00000000
00001001
00000000
00000001
00000100
,
00001000
00000000
00010000
00100000
01000000
00100000
10000000
00000000
,
20020000
00000000
00000000
30030000
00000000
00000000
10010000
00000000
00000000
10000000
00000000
10000000
,
00010000
00000000
00010000
01000000
00000000
01000000
00001000
00000000
00001000
00010000
00000000
00010000
,
00000100
00000000
00000100
00001000
00000000
00001000
00000001
00000000
00000001
00001000
00000000
00001000
,
00000010
00000000
00000000
00000000
00000010
00000000
00010000
00000000
00000000
00000000
00010000
00000000
00001000
00000000
00000000
00100000
00000000
00000000
00010000
00000000
00000000
00000000
00000000
00000000
,
20000000
00000000
00000000
00010000
30010000
00000000
10000000
01000000
,
01100000
00000000
00100000
00001000
00010000
00001000
00000010
00000000
,
00000002
00000000
00000000
00001000
00001003
00000000
00000001
00000100
,
00000110
00000000
00000010
00010000
00001000
00010000
00100000
00000000
,
20000000
00000000
00000000
00000000
00000000
00000000
00000000
00000000
00000000
00010000
00000000
00000000
30010000
00000000
00000000
00000000
00000000
00000000
10000000
00000000
00000000
00000000
10000000
00000000
,
00010000
00000000
00010000
00100000
00000000
00100000
00001000
00000000
00001000
00010000
00000000
00010000
,
00000010
00000000
00000010
00001000
00000000
00001000
00000001
00000000
00000001
00001000
00000000
00001000
,
00000100
00010000
00001000
01000000
00010000
10000000
00010000
00000000
,
10000000
00000000
01000000
00000000
00010000
01000000
10000000
00000000
,
00100000
00010000
00001000
00000100
,
00000001
00000000
00000010
00000000
00001000
00000010
00000001
00000000
,
00000100
00001000
00010000
00100000
,
10000000
01000000
10000000
00000000
00010000
00100000
00010000
00000000
,
01000000
00001000
01000000
00000000
00001000
00010000
00001000
00000000
,
00010000
00000100
00010000
00000100
00001000
00000010
00000100
00000010
,
00001000
00000000
00000000
00000000
,
00002001
00000000
00000000
00000100
00000000
00000000
00003001
00000000
00000001
00000100
00000000
00000100
,
00000010
00000000
00000010
00001000
00000000
00001000
00010000
00000000
00010000
01000000
00000000
01000000
,
00100000
00000000
00100000
10000000
00000000
10000000
00010000
00000000
00010000
00100000
00000000
00100000
,
00001000
00000000
00001000
00010000
00000000
00010000
01000000
00000000
01000000
10000000
00000000
00000000
,
10020000
00000000
00000000
01000000
00000000
00000000
10030000
00000000
10000000
01000000
00000000
01000000
,
00100000
00000000
00100000
00010000
00000000
00010000
00001000
00000000
00001000
00000100
00000000
00000100
,
00000010
00000000
00000010
00000001
00000000
00000001
00001000
00000000
00001000
00000010
00000000
00000010
,
00010000
00000000
00010000
00001000
00000000
00001000
00000100
00000000
00000100
00000001
00000000
00000000
,
00001002
00000000
00000000
00000100
00000000
00000000
00001003
00000000
00001000
00000100
00000000
00000100
,
00010000
00000000
00010000
00001000
00000000
00001000
00100000
00000000
00100000
00010000
00000000
00010000
,
10000000
00000000
10000000
00100000
00000000
00100000
00010000
00000000
00010000
00001000
00000000
00001000
,
00010000
00000000
00010000
01000000
00000000
01000000
10000000
00000000
00000000
01100000
00000000
00000000
,
20010000
00000000
00000000
01000000
00000000
00000000
30010000
00000000
00010000
01000000
00000000
01000000
,
00001000
00000000
00001000
00010000
00000000
00010000
00000010
00000000
00000010
00001000
00000000
00001000
,
00000001
00000000
00000001
00000010
00000000
00000010
00001000
00000000
00001000
00010000
00000000
00010000
,
00002000
00000000
00000000
00003000
,
00001000
00010000
00001000
00010000
00100000
01000000
00010000
00100000
,
01000000
00100000
00010000
01000000
00100000
00010000
00001000
00000000
,
00010000
00001000
00010000
00001000
00000010
00000100
00001000
00000010
,
00000100
00000010
00001000
00000100
00000010
00001000
00010000
00000000
,
00001000
00010000
00100000
01000000
00001000
00010000
01000000
00100000
,
00001000
00010000
00000100
00001000
00000010
00010000
00001000
00000000
,
00010000
00001000
00000010
00000100
00010000
00001000
00000100
00000010
,
00010000
00001000
01000000
00010000
00100000
00001000
00010000
00000000
,
00011000
00000000
00000000
00000000
,
00000000
00000000
00000000
00000000
;
#NOTES:
     dance-double:
     :
     Hard:
     17:
     :
00000000
00000000
00000000
00000000
,
00000000
00000000
00000000
00000000
,
00000000
00000000
00000000
00000000
,
00000000
00000000
00000000
00000000
,
00000000
00000000
00000000
00000000
,
00011000
00000000
00000000
00011000
00000000
00000000
00000000
00000000
,
00000000
00000000
00000000
00000000
,
00011000
00000000
00000000
00011000
00000000
00000000
00000000
00000000
,
00001000
00000000
00010000
00100000
00010000
00000000
00001000
00010000
00001000
00000000
00000010
00000000
00000100
00000000
00010000
00000000
,
00001000
00010000
00000100
00000010
00001000
00000010
00000100
00010000
,
00001000
00000100
00000010
00010000
00001000
00010000
00000010
00000100
,
00001000
00010000
00100000
01000000
00001000
01000000
00100000
00010000
,
00001000
00010000
01000000
00100000
00001000
00100000
01000000
00010000
,
00001000
00000010
00000100
00001000
00000010
00000100
00001000
00000100
,
00000010
00001000
00000100
00000010
00001000
00010000
01000000
00100000
,
00010000
01000000
00100000
00010000
00100000
01000000
00010000
00100000
,
01000000
00010000
01000000
00100000
00001000
00010000
00001000
00000000
,
00022000
00000000
00000000
00000000
,
00000000
00000000
00000000
00000000
,
00000000
00000000
00000000
00000000
,
00000000
00000000
00000000
00033000
,
00010000
00001000
00010000
00000100
00001000
00000100
00001000
00000100
,
00000010
00000001
00000010
00000001
00001000
00000001
00001000
00000000
,
00000001
00000100
00000001
00000100
00000010
00001000
00000010
00001000
00000010
00010000
00001000
00010000
00001000
01000000
00010000
01000000
,
00100000
00000000
00100000
00000000
01000000
00100000
10010000
00000000
,
20020000
00000000
00000000
00000000
30030000
00000000
00010000
00000000
20000000
00000000
00000000
00000000
31000000
00100000
00010000
00100000
,
00001000
00000000
00011000
00010000
00010010
00000000
00001010
00001000
,
00002002
00000000
00000000
00000000
00003003
00000000
00001000
00000000
00000002
00000000
00000000
00000000
00000013
00000100
00001000
00000100
,
00010000
00000000
00011000
00001000
01001000
00000000
01010000
00010000
,
20020000
00000000
00000000
00000000
00000000
00000000
30030000
00000000
00000000
10000000
00000000
00000000
00010000
00000000
00000000
00000000
00000000
00000000
10000000
00000000
01000000
00000000
00100000
00000000
,
00010000
01000000
00100000
00010000
00001000
00100000
00010000
00001000
00000100
00010000
00001000
00000100
,
00000010
00001000
00000100
00000010
00000001
00000010
00000100
00001000
00000010
00000100
00001000
00010000
,
00000100
00000000
00000000
00000000
00001000
00000000
00000000
00000000
00010000
00000000
00000000
00000000
00100000
00000000
00000000
00000000
00001000
00000000
00000000
00000000
00010000
00000000
00000000
00000000
00100000
00000000
00000000
00000000
00000000
00000000
01000000
00000000
00000000
00100000
00000000
00000000
01000000
00000000
00000000
00000000
00000000
00000000
01000000
00000000
00000000
00000000
00000000
00000000
,
20020000
00000000
00000000
00000000
30030000
00000000
00010000
00000000
20000000
00000000
00000000
00000000
30010000
00100000
00001000
00100000
,
00010000
00000000
00101000
00001000
00011000
00000000
00010100
00000100
,
00000220
00000000
00000000
00000000
00000330
00000000
00001000
00000000
00000002
00000000
00000000
00000000
00001003
00000100
00010000
00000100
,
00001000
00000000
00000000
00000000
00000000
00000000
00000000
00000000
00000000
00000000
00000000
00000000
00001010
00000000
00000000
00000000
00000000
00000000
00001000
00000000
00000000
00000000
00000000
00000000
00001001
00000000
00000000
00000000
00000000
00000000
00000001
00000000
00000000
00000100
00000000
00000000
00001000
00000000
00000000
00000000
00010000
00000000
00000000
00000000
00001000
00000000
00000000
00000000
,
00022000
00000000
00000000
00000000
00000000
00000000
00033000
00000000
00000000
00001000
00000000
00000000
00010000
00000000
00100000
00000000
01000000
00000000
00010000
00000000
00100000
00000000
01000000
00000000
,
00010000
00001000
00000010
00000100
00001000
00000010
00000100
00001000
00010000
01000000
00100000
00010000
,
01000000
00100000
00010000
00001000
00000100
00000010
00001000
00000100
00000010
00001000
00010000
00100000
,
01000000
00100000
01000000
00000000
00010000
10000000
00010000
00000000
10000000
01000000
10000000
01000000
00100000
00010000
00100000
00001000
,
00010000
00001000
00010000
00000000
00000100
00001000
00000100
00000000
,
00000010
00000001
00000010
00000000
00000001
00001000
00000001
00000000
,
00001000
00000100
00001000
00000000
00000100
00010000
00000100
00000000
,
00010000
00001000
00010000
00000000
00001000
00100000
00001000
00000000
,
00100000
00010000
00100000
00010000
10000000
01000000
00100000
00010000
,
00001000
00000100
00001000
00000100
00000010
00000001
00000100
00000001
,
00001000
00000010
00001000
00000010
00010000
00001000
00010000
00001000
01000000
00010000
01000000
00010000
10000000
00100000
10000000
00100000
,
01000000
00000000
01000000
00000000
00100000
01000000
10010000
00000000
,
20020000
00000000
00000000
30030000
00000000
00000000
10000000
01000000
00010000
00001000
00010000
00100000
,
10000000
00100000
00010000
00001000
00010000
01000000
10000000
01000000
00010000
00001000
00010000
00100000
,
10000000
01000000
00100000
00010000
01000000
00100000
00010000
00001000
00000100
00000010
00010000
00001000
,
00000010
00000001
00000100
00001000
00010000
00001000
00000100
00000001
00000010
00000100
00000000
00000000
,
00002002
00000000
00000000
00003003
00000000
00000000
00000001
00000100
00001000
00010000
00001000
00000010
,
00000001
00000010
00001000
00010000
00001000
00000100
00000001
00000100
00001000
00010000
00001000
00000010
,
00000001
00000100
00000010
00001000
00000100
00000010
00001000
00010000
01000000
10000000
00010000
00100000
,
01000000
10000000
00100000
00010000
00001000
00010000
01000000
10000000
00010000
10000000
00000000
00000000
,
20020000
00000000
00000000
30030000
00000000
00000000
00010000
00100000
00001000
00010000
00000100
00001000
,
00000010
00000100
00001000
00010000
00100000
01000000
00010000
00100000
01000000
00010000
00000100
00000010
,
00001000
00000010
00000100
00010000
01000000
00100000
00010000
01000000
00100000
00010000
00001000
00000100
,
00000010
00000000
00001000
00000000
00000100
00000000
00000010
00000000
00001000
00000000
00000010
00000000
00000001
00000000
00000000
00000100
00000000
00000000
00000010
00000000
00000000
00000000
00000000
00000000
,
00002002
00000000
00000000
00003003
00000000
00000000
00001000
00000010
00010000
00001000
01000000
00010000
,
00100000
01000000
00010000
00001000
00000010
00000100
00001000
00000010
00000100
00001000
01000000
00100000
,
00010000
00100000
01000000
00001000
00000100
00000010
00001000
00000100
00000010
00001000
00010000
01000000
,
20000000
00000000
00000000
30000000
,
00010000
00000000
10000000
00100000
10000000
00000000
01000000
00000000
00100000
00010000
00100000
00000000
00001000
00000000
00010000
00000100
,
00010000
00000000
00001000
00000000
00000010
00000100
00000010
00000000
00000001
00000000
00000100
00000010
00001000
00000000
00000001
00000000
,
00001000
00000000
00000001
00000100
00000001
00000000
00000010
00000000
00000100
00001000
00000100
00000000
00010000
00000000
00001000
00100000
,
00001000
00000000
00010000
00000000
01000000
00100000
01000000
00000000
10000000
00000000
00100000
01000000
00010000
00000000
10000000
00000000
,
00010000
01000000
00010000
01000000
00010000
00000000
00100000
00001000
00100000
00001000
00100000
00000000
00001000
00010000
00001000
00010000
,
00000100
00000000
00001000
00000010
00001000
00000010
00000100
00000000
00000001
00001000
00000001
00001000
00000001
00000000
00000010
00000000
,
00000100
00001000
00000100
00001000
00000100
00000000
00010000
00001000
00010000
00001000
00010000
00000000
00001000
01000000
00010000
01000000
,
00010000
00000000
01000000
00100000
10000000
00000000
01000000
00100000
00010000
00000000
00100000
00000000
00001000
00000000
00001000
00000000
,
00011000
00000000
00000000
00000000
,
00000000
00000000
00000000
00000000
;
