
//----- song ID: geyw -----//
#TITLE:Get Your Wish;
#ARTIST:WATARU;
#BANNER:Get Your Wish.png;
#BACKGROUND:Get Your Wish-bg.png;
#CDTITLE:./CDTitles/DDR A3.png;
#MUSIC:Get Your Wish.ogg;
#SAMPLESTART:28.5;
#SAMPLELENGTH:15;
#DISPLAYBPM:160;
#BPMS:0=160,36=80,36.5=40,36.75=20,37=40,39=80,43=160,59=320.856,60=320,62=160,87=80,87.5=40,87.75=20,88=80,90=160,114=80,114.5=40,114.75=20,115=40,117=80,121=160,137=80,152.5=160;
#STOPS:59=0.188,60=0.188,61=0.188,152.5=0.188;
#STAGE:14;
#NOTES:
     dance-single:
     :
     Beginner:
     3:
     :
0000
0000
0000
0000
,
0000
0000
0000
0000
,
0000
0000
0000
0000
,
0000
0000
0000
0000
,
0000
0000
0000
0000
,
0000
0000
0000
0000
,
1000
0000
0000
0000
,
0001
0000
0000
0000
,
0100
0000
0000
0000
,
0020
0030
1000
1000
,
0000
1000
0000
0001
,
0000
0001
0000
0001
,
0000
0001
0000
0100
,
0000
0100
0000
0020
,
0000
0030
0000
2002
,
0000
3003
0000
0001
,
0000
0000
0000
0001
,
0000
0000
0000
0100
,
0000
0000
0000
0100
,
0000
0000
0000
0010
,
0000
0000
0000
0010
,
0000
0000
0000
2000
,
3000
0000
1000
0000
,
0000
0000
1000
0000
,
0000
0000
0001
0000
,
0000
0000
0001
0000
,
0000
0000
0010
0000
,
0000
0000
0010
0000
,
0000
0000
0200
0300
,
0100
0100
0000
0100
,
0000
0010
0000
0000
,
0000
0010
0000
0000
,
0000
0010
0000
0010
,
0000
0020
0000
0000
,
0000
0030
0000
0000
,
0000
1000
0000
0000
,
0000
0001
0000
0000
,
0000
1000
0000
0000
,
0000
0000
0000
1000
,
0000
0000
0000
0100
,
0000
0000
0000
0010
,
0000
0000
0000
0001
,
0000
0000
0000
0100
,
0000
0000
0000
0010
,
0000
0000
0000
1000
,
0000
0001
0000
1000
,
0000
0001
0000
0001
,
0000
1000
0000
1000
,
0000
0001
0000
0001
,
0000
1000
0000
1000
,
0000
0010
0000
0010
,
0000
0100
0000
0100
,
0000
0010
0010
0010
,
0000
0100
0000
0000
,
0000
1001
0000
0000
,
0000
0000
0000
0000
;
#NOTES:
     dance-single:
     :
     Easy:
     6:
     :
0000
0000
0000
0000
,
0000
0000
0000
0000
,
0000
0000
0000
0000
,
0000
0000
0000
0000
,
0000
0000
0000
0000
,
0000
0000
0000
0000
,
0001
0001
0001
0000
,
1000
1000
1000
0000
,
0010
0010
0010
0000
,
2002
3003
0110
1001
,
0000
0110
0000
1001
,
0000
0110
0000
1001
,
0000
0110
0000
1001
,
0110
1001
0110
2002
,
0000
0000
0000
0000
,
3000
0003
0000
1000
,
0001
0100
0010
1000
,
0001
0010
0100
1000
,
0100
0010
0001
1000
,
0010
0100
0001
0010
,
0100
1000
0001
0100
,
0010
1000
0100
0020
,
0030
0000
0001
0001
,
0010
0100
1000
0001
,
0100
0010
1000
0001
,
0010
0100
1001
0001
,
0100
0001
0010
0100
,
1000
0010
0100
0001
,
0010
0001
0200
0300
,
0110
1001
0000
0110
,
0000
1001
0000
0110
,
0000
1001
0000
0110
,
0000
1001
0110
1001
,
0110
2002
0000
0000
,
0000
3003
0000
0000
,
0001
1000
0010
0100
,
0010
1000
0001
0010
,
0100
1000
0010
0200
,
0000
0300
0000
0000
0001
0000
1000
0000
,
0100
0010
0001
0001
,
0100
0010
1000
0001
,
0010
0100
1000
0010
,
0110
1001
1000
0001
,
0010
0100
1000
0010
,
1000
0100
0010
0001
,
0100
0001
0000
0100
,
0110
1001
0001
1000
,
0010
0100
0010
1000
,
0001
0010
0100
1000
,
0010
1000
0001
0010
,
0110
1001
0001
1000
,
1000
0010
0010
0100
,
0100
0001
0010
0100
,
1000
0020
0000
0130
,
0110
1001
0000
0000
,
0000
0000
0000
0000
;
#NOTES:
     dance-single:
     :
     Medium:
     9:
     :
0000
0000
0000
0000
,
0000
0000
0000
0000
,
0000
0000
0000
0000
,
0000
0000
0000
0000
,
0000
0000
0000
0000
,
0000
0000
0000
0000
,
1000
1000
1000
1000
,
0001
0000
0001
0000
0001
0000
0001
0100
,
0010
0010
0010
0010
,
0200
0310
1010
2002
,
3003
0220
0330
0201
,
0301
0012
0013
0120
,
0130
1200
1300
0011
,
1100
0000
1000
0001
0110
0000
2002
0000
,
0000
0000
3003
0002
,
0203
0320
1030
0001
,
0100
0000
0001
0000
1000
0100
0010
0000
,
0001
0000
1000
0000
0001
0100
0010
0000
,
1000
0000
0100
0000
1000
0010
0100
0000
,
0001
0000
1000
0000
0010
0010
0010
0000
,
0100
0000
0001
0000
1000
0100
0010
0000
,
0001
0000
1000
0000
0001
0100
0020
0000
,
0130
0000
0000
0000
0001
0001
0001
0000
,
1000
0000
0001
0010
0100
0000
1000
0000
,
0001
0000
0100
0010
1000
0000
0001
0000
,
1000
0000
0100
0010
0001
0000
1000
0000
,
0001
0000
0100
0001
0010
0000
0001
0000
,
1000
0000
0100
1000
0010
0000
1000
0000
,
0001
0000
1000
0100
0020
0000
0031
0001
,
1100
1000
1020
0000
0130
0000
0210
0000
,
0301
2100
3001
0102
,
1003
2100
3001
0102
,
1003
0000
1100
0000
0011
0000
1000
0001
,
0110
0000
0020
0000
0000
0000
0130
0001
,
1000
2002
3003
0000
,
0001
0010
0100
1000
0001
0100
0010
1000
,
0100
0010
1001
0000
0001
0010
0100
0001
,
0100
1000
0010
0001
0010
0100
0002
0000
,
0000
0013
1100
0000
0011
0000
1000
0001
,
0100
0000
0110
0000
1001
0000
0001
0010
,
0100
0000
1000
0000
0001
0000
0100
0010
,
1000
0001
0010
0000
0100
0000
1000
0001
,
0110
0001
1001
1000
,
0010
0100
0001
0000
0011
0000
0100
0000
,
1000
0010
0100
0000
1010
0000
0001
0000
,
1000
0000
0001
0001
0010
0100
1000
0010
,
0010
0000
0000
0000
1000
0000
0000
0001
0000
0000
0100
0000
0000
0010
0000
0000
,
1000
0000
1000
0000
1000
0000
0000
0001
0000
0000
0010
0000
0000
0100
0000
0000
,
1000
0000
1000
0000
1000
0000
0000
0010
0000
0000
0100
0000
0000
0001
0000
0000
,
0010
0000
0010
0000
0010
0000
0000
0001
0000
0000
1000
0000
0001
0000
1000
0000
,
0110
0000
0001
0001
0001
0000
1000
1000
,
1000
0000
0010
0010
0010
0000
0100
0100
,
0100
0000
0001
1000
0010
0100
0010
1000
,
0100
0010
0001
0000
0000
0000
1000
0001
,
0110
1001
0000
0000
,
0000
0000
0000
0000
;
#NOTES:
     dance-single:
     :
     Hard:
     14:
     :
0000
0000
0000
0000
,
0000
0000
0000
0000
,
0000
0000
0000
0000
,
0000
0000
0000
0000
,
0000
0000
0000
0000
,
0000
0000
0000
0000
,
0001
0001
1000
1000
,
0010
0000
0010
0000
0100
0000
0100
0001
,
1000
0100
0010
0001
,
2000
0000
0000
0000
3001
0000
1000
0001
0011
0000
0100
1000
1001
0000
0001
0010
,
0100
1000
0010
0100
1001
0000
1000
0100
0010
0001
0100
0010
1001
0000
0000
0000
,
0100
0010
1001
0000
0100
0010
1001
1000
,
0010
0000
0100
0000
1001
0000
0001
0000
0100
0000
0010
0000
1000
0100
1000
0000
,
0001
0100
0001
0000
1000
0001
1000
0001
1000
0100
0010
0001
2000
0000
0000
0000
,
0000
0000
0000
0000
3000
0000
0022
0033
,
2200
0000
3300
0000
0220
0000
0330
0000
1001
0000
0000
0000
1000
0000
0000
0001
,
0000
0000
0100
0000
0000
0010
0000
0000
1000
0000
0001
0000
0010
0000
0000
0100
,
0000
0000
1000
0000
0000
0001
0000
0000
0100
0000
0001
0000
0010
0000
0000
0100
,
0000
0000
1000
0000
0000
0010
0000
0010
0100
0000
0001
0000
0011
0000
0000
1000
,
0000
0000
0010
0000
0000
0100
0000
0000
0001
0000
0001
0000
0001
0000
0000
0010
,
0000
0000
0100
0000
0000
1000
0000
1000
0010
0000
0100
0000
0001
0000
0000
0010
,
0000
0000
0100
0000
0000
1000
0000
0000
0010
0000
1000
0000
0002
0000
0000
0000
,
1003
0000
0000
0010
0000
0000
0001
0000
0000
0010
0000
0000
1000
0000
0100
0000
0010
0000
0000
0000
0010
0000
0000
0000
0011
0000
0000
0000
0000
0000
0000
0000
,
1000
0100
1000
0001
0100
0010
1000
0001
,
0000
0100
0001
0000
0010
0000
0100
0000
0010
0000
0001
0000
1000
0000
0010
0000
,
0000
0100
0000
0100
0001
0000
0010
0000
0011
0000
1000
0000
0001
0000
0100
0000
,
0010
0000
0000
0110
0000
0000
0010
0000
0100
0000
0001
0000
0010
0000
0100
0000
,
1000
0001
0000
0001
0100
0000
0010
0000
1000
0000
0100
0000
1000
0000
0001
0000
,
0000
0100
0010
0000
1000
0000
0001
0000
0200
0000
0000
0000
0310
0000
0010
0000
,
1010
0010
0110
0010
0010
0010
0011
0010
,
0010
0010
0110
0010
0010
0010
1010
0010
,
0010
0010
0011
0010
0010
0010
0110
0010
,
0010
0000
0010
0000
0010
0100
0010
0000
1000
0001
1000
0000
0010
0100
0010
0000
,
1000
0001
1000
0100
0010
0000
0000
0000
0000
0000
0000
0000
0100
0000
0100
0000
,
1001
0000
0000
0000
2002
0000
3003
0000
0000
0000
0100
0010
0001
0100
0010
1000
,
0100
0010
0001
0001
0010
0100
1000
0001
0100
0010
0100
0001
0010
0100
1000
0001
,
1000
0010
0100
0000
1001
1000
0100
0010
0001
0010
0100
0001
1000
0010
0100
1000
,
0001
0100
0010
0001
1000
0100
0010
1000
0001
0010
0100
1000
0020
0000
0000
0000
,
0000
0000
0130
0000
0001
0000
1000
0100
0000
0010
0001
0000
0000
1000
0000
0001
,
0100
0000
0010
0000
1000
0000
0001
0010
0000
0100
1000
0000
0000
0001
0000
1000
,
0010
0000
0001
0000
0010
0000
0100
0001
0000
1000
0100
0000
0000
1000
0000
0010
,
0100
0000
0001
0000
0010
0000
0100
1000
0000
0010
0100
0000
0010
0000
0010
0000
,
1001
0000
0000
0000
0110
0000
0001
0100
0000
0010
1000
0000
0000
0100
0000
1000
,
0010
0000
0100
0000
0001
0000
1000
0100
0000
0010
0001
0000
0000
1000
0000
0010
,
0100
0000
1000
0000
0100
0000
0001
1000
0000
1000
0010
0000
0000
0100
0000
0001
,
0010
0000
0100
0000
1000
0100
1000
0100
0010
0001
1000
0000
0010
0000
0010
0000
,
1001
0000
0000
0000
0001
0000
1000
0010
0000
0010
0100
0000
0000
0001
0000
0010
,
0001
0000
1000
0000
0100
0000
1000
0001
0000
0100
0010
0000
0000
0100
0000
0001
,
0010
0000
1000
0000
0010
0000
0100
1000
0000
0010
0100
0000
0000
0001
0000
1000
,
0100
0000
0010
0000
0001
0000
0100
0010
0000
0010
1000
0000
0100
0000
0100
0000
,
1001
0000
0110
0010
1000
1000
0001
0001
,
0100
0100
0001
0001
0010
0010
0100
0100
,
1000
0000
1000
0000
0001
1000
0001
1000
0001
0100
0010
1000
0001
1000
0001
1000
,
0001
0010
0100
1000
0020
0000
0000
0000
0000
0000
0000
0000
0100
0000
0130
0000
,
1001
0000
0000
0000
0200
0000
0000
0300
0000
0000
0000
0000
0000
0000
0000
0000
,
0000
0000
0000
0000
;
#NOTES:
     dance-double:
     :
     Easy:
     5:
     :
00000000
00000000
00000000
00000000
,
00000000
00000000
00000000
00000000
,
00000000
00000000
00000000
00000000
,
00000000
00000000
00000000
00000000
,
00000000
00000000
00000000
00000000
,
00000000
00000000
00000000
00000000
,
00001000
00001000
00001000
00000000
,
00010000
00010000
00010000
00000000
,
00001000
00001000
00010000
00010000
,
00022000
00033000
11000000
01100000
,
00000000
00110000
00000000
00011000
,
00000000
00001100
00000000
00000110
,
00000000
00000011
00000000
00001001
,
00000110
00001001
00000110
00002002
,
00000000
00000000
00000000
00000000
,
00003000
00000003
00000000
00001000
,
00000001
00000100
00000010
00001000
,
00000100
00010000
00001000
00010000
,
00001000
01000000
00010000
00100000
,
00010000
00100000
01000000
10000000
,
01000000
00100000
00010000
01000000
,
00001000
00010000
00001000
00020000
,
00030000
00000000
00001000
00010000
,
00000100
00001000
00000001
00000100
,
00000010
00001000
00000001
00001010
,
00000100
00001000
00000010
00010000
,
00001000
00010000
00001000
01000000
,
00010000
00100000
01000000
10000000
,
00010000
01000000
00200000
00300000
,
10100000
01010000
00000000
00101000
,
00000000
00011000
00000000
00010100
,
00000000
00001010
00000000
00000101
,
00000000
00001001
00000110
00001001
,
00000110
00002002
00000000
00000000
,
00000000
00003003
00000000
00000000
,
00000001
00000100
00001000
00010000
,
01000000
10000000
01000000
00010000
,
00001000
00000100
00000001
00000020
,
00000000
00000030
00000000
00000000
00000001
00000000
00001000
00000000
,
00000001
00000100
00000010
00001000
,
00000100
00010000
00001000
00100000
,
00010000
01000000
00100000
10000000
,
00010000
10010000
10000000
01000000
,
00100000
00001000
00010000
00001000
,
00010000
00000100
00000010
00000001
,
00001000
00000010
00000000
00000100
,
00001001
00000001
00000100
00001000
,
00010000
00001000
00010000
00100000
,
10000000
00010000
10000000
01000000
,
00100000
00010000
01000000
00001000
,
00011000
00001000
00001000
00010000
,
00010000
00000100
00000100
00001000
,
00001000
00000001
00000010
00000100
,
00001000
00000020
00000000
00010030
,
00001000
00011000
00000000
00000000
,
00000000
00000000
00000000
00000000
;
#NOTES:
     dance-double:
     :
     Medium:
     9:
     :
00000000
00000000
00000000
00000000
,
00000000
00000000
00000000
00000000
,
00000000
00000000
00000000
00000000
,
00000000
00000000
00000000
00000000
,
00000000
00000000
00000000
00000000
,
00000000
00000000
00000000
00000000
,
00001000
00001000
00001000
00001000
,
00010000
00010000
00010000
00010000
,
00001000
00001000
00010000
00010000
,
00002000
00013000
01001000
02100000
,
03001000
00021000
00030100
00000210
,
00010300
00012000
01003000
02100000
,
03001000
00021000
00030100
00000110
,
00011000
00000000
01000000
00100000
00100000
00000000
20020000
00000000
,
00000000
00000000
30030000
20000000
,
32000000
03200000
00301000
00010000
,
00000100
00000000
00001000
00000000
00000001
00000100
00000010
00000000
,
00001000
00000000
00000100
00000000
00010000
00001000
01000000
00000000
,
00010000
00000000
00100000
00000000
01000000
10000000
00100000
00000000
,
01000000
00000000
00010000
00000000
10000000
01000000
00100000
00000000
,
00001000
00000000
00010000
00000000
00000100
00000010
00000001
00000000
,
00001000
00000000
00000010
00000000
00010000
00001000
00020000
00000000
,
00031000
00000000
00000000
00000000
00001000
00001000
00001000
00000000
,
01000000
00010000
00100000
01000000
,
10000000
00000000
00100000
01000000
00010000
00000000
00100000
00000000
,
00001000
00000000
00010000
00000100
00001000
00000000
00000001
00000000
,
00000100
00000000
00001000
00010000
00001000
00000000
00010000
00000000
,
00100000
00000000
01000000
00010000
10000000
00000000
01000000
00000000
,
00010000
00000000
00001000
00010000
00002000
00000000
00013000
00000000
,
00001010
00000001
00001100
00000000
00010000
00000000
00001010
00000000
,
00000001
00001100
00010000
00001010
,
00000001
00001100
00010000
00001010
,
00000001
00000000
00001100
00000000
00010000
00000000
00001000
00000100
,
00000001
00000000
00000020
00000000
00000000
00000000
00000130
00001000
,
00000001
00002002
00003003
00000000
,
00000001
00000100
00001000
00010000
00100000
01000000
00010000
10000000
,
01000000
00100000
00110000
00000000
00001000
00000010
00000001
00001000
,
00000010
00000100
00000001
00000010
00000100
00001000
00000020
00000000
,
00000000
00000030
00001000
00000000
00000001
00000000
00000100
00000000
,
00000010
00000010
00000010
00000000
00010000
00000000
00001000
00000000
,
01000000
01000000
01000000
00000000
00010000
00000000
00100000
00000000
,
00010000
00010000
00010000
00000000
10000000
00000000
10000000
01000000
,
00010000
00011000
00001000
00000010
,
00000001
00000001
00000001
00000000
00001000
00000000
00000010
00000000
,
00010000
00010000
00010000
00000000
00001000
00000000
00100000
00000000
,
00010000
00000000
10000000
01000000
00100000
00010000
01000000
00000000
,
10010000
00000000
00000000
00000000
00010000
00000000
00000000
00100000
00000000
00000000
01000000
00000000
00000000
10000000
00000000
00000000
,
00010000
00000000
01000000
00000000
00001000
00000000
00000000
00010000
00000000
00000000
00000100
00000000
00000000
00001000
00000000
00000000
,
00000010
00000000
00000100
00000000
00000001
00000000
00000000
00000010
00000000
00000000
00000100
00000000
00000000
00001000
00000000
00000000
,
00000001
00000000
00000100
00000000
00001000
00000000
00000000
00010000
00000000
00000000
00001000
00000000
01000000
00000000
00010000
00000000
,
00100000
00000000
00010000
00010000
00010000
00000000
10000000
10000000
,
10000000
00000000
01000000
01000000
01000000
00000000
00100000
00100000
,
00100000
00000000
00001000
00010000
00000100
00001000
00000010
00000100
,
00000001
00000010
00000200
00000000
00000000
00000000
00010300
00001000
,
00011000
00000000
00000000
00000000
00020000
00000000
00000000
00030000
00000000
00000000
00000000
00000000
00000000
00000000
00000000
00000000
,
00000000
00000000
00000000
00000000
;
#NOTES:
     dance-double:
     :
     Hard:
     14:
     :
00000000
00000000
00000000
00000000
,
00000000
00000000
00000000
00000000
,
00000000
00000000
00000000
00000000
,
00000000
00000000
00000000
00000000
,
00000000
00000000
00000000
00000000
,
00000000
00000000
00000000
00000000
,
00001000
00001000
00010000
00010000
,
00001000
00000000
00001000
00000000
00010000
00000000
00010000
00010000
,
00010000
00001000
00100000
00010000
,
02000000
00000000
00000000
00000000
03100000
00000000
10000000
01000000
01100000
00000000
00100000
00001000
00011000
00000000
00000000
00000000
,
00001000
00000100
00000001
00000010
00000011
00000000
00000000
00000000
00000010
00000100
00010000
00001000
00011000
00000000
00000000
00000000
,
00010000
01000000
01100000
00000000
00001000
00000100
00000110
00000000
,
00010000
01000000
01100000
00000000
00001000
00000100
00000110
00001000
,
00001010
00000000
00010000
00000000
00011000
00000000
00000000
00000000
01000000
00010000
01000000
00010000
00200000
00000000
00000000
00000000
,
00000000
00000000
00300000
00000000
00000000
00000000
22000000
33000000
,
02200000
00000000
03300000
00000000
00220000
00000000
00330000
00000000
00011000
00000000
00000000
00000000
00010000
00000000
00000000
01000000
,
00000000
00000000
10000000
00000000
00000000
00100000
00000000
00000000
01000000
00000000
00010000
00000000
10000000
00000000
00000000
01000000
,
00000000
00000000
00010000
00000000
00000000
00001000
00000000
00000000
00010000
00000000
00000010
00000000
00000100
00000000
00000000
00000001
,
00000000
00000000
00001000
00000000
00000000
00000100
00000000
00000100
00010000
00000000
00001000
00000000
00000100
00000000
00000000
00000001
,
00000000
00000000
00000010
00000000
00000000
00000100
00000000
00000000
00001000
00000000
00000010
00000000
00010000
00000000
00000000
00001000
,
00000000
00000000
00010000
00000000
00000000
00100000
00000000
00100000
01000000
00000000
00010000
00000000
00100000
00000000
00000000
01000000
,
00000000
00000000
00000000
00000000
10000000
00000000
00000000
00000000
00000000
00000000
00100000
00000000
00000000
00000000
00000000
00000000
00010000
00000000
00000000
00000000
00001000
00000000
00000000
00000000
00022000
00000000
00000000
00000000
00000000
00000000
00000000
00033000
,
00011000
00000000
00000000
00000000
00010000
00010000
00001000
00000100
,
00000010
00010000
00001000
00000010
00000001
00000100
00001000
00010000
,
00000100
00000010
00001000
00010000
00001000
01000000
00100000
00010000
,
00000000
00100000
00000000
00100000
01000000
00000000
00010000
00000000
10000000
00000000
01000000
00000000
00100000
00000000
00010000
00000000
,
01000000
00100000
00010000
00001000
00010000
01000000
00100000
00001000
,
00000010
00000100
00001000
00000010
00010000
00001000
00000100
00000001
,
00000010
00000100
00001000
00000010
00020000
00000000
00031000
00001000
,
00101000
00001000
00011000
00001000
00001000
00001000
00001010
00001000
,
00001000
00001000
00101000
00001000
00001000
00001000
00011000
00001000
,
00001000
00001000
01001000
00001000
00001000
00001000
00011000
00001000
,
00001000
00001000
00001100
00000100
00000010
00001000
00000100
00000010
,
00000001
00001000
00000001
00001000
00000002
00000000
00000000
00000000
00000000
00000000
00000000
00000000
00000103
00000000
00000100
00000000
,
00001001
00000000
00000000
00000000
00002002
00000000
00003003
00000000
00000000
00000000
00000001
00001000
00000001
00000010
00000001
00000100
,
00000010
00001000
00000100
00010000
00001000
00100000
00010000
01000000
00100000
10000000
01000000
00100000
00010000
01000000
00100000
00010000
,
00001000
00000000
00010000
00000000
00000100
00000000
00000001
00000100
00001000
00000010
00010000
00001000
00100000
00010000
01000000
10000000
,
01000000
00010000
00100000
01000000
10000000
00100000
00010000
00001000
00000100
00000001
00000010
00000100
00002000
00000000
00000000
00000000
,
00000000
00000000
00003010
00000000
00001000
00000000
00000001
00000010
00000000
00000100
00001000
00000000
00000000
00000001
00000000
00000100
,
00001000
00000000
00010000
00000000
00001000
00000000
00100000
00010000
00000000
00100000
00010000
00000000
00000000
10000000
00000000
00100000
,
01000000
00000000
00010000
00000000
10000000
00000000
01000000
00100000
00000000
00010000
00100000
00000000
00000000
00001000
00000000
00010000
,
00000100
00000000
00000010
00000000
00001000
00000000
00010000
00001000
00000000
01000000
00010000
00000000
01000000
00000000
01000000
00000000
,
01100000
00000000
00000000
00000000
00010000
00000000
10000000
01000000
00000000
00100000
00010000
00000000
00000000
10000000
00000000
00100000
,
00010000
00000000
00001000
00000000
00010000
00000000
00000100
00000010
00000000
00000100
00001000
00000000
00000000
00000001
00000000
00000100
,
00000010
00000000
00001000
00000000
00000001
00000000
00000100
00000010
00000000
00001000
00000100
00000000
00000000
00010000
00000000
00001000
,
01000000
00100000
00010000
00001000
00010000
01000000
10000000
10000000
,
10100000
00000000
00000000
00000000
00010000
00000000
10000000
01000000
00000000
00010000
01000000
00000000
00000000
00100000
00000000
00001000
,
00010000
00000000
00000010
00000000
00000100
00000000
00001000
00000100
00000000
00000001
00000100
00000000
00000000
00000010
00000000
00010000
,
00001000
00000000
00100000
00000000
01000000
00000000
00010000
01000000
00000000
10000000
00100000
00000000
00000000
01000000
00000000
00010000
,
00100000
00000000
00001000
00000000
00010000
00000000
00000100
00001000
00000000
00000010
00000100
00000000
00000001
00000000
00000001
00000000
,
00000011
00000000
00001000
00000100
00000010
00000001
00000100
00001000
,
00010000
00100000
10000000
01000000
00100000
00010000
01000000
00100000
,
00010000
00000000
00001000
00000000
00010000
00001000
00010000
00001000
00010000
00001000
00010000
00001000
00010000
00001000
00010000
00001000
,
00010000
00001000
00010000
00001000
00020000
00000000
00000000
00000000
00000000
00000000
00000000
00000000
00030100
00000000
00000010
00000000
,
00000011
00000000
00000000
00000000
00002000
00000000
00000000
00003000
00000000
00000000
00000000
00000000
00000000
00000000
00000000
00000000
,
00000000
00000000
00000000
00000000
;
