
//----- song ID: gr04 -----//
#TITLE:GROOVE 04;
#ARTIST:android52;
#BANNER:GROOVE 04.png;
#BACKGROUND:GROOVE 04-bg.png;
#CDTITLE:./CDTitles/DDR A3.png;
#MUSIC:GROOVE 04.ogg;
#SAMPLESTART:80.517;
#SAMPLELENGTH:15;
#BPMS:0=155;
#BGSTAGE:15;
#NOTES:
     dance-single:
     :
     Beginner:
     4:
     :
0000
0000
0000
0000
,
0000
0000
0000
0000
,
0000
0000
0000
0000
,
0000
0000
0000
0000
,
0000
0000
0000
0000
,
0000
0000
0000
0000
,
0002
0000
0000
0000
,
0003
0000
0000
0000
,
2000
0000
0000
0000
,
3000
0000
0000
0000
,
0001
0000
0010
0000
,
0100
0000
1000
0000
,
0001
0000
0100
0000
,
0010
0000
1000
0000
,
0001
0000
0010
0000
,
1000
0000
0010
0000
,
0001
0000
0100
0000
,
2002
0000
3003
0000
,
0001
0001
1000
0000
,
1000
1000
0001
0000
,
0001
0001
1000
0000
,
1000
1000
0001
0000
,
0001
0001
0010
0000
,
1000
1000
0010
0000
,
0001
0001
0010
0000
,
1000
1000
0010
0000
,
0002
0000
0000
0000
,
0003
0000
0000
0000
,
0020
0000
0000
0000
,
0030
0000
0000
0000
,
2000
0000
0000
0000
,
3000
0000
0000
0000
,
0200
0000
0000
0000
,
0300
0000
0000
0000
,
2002
0000
3003
0000
,
0001
0000
0010
0000
,
2002
0000
3003
0000
,
1000
0000
0010
0000
,
2002
0000
3003
0000
,
0001
0000
0100
0000
,
2002
0000
3003
0000
,
0000
0000
0000
0000
,
1000
0000
0100
0000
,
0010
0000
0001
0000
,
0100
0000
0010
0000
,
1000
0000
0001
0000
,
1000
0000
0010
0000
,
0100
0000
0001
0000
,
0010
0000
0100
0000
,
1000
0000
0001
0000
,
2002
0000
0000
0000
,
0000
0000
3003
0000
,
1000
1000
0001
0000
,
0001
0001
1000
0000
,
1000
0001
1000
0000
,
0001
1000
0001
0000
,
1000
0001
1000
0000
,
2002
0000
3003
0000
,
1000
0000
0010
0000
,
0001
0000
0010
0000
,
1000
0000
0100
0000
,
0001
0000
0100
0000
,
1000
0001
1000
0000
,
0001
1000
0001
0000
,
1000
0001
1000
0000
,
0001
1000
0001
0000
,
2002
0000
0000
0000
,
0000
0000
0000
0000
,
3003
0000
0000
0000
,
0000
0000
0000
0000
;
#NOTES:
     dance-single:
     :
     Easy:
     8:
     :
0000
0000
0000
0000
,
0000
0000
0000
0000
,
0000
0000
0000
0000
,
0000
0000
0000
0000
,
0000
0000
0000
0000
,
0000
0000
0000
0000
,
0010
0000
0000
1000
0000
0000
0200
0000
,
0000
0000
0000
0300
,
0010
0000
0000
0001
0000
0000
0200
0000
,
0000
0000
0000
0300
,
0101
1000
0100
0010
,
0110
0000
0000
0000
1000
0001
0100
0000
,
1100
0001
0100
0010
,
0110
0000
0000
0000
0001
1000
0100
0000
,
0011
1000
0010
0100
,
0110
0000
0000
0000
1000
0001
0010
0000
,
1010
0001
0010
0100
,
2002
0003
3001
0110
,
1000
0000
0100
0000
0010
0001
0100
0000
,
0001
0000
0100
0000
0010
1000
0100
0000
,
1000
0100
0010
0000
0100
1000
0001
0000
,
1000
0100
0010
0000
0001
0000
1000
0000
,
0010
0000
0101
0000
1000
0001
0100
0000
,
0001
0000
1100
0000
0001
1000
0100
0000
,
0010
0001
0100
0000
0010
1000
0100
0000
,
0101
1100
0101
0000
,
2000
0010
0000
0010
,
3002
0010
2003
0010
,
3002
0100
0000
0100
,
2003
0100
3002
0100
,
1003
0100
0010
0001
,
0200
1000
0010
0301
,
0010
0100
1000
0010
,
0100
0010
0100
0000
,
0220
0030
0302
0023
,
0230
0301
0200
1300
,
0220
0300
0032
0203
,
0320
0031
0020
1030
,
2020
3000
2030
3200
,
0320
1030
0020
0031
,
0022
0003
0032
0203
,
0010
0010
0310
0000
,
1000
0000
0100
0000
0010
0001
0100
0000
,
1000
0100
0001
0010
,
0001
0000
0100
0000
0010
1000
0100
0000
,
0001
0100
1001
0110
,
1000
0000
0010
0000
0100
0001
0010
0000
,
1000
0010
0001
0100
,
0001
0000
0010
0000
0100
1000
0010
0000
,
0001
0000
0010
0000
0100
0010
0100
0000
,
2000
0010
0000
0010
,
3002
0010
0000
0013
,
0110
0000
0001
0000
0010
0001
1000
0000
,
0110
0000
1000
0000
0010
1000
0001
0000
,
1000
0010
0100
0000
0001
0010
0100
0000
,
1000
0010
0100
0000
0001
0010
0100
0000
,
2000
0010
0001
3100
,
0001
0100
0010
1000
0001
0000
0000
0000
,
0011
0000
1100
0000
0001
1000
0100
0000
,
0101
0000
1010
0000
0001
1000
0010
0000
,
1100
0000
0011
0000
1000
0001
0010
0000
,
1010
0000
0101
0000
1000
0001
0100
0000
,
0010
1000
0100
0000
0010
0001
0100
0000
,
0010
1000
0100
0000
0010
0001
0100
0000
,
0002
0010
1000
0103
,
1000
0100
0010
0001
1000
0000
0010
0000
,
2002
0000
0000
0000
,
0000
0000
0000
0000
,
3003
0000
0000
0000
,
0000
0000
0000
0000
;
#NOTES:
     dance-single:
     :
     Medium:
     11:
     :
0000
0000
0000
0000
,
0000
0000
0000
0000
,
0000
0000
0000
0000
,
0000
0000
0000
0000
,
0000
0000
0000
0000
,
0000
0000
0000
0000
,
2000
0000
0000
3200
0000
0000
0320
0000
,
0000
0000
0000
0030
,
0002
0000
0000
0203
0000
0000
0320
0000
,
0000
0000
0000
0030
,
0101
0000
1000
0001
0000
1000
0100
0010
,
0001
0000
0100
0000
0001
0001
0001
0000
,
1100
0000
0001
1000
0000
0001
0100
0010
,
1000
0000
0100
0000
1000
1000
1000
0000
,
0011
0000
1000
0001
0000
1000
0010
0100
,
0001
0000
0010
0000
0001
0001
0001
0000
,
1010
0000
0001
1000
0000
0001
0010
0100
,
0020
0000
0130
1001
,
0001
0100
0001
0100
1000
0100
1000
0100
,
0001
0010
0001
0010
1000
0010
1000
0010
,
0001
0100
0010
1000
0100
0010
0001
0100
,
0010
1000
0100
0010
0001
0100
0010
0000
,
1000
0100
1000
0100
0001
0100
0001
0100
,
1000
0010
1000
0010
0001
0010
0001
0010
,
1000
0100
0010
0001
0100
0010
1000
0100
,
1000
0010
0001
1000
0100
0001
1000
0000
,
0110
0000
0001
1000
0000
0010
1000
0100
,
0010
0000
0100
0000
0010
0001
0100
0000
,
0110
0000
0001
1000
0000
0100
1000
0010
,
0100
0000
0010
0000
0100
0001
0010
0000
,
0110
0000
1000
0001
0000
0010
0001
0100
,
0010
0000
0100
0000
0010
1000
0100
0000
,
0110
0000
1000
0001
0000
0100
0001
0010
,
0100
0000
0010
0000
0100
1000
0010
0000
,
0220
0000
0300
0000
1030
0010
0100
0001
,
0020
0000
0130
0000
0010
0001
0010
0000
,
0220
0000
0030
0000
1300
0100
0010
0001
,
2000
0000
3001
0010
0000
1000
0010
0000
,
0202
0000
0003
0000
0301
0010
0100
1000
,
0020
0000
0130
0000
0010
1000
0010
0000
,
1100
0000
1000
0010
0000
1000
0100
0020
,
0000
0100
0000
0100
0000
0031
0000
0000
,
1100
0000
0001
0100
0000
0010
1000
0100
,
0010
0000
0110
0000
0001
0100
1000
0000
,
0101
0000
1000
0100
0000
0010
0001
0100
,
0010
0000
0110
0000
1000
1000
0001
0000
,
1010
0000
0001
0010
0000
0100
1000
0010
,
0100
0000
0110
0000
0001
0010
1000
0000
,
0011
0000
1000
0010
0000
0100
0001
0010
,
0100
0000
0110
0000
1000
0001
1000
0000
,
0002
0100
0000
0100
,
2003
0100
0000
3100
,
0110
0000
1000
0001
0100
0010
1000
0100
,
0010
0001
0100
0001
0010
0001
1000
0000
,
0001
0100
1000
0100
0001
0100
1000
0100
,
0001
0010
1000
0010
0001
0010
0100
0000
,
1000
0100
0001
0100
1000
0100
0001
0100
,
1000
0010
0100
0001
0010
0100
1000
0000
,
0110
0000
0001
0100
0010
1000
0100
0010
,
0001
0010
0100
1000
0100
0001
0100
0000
,
0110
0000
0001
0010
0100
1000
0010
0100
,
0001
0100
0010
1000
0010
0001
0010
0000
,
1000
0100
0001
0100
1000
0001
0010
1000
,
0001
0100
1000
0100
0001
1000
0010
0001
,
0100
0010
1000
1000
0100
0010
0001
0001
,
0100
0010
1000
0100
0010
0001
0100
0000
,
2002
0000
0000
0000
,
0000
0000
0000
0000
,
3003
0000
0000
0000
,
0000
0000
0000
0000
;
#NOTES:
     dance-single:
     :
     Hard:
     16:
     :
0000
0000
0000
0000
,
0000
0000
0000
0000
,
0000
0000
0000
0000
,
0000
0000
0000
0000
,
0000
0000
0000
0000
,
0000
0000
0000
0000
,
0002
0000
0000
0023
0000
0000
0230
0000
0000
2300
0000
0000
3020
0000
0000
0200
,
0000
0000
0000
0330
,
0020
0000
0000
2030
0000
0000
3200
0000
0000
0320
0000
0000
0032
0000
0000
0200
,
0000
0000
0000
0303
,
0110
0000
0000
0000
0001
0000
1000
0100
0000
0010
0001
0000
1000
0000
0001
0000
,
0100
0000
0000
0000
0010
0000
0000
0000
1000
0100
1000
0100
1000
0000
0000
0000
,
0110
0000
0000
0000
1000
0000
0001
0100
0000
0010
1000
0000
0001
0000
1000
0000
,
0100
0000
0000
0000
0010
0000
0000
0000
0001
0100
0001
0100
0001
0000
0000
0000
,
0110
0000
0000
0000
0001
0000
1000
0010
0000
0100
0001
0000
1000
0000
0001
0000
,
0010
0000
0000
0000
0100
0000
0000
0000
1000
0010
1000
0010
1000
0000
0000
0000
,
0110
0000
0000
0000
1000
0000
0001
0010
0000
0100
1000
0000
0001
0000
1000
0000
,
0220
0330
1001
0110
,
1001
0000
0001
0100
0001
0000
1000
0010
1000
0000
0001
0100
0010
1000
0001
0000
,
1001
0000
1000
0100
1000
0000
0001
0010
0001
0000
1000
0100
0010
0001
1000
0000
,
1001
0000
0001
0010
0001
0000
1000
0100
1000
0000
0001
0010
0100
1000
0001
0000
,
1001
0000
1000
0010
1000
0000
0001
0100
0001
0000
1000
0010
0100
0001
1000
0000
,
0110
0000
0001
0100
0010
0000
1000
0100
0010
0000
0001
0100
0010
1000
0001
0000
,
0110
0000
1000
0100
0010
0000
0001
0100
0010
0000
1000
0100
0010
0001
1000
0000
,
0110
0000
0001
0010
0100
0000
1000
0010
0100
0000
0001
0010
0100
1000
0001
0000
,
0010
0001
0100
0000
0010
1000
0100
0000
0010
0001
0100
0010
1000
0000
0000
0000
,
0110
0000
0000
0000
0001
0000
1000
0100
0000
0100
0010
0000
0001
0000
0100
0000
,
0010
0000
0000
0000
0100
0000
0000
0000
0001
1000
0100
1000
0001
0000
0000
0000
,
0110
0000
0000
0000
1000
0000
0001
0100
0000
0100
0010
0000
1000
0000
0100
0000
,
0010
0000
0000
0000
0100
0000
0000
0000
1000
0001
0100
0001
1000
0000
0000
0000
,
0110
0000
0000
0000
0001
0000
1000
0010
0000
0010
0100
0000
0001
0000
0010
0000
,
0100
0000
0000
0000
0010
0000
0000
0000
0001
1000
0010
1000
0001
0000
0000
0000
,
0110
0000
0000
0000
1000
0000
0001
0010
0000
0010
0100
0000
1000
0000
0010
0000
,
0100
0000
0000
0000
0010
0000
0000
0000
1000
0001
0010
0001
1000
0000
0000
0000
,
1020
0000
0100
0000
1030
0010
0100
0001
,
0020
0000
0000
0000
0130
0000
0000
0000
0010
0001
1000
0001
0010
0000
0000
0000
,
1200
0000
0010
0000
1300
0010
0100
0001
,
2000
0000
0000
0000
3100
0000
0010
0000
0001
1000
0100
1000
0001
0000
0000
0000
,
0201
0000
0010
0000
0301
0010
0100
1000
,
0020
0000
0000
0000
0130
0000
0000
0000
0010
1000
0001
1000
0010
0000
0000
0000
,
0021
0000
0100
0000
0031
0100
0010
2000
,
0000
0000
0100
0000
0000
0000
0100
0000
0000
0000
3010
0000
1000
0001
1000
0001
,
0010
0000
0000
0000
0110
0000
0001
1000
0000
0001
0010
0000
0100
0000
0010
0001
,
1000
0000
0000
0000
0110
0000
0000
0000
1000
0010
0100
0010
1000
0010
0100
0010
,
1000
0000
0000
0000
0110
0000
0001
1000
0000
0001
0100
0000
0010
0000
0100
0001
,
1000
0000
0110
0000
0001
0100
1000
0100
,
0010
0000
0000
0000
0110
0000
1000
0001
0000
1000
0010
0000
0100
0000
0010
1000
,
0001
0000
0000
0000
0110
0000
0000
0000
0001
0010
0100
0010
0001
0010
0100
0010
,
0001
0000
0000
0000
0110
0000
1000
0001
0000
1000
0100
0000
0010
0000
0100
1000
,
0001
0000
0000
0000
0110
0000
0000
0000
0001
0100
1000
0100
0001
0000
0000
0000
,
2000
0100
0000
0100
,
3002
0100
0000
0103
,
0110
0000
0001
0010
0001
0000
1000
0100
1000
0000
0001
0000
0010
0000
0100
0000
,
0110
0000
1000
0010
1000
0000
0001
0100
0001
0000
1000
0100
0010
0001
1000
0000
,
1001
0000
0001
0100
0001
0000
0100
1000
0100
0000
0001
0100
0001
0000
0100
1000
,
0100
0000
0001
0100
0001
0000
0100
1000
0100
0000
0001
0100
0010
0100
0001
0000
,
1001
0000
1000
0100
1000
0000
0100
0001
0100
0000
1000
0100
1000
0000
0100
0001
,
0100
0000
1000
0000
0010
1000
0100
0010
0001
1000
0010
0100
0001
0000
0000
0000
,
2001
0000
3010
1000
0100
0000
0010
0001
0100
0000
0010
1000
0100
0000
0010
0000
,
1002
0000
0013
0001
0100
0000
0010
1000
0100
0000
0010
0001
0100
0010
1000
0000
,
0001
0100
0010
1000
0001
0000
0010
0000
0100
1000
0001
0100
0010
0000
1000
0000
,
0001
0010
0100
1000
0001
0000
0100
0000
0010
1000
0100
0010
0001
0100
0010
0000
,
0110
0000
1000
0001
1000
0000
0100
0001
0100
0000
1000
0001
1000
0000
0010
0001
,
0010
0000
1000
0001
1000
0000
0100
0001
0100
0000
1000
0001
1000
0000
0001
0000
,
0010
0001
0010
0100
0010
0001
0010
0000
0100
1000
0100
0010
0100
1000
0100
0000
,
0010
0001
0100
0010
1000
0100
0010
0001
0100
0010
1000
0100
0010
0000
0100
0000
,
2002
0000
0000
0000
,
0000
0000
0000
0000
,
3003
0000
0000
0000
,
0000
0000
0000
0000
;
#NOTES:
     dance-double:
     :
     Easy:
     8:
     :
00000000
00000000
00000000
00000000
,
00000000
00000000
00000000
00000000
,
00000000
00000000
00000000
00000000
,
00000000
00000000
00000000
00000000
,
00000000
00000000
00000000
00000000
,
00000000
00000000
00000000
00000000
,
00100000
00000000
00000000
00010000
00000000
00000000
00002000
00000000
,
00000000
00000000
00000000
00003000
,
00000010
00000000
00000000
00001000
00000000
00000000
00020000
00000000
,
00000000
00000000
00000000
00030000
,
00001000
00010000
00100000
10000000
,
01100000
00000000
00000000
00000000
00100000
10000000
01000000
00000000
,
10000000
01000000
00010000
00001000
,
00011000
00000000
00000000
00000000
00010000
00001000
00000100
00000000
,
00000010
00001000
00000100
00000010
,
00000011
00000000
00000000
00000000
00000001
00000100
00000010
00000000
,
00000100
00001000
00010000
00100000
,
20020000
00030000
30010000
01100000
,
10000000
00000000
01000000
00000000
00100000
00010000
01000000
00000000
,
00100000
00000000
00010000
00000000
00001000
00010000
00001000
00000000
,
00010000
00000000
00000100
00000000
00000010
00000001
00000100
00000000
,
00000010
00001000
00000100
00000000
00000010
00000000
00000001
00000000
,
00000100
00001000
00010000
00000000
00001000
00000000
00011000
00000000
,
00010000
00100000
01000000
00000000
00010000
00000000
11000000
00000000
,
10000000
00010000
01000000
00000000
00100000
10000000
01000000
00000000
,
00010000
00001000
00011000
00000000
,
00002000
00100000
00000000
00100000
,
00023000
00100000
00032000
00100000
,
00023000
01000000
00000000
01000000
,
00032000
01000000
00023000
01030000
,
10000000
00100000
00010000
00001000
,
00000010
00000001
00000100
00000001
,
00001000
00000001
00000100
00000010
,
00010000
00001000
00011000
00000000
,
00002000
00000010
00023000
00000010
,
00032000
00000010
00023000
00100000
,
00032000
00000100
00023000
00000100
,
00032000
00000100
00023000
01030000
,
10000000
01000000
00010000
00001000
,
00000100
00000001
00000110
00000000
,
00000001
00000100
00001000
00010000
,
01000000
10000000
01100000
00000000
,
10000000
00000000
01000000
00000000
00100000
00010000
01000000
00000000
,
00001000
00000000
00010000
00000000
00000010
00001000
00000100
00000000
,
00000010
00000000
00000001
00000000
00000100
00000010
00001000
00000000
,
00000100
00010000
00002000
00023000
,
00031000
00000000
01000000
00000000
00100000
01000000
00010000
00000000
,
10000000
00000000
01000000
00000000
00100000
00010000
10000000
00000000
,
00100000
00000000
01000000
00000000
00001000
00010000
00000100
00000000
,
00000010
00000000
00000001
00000000
00000100
00000010
00001000
00000000
,
00000002
00000010
00000000
00000010
,
00002003
00000010
00000000
00003010
,
00000100
00000000
00000010
00000000
00001000
00000100
00000010
00000000
,
00001000
00000000
00010000
00000000
00100000
01000000
00010000
00000000
,
00100000
00001000
01000000
00000000
00010000
00100000
01000000
00000000
,
00100000
00001000
01000000
00000000
00010000
00100000
01000000
00000000
,
10000000
00100000
00010000
00001000
,
00000010
00000001
00000100
00000010
00001000
00000000
00000000
00000000
,
00000110
00000000
00000001
00000000
00000100
00001000
00010000
00000000
,
00011000
00000000
00010000
00000000
00100000
10000000
00010000
00000000
,
01100000
00000000
10000000
00000000
01000000
00010000
00001000
00000000
,
00011000
00000000
00001000
00000000
00000010
00001000
00010000
00000000
,
00001000
00000010
00000001
00000000
00001000
00000000
00011000
00000000
,
00010000
00100000
10000000
00000000
00010000
00000000
00011000
00000000
,
00000010
00010000
00001000
00000000
00100000
00001000
00010000
00000000
,
00100000
10000000
01000000
00100000
00001000
00000000
00010000
00000000
,
00022000
00000000
00000000
00000000
,
00000000
00000000
00000000
00000000
,
00033000
00000000
00000000
00000000
,
00000000
00000000
00000000
00000000
;
#NOTES:
     dance-double:
     :
     Medium:
     11:
     :
00000000
00000000
00000000
00000000
,
00000000
00000000
00000000
00000000
,
00000000
00000000
00000000
00000000
,
00000000
00000000
00000000
00000000
,
00000000
00000000
00000000
00000000
,
00000000
00000000
00000000
00000000
,
00002000
00000000
00000000
00023000
00000000
00000000
02030000
00000000
,
00000000
00000000
00000000
03000000
,
00020000
00000000
00000000
00032000
00000000
00000000
00003200
00000000
,
00000000
00000000
00000000
00000300
,
00000110
00000000
00001000
00000100
00000000
00000010
00000001
00000100
,
00000010
00000000
00000100
00000000
00001000
00010000
00100000
00000000
,
01100000
00000000
00010000
01000000
00000000
00100000
10000000
01000000
,
00100000
00000000
01000000
00000000
00010000
00001000
00000010
00000000
,
00000110
00000000
00001000
00000010
00000000
00000100
00000001
00000010
,
00000100
00000000
00000010
00000000
00001000
00010000
01000000
00000000
,
01100000
00000000
00010000
00100000
00000000
01000000
10000000
00100000
,
02000000
00000000
03100000
10010000
,
10000000
01000000
10000000
01000000
00010000
00001000
00010000
00001000
,
00000010
00000001
00000010
00000001
00000100
00000010
00000100
00000000
,
00000010
00001000
00000100
00010000
00001000
00100000
00010000
01000000
,
00001000
00010000
00000100
00001000
00000010
00000000
00000100
00000000
,
00000001
00000100
00000001
00000100
00001000
00010000
00001000
00010000
,
00100000
10000000
00100000
10000000
01000000
00100000
01000000
00000000
,
00100000
00010000
01000000
00001000
00010000
00000010
00001000
00000100
,
00010000
00001000
01000000
00010000
00100000
00000000
01000000
00000000
,
01100000
00000000
00010000
10000000
00000000
00010000
01000000
00100000
,
10000000
00000000
01000000
00000000
00010000
00001000
00000010
00000000
,
00000110
00000000
00001000
00000001
00000000
00001000
00000100
00000010
,
00000001
00000000
00000100
00000000
00001000
00010000
00100000
00000000
,
01100000
00000000
00010000
10000000
00000000
00010000
00100000
01000000
,
10000000
00000000
00100000
00000000
00010000
00001000
00000100
00000000
,
00000110
00000000
00001000
00000001
00000000
00001000
00000010
00000100
,
00000001
00000000
00000010
00000000
00001000
00010000
00001000
00000000
,
00020000
00230000
20300000
32000000
,
03020000
00000000
00000000
00000000
00031000
00010000
00010000
00000000
,
00002000
00003020
00000032
00000203
,
00002300
00000000
00000000
00000000
00013000
00001000
00001000
00000000
,
00020000
02030000
23000000
30200000
,
00320000
00000000
00000000
00000000
00031000
00010000
00010000
00000000
,
00002000
00003200
00000302
00000023
,
00000000
00000100
00000000
00000100
00000000
00000031
00000000
00000000
,
00000101
00000000
00001000
00000100
00000000
00000010
00001000
00010000
,
00100000
00000000
01100000
00000000
10000000
01000000
00010000
00000000
,
11000000
00000000
00010000
01000000
00000000
00100000
00010000
00001000
,
00000010
00000110
00000101
00001100
,
00000011
00000000
00001000
00000010
00000000
00000100
00001000
00010000
,
01000000
00000000
01100000
00000000
10000000
00100000
00010000
00000000
,
10100000
00000000
00010000
00100000
00000000
01000000
00010000
00001000
,
00000100
00000000
00000110
00000000
00001000
00000100
00000001
00000000
,
00002001
00000100
00000000
00000100
,
00003002
00000100
00000000
00000103
,
00000110
00000000
00000001
00000100
00000010
00001000
00000001
00000100
,
00000010
00010000
00001000
01000000
00100000
10000000
01000000
00000000
,
00010000
00001000
00000010
00001000
00010000
00000010
00010000
00001000
,
00000010
00001000
00010000
00000010
00010000
00001000
00000010
00000000
,
00000001
00000100
00000010
00001000
00000100
00000010
00000001
00000100
,
00001000
00010000
01000000
10000000
00100000
01000000
00010000
00000000
,
01100000
00000000
10000000
01000000
00100000
00010000
01000000
00100000
,
01000000
00001000
00010000
00000100
00000010
00000001
00000100
00000000
,
00001000
00010000
00100000
00010000
00001000
00100000
00001000
00010000
,
00100000
00010000
00001000
00100000
00001000
00010000
00100000
00000000
,
10000000
01000000
00010000
00001000
00000010
00000001
00000010
00001000
,
00000001
00000100
00001000
00000001
00000100
00001000
00010000
00000000
,
00001000
00010000
01000000
10000000
01000000
00010000
10000000
00100000
,
00010000
00001000
00000100
00000001
00001000
00000010
00000001
00000000
,
00002002
00000000
00000000
00000000
,
00000000
00000000
00000000
00000000
,
00003003
00000000
00000000
00000000
,
00000000
00000000
00000000
00000000
;
#NOTES:
     dance-double:
     :
     Hard:
     16:
     :
00000000
00000000
00000000
00000000
,
00000000
00000000
00000000
00000000
,
00000000
00000000
00000000
00000000
,
00000000
00000000
00000000
00000000
,
00000000
00000000
00000000
00000000
,
00000000
00000000
00000000
00000000
,
20000000
00000000
00000000
32000000
00000000
00000000
03020000
00000000
00000000
00032000
00000000
00000000
00003020
00000000
00000000
00000002
,
00000000
00000000
00000000
00000033
,
00000002
00000000
00000000
00000203
00000000
00000000
00002300
00000000
00000000
00023000
00000000
00000000
00230000
00000000
00000000
20000000
,
00000000
00000000
00000000
30300000
,
01100000
00000000
00000000
00000000
10000000
00000000
01000000
00100000
00000000
00001000
00010000
00000000
00000010
00000000
00001000
00000000
,
00000001
00000000
00000000
00000000
00000010
00000000
00000000
00000000
00000100
00000010
00000100
00000010
00000100
00000000
00000000
00000000
,
00000110
00000000
00000000
00000000
00000001
00000000
00000100
00000010
00000000
00010000
00001000
00000000
00100000
00000000
00010000
00000000
,
10000000
00000000
00000000
00000000
00100000
00000000
00000000
00000000
01000000
00100000
01000000
00100000
01000000
00000000
00000000
00000000
,
01100000
00000000
00000000
00000000
10000000
00000000
01000000
00010000
00000000
00001000
00000010
00000000
00000001
00000000
00001000
00000000
,
00000010
00000000
00000000
00000000
00000100
00000000
00000000
00000000
00000010
00000100
00000010
00000100
00000010
00000000
00000000
00000000
,
00000110
00000000
00000000
00000000
00000001
00000000
00000100
00001000
00000000
00010000
00100000
00000000
10000000
00000000
00010000
00000000
,
02200000
03300000
10010000
01100000
,
00010000
00000000
10000000
01000000
10000000
00000000
01000000
00010000
01000000
00000000
00100000
00001000
00010000
00001000
00100000
00000000
,
00001000
00000000
00010000
00100000
00010000
00000000
00001000
00010000
00001000
00000000
00010000
00001000
00000010
00000100
00001000
00000000
,
00000001
00000000
00001000
00000010
00001000
00000000
00000010
00000001
00000010
00000000
00001000
00000100
00000010
00000001
00001000
00000000
,
00000001
00000000
00000100
00000010
00000100
00000000
00001000
00010000
00001000
00000000
00010000
00001000
00100000
00010000
01000000
00000000
,
01100000
00000000
00100000
10000000
01000000
00000000
00100000
00010000
01000000
00000000
00001000
00010000
00000010
00001000
00000100
00000000
,
00000110
00000000
00000010
00000001
00000100
00000000
00000010
00001000
00000100
00000000
00010000
00001000
00100000
00010000
01000000
00000000
,
01100000
00000000
01000000
00010000
00100000
00000000
01000000
10000000
00100000
00000000
01000000
00001000
00010000
00000010
00001000
00000000
,
00000001
00000100
00000010
00000000
00001000
00000100
00000010
00000000
00000001
00000100
00000010
00001000
00000001
00000000
00000000
00000000
,
00000110
00000000
00000000
00000000
00001000
00000000
00000100
00000010
00000000
00000010
00000001
00000000
00000100
00000000
00001000
00000000
,
00010000
00000000
00000000
00000000
00001000
00000000
00000000
00000000
00010000
00100000
00010000
00001000
00010000
00000000
00000000
00000000
,
01100000
00000000
00000000
00000000
00010000
00000000
01000000
00100000
00000000
00100000
10000000
00000000
01000000
00000000
00010000
00000000
,
00001000
00000000
00000000
00000000
00010000
00000000
00000000
00000000
00001000
00000010
00001000
00010000
00001000
00000000
00000000
00000000
,
00000110
00000000
00000000
00000000
00001000
00000000
00000010
00000100
00000000
00000100
00000001
00000000
00000010
00000000
00001000
00000000
,
00010000
00000000
00000000
00000000
00001000
00000000
00000000
00000000
00010000
01000000
00010000
00001000
00010000
00000000
00000000
00000000
,
01100000
00000000
00000000
00000000
00010000
00000000
00100000
01000000
00000000
01000000
10000000
00000000
00100000
00000000
00010000
00000000
,
00001000
00000000
00000000
00000000
00010000
00000000
00000000
00000000
00001000
00000100
00001000
00010000
00001000
00000000
00000000
00000000
,
00012000
00003020
00000032
00000203
,
00002300
00000000
00000000
00000000
00013000
00000000
00000000
00000000
00001000
00010000
00100000
00010000
00001000
00000000
00000000
00000000
,
00021000
00230000
20300000
32000000
,
03020000
00000000
00000000
00000000
00031000
00000000
00000000
00000000
00010000
00001000
00000010
00001000
00010000
00000000
00000000
00000000
,
00012000
00003200
00000302
00000023
,
00002030
00000000
00000000
00000000
00013000
00000000
00000000
00000000
00001000
00010000
01000000
00010000
00001000
00000000
00000000
00000000
,
00021000
02030000
23000000
30200000
,
00000000
00000000
01000000
00000000
00000000
00000000
01000000
00000000
00000000
00000000
01300000
00000000
00001000
00010000
00001000
00010000
,
00001000
00000000
00000000
00000000
00011000
00000000
00000010
00001000
00000000
00010000
00001000
00000000
00010000
00000000
00000010
00001000
,
00000100
00000000
00000000
00000000
00000110
00000000
00000000
00000000
00000001
00000100
00000010
00000100
00000001
00000100
00000010
00000100
,
00000001
00000000
00000000
00000000
00000110
00000000
00010000
00001000
00000000
00100000
00010000
00000000
01000000
00000000
00100000
10000000
,
00010000
00000000
01100000
00000000
10000000
00100000
00010000
00100000
,
10000000
00000000
00000000
00000000
01100000
00000000
10000000
01000000
00000000
00010000
01000000
00000000
00100000
00000000
00001000
00010000
,
00000010
00000000
00000000
00000000
00000110
00000000
00000000
00000000
00001000
00000100
00000010
00000100
00001000
00000100
00000010
00000100
,
00001000
00000000
00000000
00000000
00001100
00000000
00000001
00000100
00000000
00001000
00000100
00000000
00000010
00000000
00010000
00001000
,
00100000
00000000
00000000
00000000
01100000
00000000
00000000
00000000
00001000
00010000
00100000
00010000
00001000
00000000
00000000
00000000
,
00020000
00100000
00000000
00100000
,
00032000
00000010
00000000
00003010
,
00000110
00000000
00000001
00000100
00000001
00000000
00001000
00000010
00001000
00000000
00000001
00000000
00000100
00000000
00000010
00000000
,
00010000
00000000
00001000
00100000
00001000
00000000
00010000
00000010
00010000
00000000
00001000
00100000
01000000
00100000
00001000
00000000
,
00011000
00000000
00010000
00100000
00010000
00000000
00001000
00000010
00001000
00000000
00010000
00100000
00010000
00000000
00001000
00000010
,
00001000
00000000
00010000
00100000
00010000
00000000
00001000
00000010
00001000
00000000
00010000
00001000
00010000
00001000
00010000
00000000
,
00011000
00000000
00001000
00000100
00001000
00000000
00010000
01000000
00010000
00000000
00001000
00000100
00001000
00000000
00010000
01000000
,
00010000
00000000
00001000
00000000
00000010
00000001
00000100
00000010
00001000
00000100
00000010
00000001
00001000
00000000
00000000
00000000
,
00000110
00000000
00000001
00000100
00000010
00000000
00010000
00001000
00100000
00000000
01000000
10000000
00010000
00000000
01000000
00000000
,
01100000
00000000
10000000
01000000
00100000
00000000
00001000
00010000
00000010
00000000
00000100
00000001
00001000
00000000
00000100
00000000
,
00010000
00001000
00010000
00000010
00001000
00000000
00000010
00000000
00010000
00001000
00100000
01000000
00100000
00000000
00001000
00000000
,
00010000
00001000
00010000
00000100
00001000
00000000
00000100
00000000
00010000
00001000
01000000
00100000
10000000
01000000
10000000
00000000
,
11000000
00000000
01000000
10000000
01000000
00000000
00010000
00001000
00010000
00000000
00100000
10000000
00100000
00000000
00010000
00001000
,
00010000
00000000
01000000
10000000
01000000
00000000
00010000
00001000
00010000
00000000
00100000
10000000
00100000
00000000
10000000
00000000
,
01000000
10000000
01000000
00100000
00010000
01000000
00010000
00000000
00100000
00001000
00010000
00000100
00001000
00000100
00000010
00000000
,
00000001
00000100
00000010
00001000
00000100
00010000
00001000
00100000
00010000
01000000
00100000
10000000
01000000
00000000
00100000
00000000
,
20020000
00000000
00000000
00000000
,
00000000
00000000
00000000
00000000
,
30030000
00000000
00000000
00000000
,
00000000
00000000
00000000
00000000
;
