
//----- song ID: glcr -----//
#TITLE:GLOW THE CROWN;
#ARTIST:DJ Shimamura;
#BANNER:GLOW THE CROWN.png;
#BACKGROUND:GLOW THE CROWN-bg.png;
#CDTITLE:./CDTitles/DDR A3.png;
#MUSIC:GLOW THE CROWN.ogg;
#SAMPLESTART:2.759;
#SAMPLELENGTH:15;
#BPMS:0=174;
#STAGE:16;
#NOTES:
     dance-single:
     :
     Beginner:
     3:
     :
0000
0000
0000
0000
,
0000
0000
0000
0000
,
0000
0000
0000
0000
,
0000
0000
0000
0000
,
0000
0000
0000
0000
,
0000
0000
0000
0000
,
0000
0000
0000
0000
,
0000
0000
0000
0000
,
0000
0000
0000
0000
,
0000
0000
0000
0000
,
0001
0000
0000
0000
,
0000
0000
0000
0000
,
1000
0000
0000
0000
,
0000
0000
0000
0000
,
0001
0000
0000
0000
,
1000
0000
0000
0000
,
0001
0000
0000
0000
,
1000
0000
0000
0000
,
0100
0000
0000
0000
,
0100
0000
0000
0000
,
0010
0000
0000
0000
,
0010
0000
0000
0000
,
0001
0000
0000
0000
,
1000
0000
0000
0000
,
0100
0000
0000
0000
,
0010
0000
0000
0000
,
0001
0000
0001
0000
,
0001
0000
0000
0000
,
1000
0000
1000
0000
,
1000
0000
0000
0000
,
0010
0000
0010
0000
,
0100
0000
0000
0000
,
0100
0000
0100
0000
,
0010
0000
0000
0000
,
1001
0000
0000
0000
,
0110
0000
0000
0000
,
1001
0000
0000
0000
,
0110
0000
0000
0000
,
1000
0000
1000
0000
,
0100
0000
0000
0000
,
0010
0000
0010
0000
,
0001
0000
0000
0000
,
0001
0000
0100
0000
,
0010
0000
0000
0000
,
1000
0000
0100
0000
,
0010
0000
0000
0000
,
0010
0000
0010
0000
,
0010
0000
0000
0000
,
0100
0000
0100
0000
,
0100
0000
0000
0000
,
1001
0000
0000
0000
,
0000
0000
0000
0000
,
1001
0000
0000
0000
,
0000
0000
0000
0000
,
0110
0000
0000
0000
,
0000
0000
0000
0000
,
0110
0000
0000
0000
,
0000
0000
0000
0000
,
2000
0000
0000
0000
,
0000
0000
3000
0000
,
0002
0000
0000
0000
,
0000
0000
0003
0000
,
0010
0000
0010
0000
,
0010
0000
0010
0000
,
0100
0000
0100
0000
,
0100
0000
0000
0000
,
1000
0000
0000
0000
,
0001
0000
0000
0000
,
0100
0000
0000
0000
,
0001
0000
0000
0000
,
1000
0000
0000
0000
,
0100
0000
0000
0000
,
1000
0000
0000
0000
,
0001
0000
0000
0000
,
0010
0000
0010
0000
,
0100
0000
0000
0000
,
1000
0000
1000
0000
,
0001
0000
0000
0000
,
0100
0000
0100
0000
,
0010
0000
0000
0000
,
0010
0000
0100
0000
,
0010
0000
0100
0000
,
0010
0000
0000
0000
,
0000
0000
0000
0000
;
#NOTES:
     dance-single:
     :
     Easy:
     8:
     :
0000
0000
0000
0000
,
0000
0000
0000
0000
,
0000
0000
0000
0000
,
0000
0000
0000
0000
,
0000
0000
0000
0000
,
0000
0000
0000
0000
,
0000
0000
0000
0000
,
0000
0000
0000
0000
,
0000
0000
0000
0000
,
0000
0000
0000
0000
,
1000
0001
0100
0010
,
1000
0001
0010
0100
,
1000
0010
0100
0010
,
1000
0001
0010
0100
,
1000
0100
1000
0100
,
0010
0001
0010
0001
,
1000
0010
1000
0000
0001
0100
0001
0000
,
1000
0000
0000
0000
,
1000
0010
0100
0001
,
0010
0000
0100
0000
1000
0000
0001
0001
,
1000
0010
0100
0001
,
0100
0000
0000
0100
0000
0000
0100
0000
,
0010
0010
1000
0000
0100
0000
0010
0000
,
0100
1000
0001
0100
,
0010
0100
0001
0000
0010
0100
1000
0000
,
0200
0000
0000
0000
,
0310
0010
0100
1000
,
0010
0000
0000
0010
0000
0000
0010
0000
,
1000
0001
0100
0010
,
1000
0000
0000
1000
0000
0000
1000
0000
,
0000
0010
0010
0000
1000
0000
0001
0000
,
0100
0000
0000
0100
0000
0000
0100
0000
,
0010
1000
0010
0000
0100
0001
0100
0000
,
0020
0000
0000
0000
,
1030
0000
0000
0100
0000
0000
0010
0000
,
0000
0001
0000
0000
1000
0000
0001
0000
,
1000
0000
0000
0010
0000
0000
1000
0000
,
0000
0001
0000
0000
1000
0000
0001
0000
,
1000
0000
0000
0010
0000
0000
0100
0000
,
0000
0001
0000
0000
1000
0000
0001
0000
,
0100
0000
0000
0010
0000
0000
0100
0000
,
0000
0001
0000
0000
0100
0000
0000
0000
,
0002
0000
2003
0000
,
3010
0000
0000
0100
0000
0000
0010
0000
,
2000
0000
3002
0000
,
0013
0000
0000
0100
0000
0000
0010
0000
,
0002
0000
2003
0000
,
3010
0000
0000
0100
0000
0000
0001
0000
,
2000
0000
0000
3200
0000
0000
0320
0000
,
0000
0000
0000
0000
,
0031
0000
0000
0000
,
1000
0000
0000
0000
,
0001
0000
0000
0000
,
0100
0000
0000
0000
,
0010
0000
0000
0000
,
1000
0000
0000
0000
,
0001
0000
0000
0000
,
0100
0000
0000
0000
,
0001
1000
0010
0100
,
0001
0010
0100
1000
,
0001
0100
0010
0100
,
0101
0000
1010
0000
,
0001
1000
0001
1000
,
0100
0010
0100
0010
,
0002
0000
0000
0000
,
1003
0000
0000
0000
,
0001
0010
0001
1000
,
0010
0100
0010
1000
,
0100
0000
0010
0000
0001
0000
1000
0100
,
0001
0100
1000
0000
0010
0000
0100
0000
,
0001
1000
0100
0010
,
0001
0010
0100
1000
,
0010
0100
0001
0000
1000
0001
1000
0000
,
0200
0000
0000
0000
,
0310
0011
1000
0010
,
0100
0000
0001
0000
0010
0001
1000
0000
,
0001
0100
1000
0100
,
0001
0100
0010
0000
1000
0010
0001
0000
,
0010
1000
0001
0010
,
1000
0001
0100
1000
,
0001
0100
1000
0000
0001
0100
1000
0000
,
0200
0000
0000
0000
,
0301
0000
0000
0000
,
0000
0000
0000
0000
;
#NOTES:
     dance-single:
     :
     Medium:
     14:
     :
0000
0000
0000
0000
,
0000
0000
0000
0000
,
0000
0000
0000
0000
,
0000
0000
0000
0000
,
0000
0000
0000
0000
,
0000
0000
0000
0000
,
0000
0000
0000
0000
,
0000
0000
0000
0000
,
0000
0000
0000
0000
,
0000
0000
0000
0000
,
1000
0100
1000
0001
,
0101
0100
0010
1000
,
1001
0001
0010
0100
,
1100
1000
0010
0100
,
0001
0010
0100
0010
0001
0010
0100
1000
,
0010
0100
1000
0100
0010
0100
1000
0100
,
0010
1000
0100
0010
0001
0100
0010
1000
,
0100
0000
1000
0001
1000
0000
0100
0000
0010
0000
0001
0000
1001
0000
0000
0000
,
1000
0000
0010
0100
0010
0000
1000
0000
0001
0000
0010
0000
0001
0000
1000
0000
,
0001
0000
0100
0010
0100
0000
0001
0000
1000
0000
0100
0000
0010
0100
0000
0000
,
0010
0000
0001
1000
0001
0000
0100
0000
0010
0000
1000
0000
0001
0000
0010
0000
,
0001
0000
0000
0101
0000
0000
1000
0000
0000
1100
0000
0000
0100
0000
0010
0000
,
0001
0100
0101
0000
0100
0001
1000
0100
,
0010
0000
0001
0010
0001
0000
0010
0000
0100
0000
0000
1000
0100
0000
1000
0000
,
0010
0000
0100
0000
0010
0000
0100
0000
0001
1000
0001
1000
0001
0000
0100
0000
,
0010
1000
1000
0001
0010
0010
0110
0000
,
0100
0000
1000
0100
1000
0000
0001
0000
0100
0000
0001
0000
0010
0000
0100
0000
,
0010
0000
0000
1001
0000
0000
0100
0000
0000
1001
0000
0000
1000
0000
0010
0000
,
0100
0000
0001
0100
0001
0000
1000
0000
0100
0000
1000
0000
0010
0000
0100
0000
,
0001
1000
0000
0001
1000
0000
0001
1000
0000
0001
1000
0000
0010
0000
0200
0000
,
0000
0301
0001
1000
0010
1000
0100
1000
,
0001
0000
0000
0110
0000
0000
1000
0000
0000
0110
0000
0000
0001
0000
1000
0000
,
0100
0000
0010
0000
0100
0000
1000
0000
0001
0100
0001
0100
0010
1000
0010
1000
,
0001
0000
0001
0010
0100
1000
1001
0000
,
0202
0303
0000
0220
0330
0000
2020
3030
,
0000
2200
3300
0000
0220
0000
0330
0000
,
0022
0033
0000
0220
0330
0000
2200
3300
,
0000
2020
3030
0000
0110
0000
0101
0000
,
2002
3003
0000
0220
0330
0000
2200
3300
,
0000
0202
0303
0000
0022
0000
0033
0000
,
2020
3030
0000
0202
0303
0000
0022
0033
,
0000
2200
3300
0000
1000
0010
0100
0001
,
2000
0000
3001
0100
1000
0100
0002
0000
,
1003
0100
0001
0100
1000
0100
0020
0000
,
0032
0000
1003
0010
0001
0010
2000
0000
,
3001
0010
1000
0010
0001
0010
0200
0000
,
1300
0001
0100
0010
1000
0100
0010
0001
,
0100
0010
0100
0001
1000
0010
0100
0010
,
1000
0000
0001
0000
0010
0000
0100
0000
1000
0100
1000
0100
1000
0100
1000
0100
,
0000
0000
0000
0000
,
2000
0000
0000
0000
,
3002
0000
0000
0000
,
0023
0000
0000
0000
,
0230
0000
0000
0000
,
2300
0000
0000
0000
,
3020
0000
0000
0000
,
0230
0000
0000
0000
,
0000
0000
0000
0000
,
0301
1000
0010
0110
,
0100
0001
1001
1100
,
0100
0010
0001
1000
,
1010
0011
0101
1100
,
1000
0001
0010
0001
0100
0010
0100
1000
,
0100
0010
1000
0001
0010
0100
0001
0100
,
1000
0000
0010
0000
1000
0000
0010
0000
0100
0001
0100
0001
0100
0001
0100
0001
,
0200
0310
1001
1001
,
0001
0100
0010
0100
0001
0010
0100
1000
,
0010
0000
0100
0000
0010
0000
1000
0000
0001
0100
0010
0000
0100
0000
0001
0000
,
1000
0010
0010
0100
0001
0010
0100
0100
,
1000
0000
0001
0000
0001
0000
0100
0000
0010
0000
1000
0000
0100
1000
0001
0000
,
1000
0001
0001
0010
0100
0010
0001
0100
,
0010
1000
0010
0100
0001
0010
0010
0100
,
1000
0001
0001
0100
0010
0100
0010
0100
,
0001
0000
0010
0100
1000
0000
0001
0000
0100
0001
1000
0000
0100
0000
0010
0000
,
0002
0000
1003
0010
0100
1000
0100
0010
,
1000
0000
0001
0000
0010
0000
0100
0010
0001
0000
1000
0000
1000
0000
0010
0000
,
0100
0000
0001
0000
0001
0000
1000
0000
0100
0010
0001
0000
0100
0000
0100
0000
,
0001
0000
0010
0000
0010
0000
0100
0000
1000
0000
0001
0000
0100
0001
1000
0000
,
0001
0000
0010
0100
0010
0000
0001
0000
1000
0000
0100
0000
0010
0001
1000
0000
,
0001
0000
0100
0010
0100
0000
0001
0000
1000
0000
0010
0000
0100
0001
0010
0000
,
0100
0000
1000
0010
0200
0000
0000
0000
0000
0000
0000
0000
0000
0000
0000
0000
,
0000
0000
0000
0000
,
0300
0000
0000
0000
,
0000
0000
0000
0000
;
#NOTES:
     dance-single:
     :
     Hard:
     17:
     :
0000
0000
0000
0000
,
0000
0000
0000
0000
,
0000
0000
0000
0000
,
0000
0000
0000
0000
,
0000
0000
0000
0000
,
0000
0000
0000
0000
,
0000
0000
0000
0000
,
0000
0000
0000
0000
,
0000
0000
0000
0000
,
0000
0000
0000
0000
,
0001
0000
0010
0000
0100
0000
1000
1000
,
0001
0100
0010
1000
,
0100
0000
0010
0000
0001
0000
0010
0010
,
0001
0100
1001
0000
,
0001
0010
0001
0100
0010
0100
0001
1000
,
0100
0010
0001
1000
0010
0100
0001
1000
,
0100
0010
0100
1000
0001
0100
0001
0010
0100
0010
0001
1000
0010
0100
0010
1000
,
0200
0000
0310
0001
1000
0000
0010
0000
0100
0001
1000
0000
1100
0000
0000
0000
,
1000
0000
0001
0100
0001
1000
0100
1000
0001
0010
0001
1000
0100
1000
0001
0100
,
0010
0100
0010
1000
0001
1000
0100
0010
0100
1000
0001
1000
0010
0100
0000
0000
,
0100
0000
0001
0010
0001
1000
0010
1000
0001
0100
0001
1000
0010
1000
0001
0100
,
0001
0000
0000
1001
0000
0000
0010
0000
0000
0110
0000
0000
1001
0000
0001
0000
,
1100
0000
1000
0010
0100
0001
0010
0100
1000
0100
0010
0001
0100
0010
1000
0001
,
1000
0100
1000
0001
0100
0001
1000
0010
1000
0001
0010
0001
1000
0000
1000
0000
,
0001
0000
0100
0000
0010
0000
0100
0000
1000
0100
0001
0100
1000
0000
0100
0000
,
0001
0000
1000
0100
1000
0000
1000
0100
0010
0000
0010
0000
1001
0000
0000
0000
,
0001
0000
1000
0100
1000
0001
0100
0001
1000
0010
1000
0001
0100
0001
1000
0000
,
0001
0100
0000
1000
0100
0000
0001
0010
0000
1000
0010
0000
0110
0000
1001
0000
,
0001
0000
1000
0001
0100
0010
1000
0100
0010
0001
0010
0100
1000
0010
0100
0001
,
1000
0100
0000
0001
0100
0000
1000
0010
0000
0001
0010
0000
1000
0000
1000
0000
,
0000
0000
1100
0000
0100
0010
0100
1000
0001
1000
0010
0100
0010
1000
0001
1000
,
0100
0000
0000
0110
0000
0000
1000
0000
0000
1001
0000
0000
0110
0000
0010
0000
,
1000
0000
0100
0000
0010
0000
0001
0000
1000
0100
0010
0001
1000
0100
0010
0001
,
0100
0000
0010
0100
0001
0000
0001
0010
0100
1000
0100
1000
0020
0000
0000
0000
,
0230
0000
0301
0200
0000
1300
0200
0000
,
0301
0000
0200
0000
0010
0000
0310
1000
0001
0010
0100
1000
0200
0000
0000
0000
,
0320
0000
0031
0020
0000
1030
0020
0000
,
0031
0000
0020
0000
0100
0000
0130
1000
0001
0100
0010
1000
0010
0000
0100
0000
,
0020
0000
1030
0020
0100
0031
0020
0000
,
0031
0000
0020
0000
0100
0000
1030
0100
0001
0100
0010
0001
0020
0000
0000
0000
,
0230
0000
1300
0200
0010
0301
0200
0000
,
0301
0000
0200
0000
0010
0000
1300
0000
0100
1000
0010
0000
0110
0000
0101
0000
,
0002
0000
1003
0010
1000
0100
0010
0001
,
0100
0000
0001
0000
0010
0000
0100
0000
1000
0100
0001
0000
0200
0000
0000
0000
,
2300
0000
3001
0010
0001
0100
0010
1000
,
0100
0000
1000
0000
0010
0000
0100
0000
0001
0100
1000
0000
0200
0000
0000
0000
,
0310
1000
0010
1000
0001
0010
0001
0010
,
0100
1000
0100
1000
0001
0100
0001
0100
,
0010
1000
0010
0100
0001
0010
0001
1000
0010
0100
0001
1000
0100
0010
0001
1000
,
0000
0000
0000
0000
,
2000
0000
0010
0000
0000
0010
0000
0000
0001
0000
0000
0001
0000
0000
3010
0000
,
0020
0000
1000
0000
0000
1000
0000
0000
0100
0000
0000
0100
0000
0000
1030
0000
,
2000
0000
0001
0000
0000
0001
0000
0000
0100
0000
0000
0100
0000
0000
3001
0000
,
0002
0000
0010
0000
0000
0010
0000
0000
1000
0000
0000
1000
0000
0000
0013
0000
,
0020
0000
1000
0000
0000
1000
0000
0000
0001
0000
0000
0001
0000
0000
0130
0000
,
0200
0000
0001
0000
0000
0001
0000
0000
0010
0000
0000
0010
0000
0000
1300
0000
,
2000
0000
0010
0000
0000
0010
0000
0000
0100
0000
0000
0100
0000
0000
3001
0000
,
0200
0000
0010
0000
0000
0010
0000
0000
0010
0000
0000
0010
0000
0000
0310
0000
,
0001
0100
0001
0000
0010
0000
0100
1000
0100
0000
1000
0000
0010
0000
0100
0000
,
0001
0100
0010
0100
1000
0000
0100
0000
0001
1000
0001
0000
0010
0000
0100
0000
,
1000
0100
1000
0100
1000
0000
1000
0000
0100
0000
1000
0000
0010
0100
0001
0100
,
0001
0000
1000
0000
0100
0000
0010
0001
0010
0100
0010
0000
0001
0000
0001
0000
,
1000
0010
0100
0000
0001
0010
0100
0000
1000
0100
0010
0000
0001
0100
0010
0000
,
1000
0010
1000
0001
0100
0010
0100
0000
0001
0010
0001
1000
0100
0010
0100
0000
,
1000
0010
0100
0001
0010
0001
0100
0010
0100
0001
0010
0001
1000
0100
0001
0100
,
2000
0000
3100
0000
1001
0110
1001
0000
,
1000
0100
0010
0100
0020
0000
0031
0000
0100
0010
2000
0000
3001
0010
0200
0000
,
1300
0010
0002
0000
0013
0100
2000
0000
3100
0001
0020
0000
0130
0000
1000
0100
,
0010
0100
0001
0100
2000
0000
3010
0000
0100
0001
2000
0000
3100
0001
0200
0000
,
2300
0000
3100
0001
0200
0000
0310
0000
0001
0000
0100
0000
0010
1000
0001
0000
,
1000
0010
0100
0010
0200
0000
0301
0000
0010
0100
2000
0000
3001
0100
0020
0000
,
1030
0100
0002
0000
0103
0010
2000
0000
3010
0001
0200
0000
0310
0000
1000
0010
,
0100
0010
0001
0010
2000
0000
3100
0000
0010
0001
2000
0000
3010
0001
0020
0000
,
0130
0000
0100
0010
0100
0000
0100
0000
0001
1000
0100
0010
0002
0000
0000
0000
,
2003
0000
0000
0000
3010
0100
0001
0000
0010
0100
1000
0000
0001
0100
0010
0000
,
1000
0100
0001
0000
1000
0010
0100
0000
1000
0001
0100
0000
0010
0000
1000
0100
,
0001
1000
0010
0001
2000
0000
3010
0100
0010
1000
0002
0000
0103
1000
0100
0000
,
0002
0000
0103
1000
0100
0000
0001
0000
0101
0000
0100
0000
0010
1000
0010
0001
,
0010
1000
0010
0001
0020
0000
0230
0000
0301
0000
0010
0000
0100
1000
0100
0001
,
0100
1000
0100
0001
0200
0000
2300
0000
3001
0000
0010
0000
0100
0001
0100
1000
,
0010
0001
0010
1000
0020
0000
0230
0000
0302
0000
0023
0000
0230
0000
2300
0000
,
3010
0100
0001
0010
0100
0001
0100
0010
0001
0000
1000
0000
0120
0000
0000
0000
,
0031
0000
0000
0000
,
0000
0000
0000
0000
;
#NOTES:
     dance-double:
     :
     Easy:
     8:
     :
00000000
00000000
00000000
00000000
,
00000000
00000000
00000000
00000000
,
00000000
00000000
00000000
00000000
,
00000000
00000000
00000000
00000000
,
00000000
00000000
00000000
00000000
,
00000000
00000000
00000000
00000000
,
00000000
00000000
00000000
00000000
,
00000000
00000000
00000000
00000000
,
00000000
00000000
00000000
00000000
,
00000000
00000000
00000000
00000000
,
10000000
00100000
01000000
00010000
,
00100000
00001000
00100000
00001000
,
00010000
00000010
00001000
00000001
,
00000010
00000100
00001000
00000100
,
00010000
00001000
00010000
00001000
,
01000000
00010000
01000000
00010000
,
10000000
00100000
10000000
00000000
00010000
01000000
00010000
00000000
,
10000000
00000000
00000000
00000000
,
01000000
00100000
00010000
00100000
,
00001000
00000000
00010000
00000000
00001000
00000000
00010000
00010000
,
00000100
00001000
00000010
00000100
,
00000001
00000000
00000000
00000001
00000000
00000000
00000001
00000000
,
00001000
00001000
00000100
00000000
00010000
00000000
00001000
00000000
,
00100000
00010000
10000000
00010000
,
10000000
00100000
01000000
00000000
00010000
00100000
01000000
00000000
,
00200000
00000000
00000000
00000000
,
00310000
00010000
00100000
00001000
,
00010000
00000000
00000000
00010000
00000000
00000000
00010000
00000000
,
00000100
00001000
00000001
00000100
,
00000010
00000000
00000000
00000010
00000000
00000000
00000010
00000000
,
00000000
00001000
00001000
00000000
00000100
00000000
00010000
00000000
,
00001000
00000000
00000000
00001000
00000000
00000000
00001000
00000000
,
00100000
00010000
00100000
00000000
00010000
10000000
00010000
00000000
,
02000000
00000000
00000000
00000000
,
03100000
00000000
00000000
01000000
00000000
00000000
00100000
00000000
,
00000000
01000000
00000000
00000000
00010000
00000000
00100000
00000000
,
00001000
00000000
00000000
00010000
00000000
00000000
00001000
00000000
,
00000000
00010000
00000000
00000000
00000100
00000000
00010000
00000000
,
00000100
00000000
00000000
00001000
00000000
00000000
00000010
00000000
,
00000000
00000100
00000000
00000000
00000001
00000000
00000010
00000000
,
00000100
00000000
00000000
00001000
00000000
00000000
00000100
00000000
,
00000000
00010000
00000000
00000000
00001000
00000000
00000000
00000000
,
00020000
00000000
00032000
00000000
,
00103000
00000000
00000000
00010000
00000000
00000000
00100000
00000000
,
00020000
00000000
20030000
00000000
,
30100000
00000000
00000000
01000000
00000000
00000000
00100000
00000000
,
02000000
00000000
03020000
00000000
,
00130000
00000000
00000000
00001000
00000000
00000000
00010000
00000000
,
00000200
00000000
00000000
00002300
00000000
00000000
00003002
00000000
,
00000000
00000000
00000000
00000000
,
00001003
00000000
00000000
00000000
,
00000001
00000000
00000000
00000000
,
00000100
00000000
00000000
00000000
,
00000010
00000000
00000000
00000000
,
00001000
00000000
00000000
00000000
,
00000100
00000000
00000000
00000000
,
00010000
00000000
00000000
00000000
,
00001000
00000000
00000000
00000000
,
00100000
00010000
00100000
01000000
,
10000000
00010000
01000000
00100000
,
01000000
00010000
00100000
00001000
,
00011000
00000000
00010100
00000000
,
00000100
00001000
00000100
00001000
,
00000001
00000100
00000001
00000100
,
00000020
00000000
00000000
00000000
,
00001030
00000000
00000000
00000000
,
00000100
00010000
00001000
00010000
,
00001000
01000000
00010000
01000000
,
00100000
00000000
10000000
00000000
00010000
00000000
10000000
00100000
,
00010000
00100000
01000000
00000000
00001000
00000000
00010000
00000000
,
00000100
00001000
00000100
00001000
,
00000001
00000100
00000001
00000100
,
00000010
00001000
00000001
00000000
00000010
00000100
00000010
00000000
,
00000200
00000000
00000000
00000000
,
00001300
00001100
00000100
00010000
,
00001000
00000000
00010000
00000000
00001000
00100000
00010000
00000000
,
10000000
01000000
00010000
01000000
,
00100000
00010000
00100000
00000000
00001000
00010000
00000100
00000000
,
00001000
00000001
00000010
00000100
,
00001000
00000100
00010000
00001000
,
00010000
00001000
01000000
00000000
00010000
01000000
00100000
00000000
,
20000000
00000000
00000000
00000000
,
30010000
00000000
00000000
00000000
,
00000000
00000000
00000000
00000000
;
#NOTES:
     dance-double:
     :
     Medium:
     14:
     :
00000000
00000000
00000000
00000000
,
00000000
00000000
00000000
00000000
,
00000000
00000000
00000000
00000000
,
00000000
00000000
00000000
00000000
,
00000000
00000000
00000000
00000000
,
00000000
00000000
00000000
00000000
,
00000000
00000000
00000000
00000000
,
00000000
00000000
00000000
00000000
,
00000000
00000000
00000000
00000000
,
00000000
00000000
00000000
00000000
,
00000001
00000010
00000100
00001000
,
00001100
00000100
00010000
00001000
,
00101000
00100000
00010000
10000000
,
10010000
00010000
01000000
00001000
,
00010000
00000100
00001000
00000100
00010000
00000100
00001000
00000100
,
00000010
00000001
00000010
00000100
00001000
00000010
00000100
00000001
,
00000100
00001000
00010000
00100000
01000000
10000000
01000000
00010000
,
00100000
00000000
00001000
00010000
00001000
00000000
00010000
00000000
00000010
00000000
00001000
00000000
00001001
00000000
00000000
00000000
,
00001000
00000000
00000001
00000100
00000001
00000000
00001000
00000000
00000100
00000000
00010000
00000000
00000010
00000000
00001000
00000000
,
00000100
00000000
00010000
00001000
00010000
00000000
00001000
00000000
00100000
00000000
00010000
00000000
10000000
01000000
00000000
00000000
,
00100000
00000000
01000000
10000000
01000000
00000000
00100000
00000000
00010000
00000000
10000000
00000000
01000000
00000000
00010000
00000000
,
00001000
00000000
00000000
00011000
00000000
00000000
00010000
00000000
00000000
00010010
00000000
00000000
00000010
00000000
00001000
00000000
,
00000001
00000100
00000101
00000000
00001000
00000100
00000010
00000100
,
00001000
00000000
00000100
00010000
00001000
00000000
00010000
00000000
00001000
00000000
00000000
01000000
00010000
00000000
10000000
00000000
,
00100000
00000000
01000000
00000000
00100000
00000000
01000000
00000000
00010000
10000000
00010000
10000000
00010000
00000000
00100000
00000000
,
00001000
00001000
00000010
00000010
00000001
00000001
00000101
00000000
,
00000100
00000000
00000001
00000100
00000001
00000000
00001000
00000000
00000010
00000000
00000100
00000000
00001000
00000000
00010000
00000000
,
00100000
00000000
00000000
10010000
00000000
00000000
01000000
00000000
00000000
10010000
00000000
00000000
00010000
00000000
00100000
00000000
,
01000000
00000000
10000000
00100000
01000000
00000000
00100000
00000000
10000000
00000000
00100000
00000000
01000000
00000000
00001000
00000000
,
00010000
00001000
00000000
00010000
00001000
00000000
00010000
00001000
00000000
00010000
00001000
00000000
00010000
00000000
00000020
00000000
,
00000000
00000130
00000100
00000001
00000010
00000100
00000010
00000001
,
00001000
00000000
00000000
00000110
00000000
00000000
00000001
00000000
00000000
00000110
00000000
00000000
00001000
00000000
00000001
00000000
,
00000100
00000000
00000010
00000000
00000100
00000000
00001000
00000000
00010000
00001000
00010000
00001000
00010000
00001000
00010000
00001000
,
00100000
00000000
00100000
00010000
10000000
00100000
01100000
00000000
,
20200000
30300000
00000000
02200000
03300000
00000000
20020000
30030000
,
00000000
00220000
00330000
00000000
00202000
00000000
00303000
00000000
,
00022000
00033000
00000000
00020020
00030030
00000000
00000220
00000330
,
00000000
00000202
00000303
00000000
00001001
00000000
00001100
00000000
,
00020200
00030300
00000000
00022000
00033000
00000000
02002000
03003000
,
00000000
02020000
03030000
00000000
20020000
00000000
30030000
00000000
,
22000000
33000000
00000000
00220000
00330000
00000000
00022000
00033000
,
00000000
00002200
00003300
00000000
00000001
00000010
00000100
00001000
,
00000002
00000000
00001003
00000010
00000100
00000001
00002000
00000000
,
00003001
00000100
00001000
00000100
00000001
00000100
00002000
00000000
,
00023000
00000000
00031000
01000000
00100000
01000000
00020000
00000000
,
10030000
01000000
00010000
01000000
10000000
01000000
00020000
00000000
,
00031000
00000010
00000100
00001000
00000001
00000010
00000100
00001000
,
00000010
00000100
00000001
00000100
00000010
00001000
00010000
01000000
,
00100000
00000000
10000000
00000000
01000000
00000000
00100000
00000000
00001000
00010000
00001000
00010000
00001000
00010000
00001000
00010000
,
00000000
00000000
00000000
00000000
,
00000200
00000000
00000000
00000000
,
00002300
00000000
00000000
00000000
,
00003020
00000000
00000000
00000000
,
00000230
00000000
00000000
00000000
,
00000302
00000000
00000000
00000000
,
00000023
00000000
00000000
00000000
,
00000230
00000000
00000000
00000000
,
00000000
00000000
00000000
00000000
,
00010300
00001000
00010000
00011000
,
00001000
00100000
00110000
10010000
,
10000000
00100000
01000000
00010000
,
01010000
00011000
00001100
00000101
,
00000001
00001000
00000010
00001000
00000100
00000010
00000100
00000001
,
00000100
00000010
00000001
00000010
00000100
00001000
00010000
00100000
,
01000000
00000000
10000000
00000000
00010000
00000000
01000000
00000000
00001000
00010000
00001000
00010000
00001000
00010000
00001000
00010000
,
00002000
00013000
00010100
00001001
,
00001000
00000100
00000010
00000100
00001000
00000010
00000100
00000001
,
00000100
00000000
00001000
00000000
00010000
00000000
00100000
00000000
01000000
00100000
01000000
00000000
00010000
00000000
10000000
00000000
,
01000000
00100000
00100000
01000000
10000000
01000000
00100000
00100000
,
00001000
00000000
00010000
00000000
00010000
00000000
00000100
00000000
00001000
00000000
00000100
00000000
00000010
00000001
00000010
00000000
,
00000001
00001000
00001000
00000010
00000100
00000010
00000001
00000010
,
00000100
00001000
00000100
00000010
00010000
00001000
00001000
00100000
,
00010000
01000000
01000000
00100000
10000000
00010000
10000000
00010000
,
00100000
00000000
01000000
10000000
00010000
00000000
00100000
00000000
00001000
00010000
00001000
00000000
00010000
00000000
00000100
00000000
,
00002000
00000000
00003001
00000010
00000100
00000001
00000100
00000010
,
00000001
00000000
00001000
00000000
00000010
00000000
00000100
00000010
00000100
00000000
00000001
00000000
00000100
00000000
00001000
00000000
,
00010000
00000000
00001000
00000000
00001000
00000000
00100000
00000000
00010000
00100000
01000000
00000000
10000000
00000000
10000000
00000000
,
00100000
00000000
01000000
00000000
01000000
00000000
00100000
00000000
00010000
00000000
00001000
00000000
00010000
00000010
00001000
00000000
,
00000001
00000000
00001000
00000001
00000010
00000000
00000100
00000000
00001000
00000000
00010000
00000000
00100000
01000000
00100000
00000000
,
00010000
00000000
10000000
00010000
01000000
00000000
00100000
00000000
00010000
00000000
00001000
00000000
00000100
00000010
00000100
00000000
,
00000001
00000000
00000010
00000100
00002000
00000000
00000000
00000000
00000000
00000000
00000000
00000000
00000000
00000000
00000000
00000000
,
00000000
00000000
00000000
00000000
,
00003000
00000000
00000000
00000000
,
00000000
00000000
00000000
00000000
;
#NOTES:
     dance-double:
     :
     Hard:
     17:
     :
00000000
00000000
00000000
00000000
,
00000000
00000000
00000000
00000000
,
00000000
00000000
00000000
00000000
,
00000000
00000000
00000000
00000000
,
00000000
00000000
00000000
00000000
,
00000000
00000000
00000000
00000000
,
00000000
00000000
00000000
00000000
,
00000000
00000000
00000000
00000000
,
00000000
00000000
00000000
00000000
,
00000000
00000000
00000000
00000000
,
10000000
00000000
01000000
00000000
00100000
00000000
00010000
00010000
,
00100000
01000000
10000000
00100000
,
01000000
00000000
00001000
00000000
00010000
00000000
00000100
00000100
,
00001000
00000001
00000011
00000000
,
00001000
00000100
00001000
00000010
00010000
00001000
01000000
00100000
,
10000000
01000000
00010000
00001000
00000010
00000100
00001000
00000001
,
00000100
00000010
00000100
00000000
00000001
00001000
00000001
00000000
00001000
00000100
00001000
00000000
00000100
00010000
00000100
00000000
,
00020000
00000000
00031000
01000000
00100000
00000000
01000000
00000000
00010000
10000000
01000000
00000000
10010000
00000000
00000000
00000000
,
10000000
00000000
00010000
10000000
00010000
01000000
00100000
00000000
01000000
00100000
01000000
00010000
00100000
00001000
00010000
00000000
,
00000100
00001000
00000100
00000010
00000001
00000000
00000100
00000010
00001000
00000010
00010000
00001000
00100000
00010000
00000000
00000000
,
10000000
00000000
00010000
00100000
01000000
10000000
00010000
00000000
10000000
00100000
01000000
00010000
00100000
01000000
10000000
00010000
,
00100000
00000000
00000000
00101000
00000000
00000000
00011000
00000000
00000000
00010100
00000000
00000000
00001100
00000000
00000100
00000000
,
00000110
00000000
00000010
00000001
00001000
00000010
00000100
00000000
00000001
00000100
00000010
00001000
00000010
00010000
00001000
00000000
,
00100000
00010000
00100000
01000000
10000000
01000000
00100000
00010000
01000000
00100000
00010000
00001000
00010000
00000000
00010000
00000000
,
00000100
00000000
00001000
00000000
00000100
00000000
00000001
00000000
00000100
00001000
00000010
00000001
00000010
00000000
00000100
00000000
,
00001000
00000000
00010000
00001000
00100000
00000000
00100000
00010000
01000000
00000000
01000000
00000000
01100000
00000000
00000000
00000000
,
10000000
00000000
00010000
01000000
00010000
10000000
00100000
00000000
01000000
00001000
00010000
01000000
00100000
00001000
00010000
00000000
,
00001000
00000100
00000000
00000001
00000010
00000000
00001000
00010000
00000000
01000000
10000000
00000000
00010000
00000000
00100000
00000000
,
00001000
00000000
00010000
00001000
00010000
00000100
00000010
00000000
00000001
00000010
00000100
00001000
00000010
00000100
00000001
00000000
,
00000100
00001000
00000000
00010000
00100000
00000000
10000000
01000000
00000000
00010000
00001000
00000000
00010000
00000000
00010000
00000000
,
00000000
00000000
00010100
00000000
00000100
00001000
00000100
00000000
00001000
00000010
00000100
00000001
00000100
00000010
00000100
00000000
,
00000101
00000000
00000000
00001100
00000000
00000000
00011000
00000000
00000000
00110000
00000000
00000000
01100000
00000000
10000000
00000000
,
00010000
00000000
00100000
00000000
01000000
00000000
10000000
00000000
00010000
00100000
00001000
00010000
00000100
00001000
00000001
00000010
,
00000100
00000000
00001000
00000010
00000100
00000000
00000100
00000001
00000010
00000100
00001000
00000100
00020000
00000000
00000000
00000000
,
00032000
00000000
00103000
02000000
00000000
13000000
00200000
00000000
,
00310000
00000000
00002000
00000000
00000000
00000000
00013000
00000000
00000100
00000010
00000001
00000000
00000200
00000000
00000000
00000000
,
00002300
00000000
00013000
00200000
00000000
10300000
02000000
00000000
,
03010000
00000000
00002000
00000000
00000000
00000000
00003010
00000000
00000001
00000100
00000010
00000000
00001000
00000000
00000010
00000000
,
00000200
00000000
00001300
00020000
00000000
00031000
00000200
00000000
,
00000301
00000000
00002000
00000000
00000000
00000000
00003100
00000000
00010000
00001000
01000000
00000000
00200000
00000000
00000000
00000000
,
20300000
00000000
30100000
00020000
00000000
00031000
00000200
00000000
,
00000310
00000000
00002000
00000000
00000000
00000000
00003001
00000000
00000010
00000001
00000100
00000000
00000010
00000000
00001010
00000000
,
00002000
00000000
00003001
00000010
00000100
00010000
00001000
00100000
,
00010000
00000000
01000000
00000000
00100000
00000000
00010000
00000000
00001000
00000100
00000010
00000000
00002000
00000000
00000000
00000000
,
00003002
00000000
00000013
00000100
00001000
00010000
00100000
01000000
,
10000000
00000000
01000000
00000000
00100000
00000000
00010000
00000000
00001000
00000100
00000010
00000000
00000002
00000000
00000000
00000000
,
00000103
00000010
00000100
00000010
00010000
00001000
00010000
00001000
,
00100000
01000000
00100000
01000000
10000000
00010000
10000000
00010000
,
01000000
00001000
01000000
00001000
00010000
00001000
00010000
00001000
00010000
00000100
00001000
00000100
00000010
00000001
00001000
00000100
,
00000000
00000000
00000000
00000000
,
00002000
00000000
00000010
00000000
00000000
00000010
00000000
00000000
00000001
00000000
00000000
00000001
00000000
00000000
00003010
00000000
,
00020000
00000000
00001000
00000000
00000000
00001000
00000000
00000000
00000010
00000000
00000000
00000010
00000000
00000000
00031000
00000000
,
00200000
00000000
00010000
00000000
00000000
00010000
00000000
00000000
01000000
00000000
00000000
01000000
00000000
00000000
00310000
00000000
,
20000000
00000000
00100000
00000000
00000000
00100000
00000000
00000000
01000000
00000000
00000000
01000000
00000000
00000000
30010000
00000000
,
00020000
00000000
01000000
00000000
00000000
01000000
00000000
00000000
10000000
00000000
00000000
10000000
00000000
00000000
01030000
00000000
,
00002000
00000000
00010000
00000000
00000000
00010000
00000000
00000000
00100000
00000000
00000000
00100000
00000000
00000000
00013000
00000000
,
00000020
00000000
00001000
00000000
00000000
00001000
00000000
00000000
00000100
00000000
00000000
00000100
00000000
00000000
00001030
00000000
,
00000002
00000000
00000010
00000000
00000000
00000010
00000000
00000000
00000010
00000000
00000000
00000010
00000000
00000000
00000013
00000000
,
00000100
00001000
00000100
00000001
00000100
00001000
00000010
00000100
,
00001000
00000000
00010000
00000000
00100000
00000000
01000000
00000000
00010000
10000000
00010000
00000000
00100000
00000000
00000000
00000000
,
00010000
00100000
01000000
00000000
00100000
00000000
00010000
00000000
10000000
00000000
01000000
00000000
00100000
00001000
00010000
00000000
,
00000010
00000000
00001000
00000000
00000100
00000000
00000010
00000001
00000010
00000001
00000010
00000000
00000100
00000000
00000000
00000000
,
00001000
00000010
00001000
00000000
00000010
00010000
00000010
00000000
00010000
00001000
00100000
00000000
00010000
10000000
01000000
00000000
,
00100000
00010000
00100000
00000000
00001000
00100000
00001000
00000000
00010000
00000100
00001000
00000000
00000001
00000010
00000100
00000000
,
00000010
00000001
00000010
00000001
00001000
00000100
00001000
00000100
00010000
00001000
00010000
00001000
01000000
00010000
01000000
00010000
,
20000000
00000000
30100000
00000000
10000000
00100000
10010000
00000000
,
00010000
00100000
01000000
00100000
00020000
00000000
00130000
00000000
00001000
00010000
00000200
00000000
00000310
00000001
00000020
00000000
,
00000130
00001000
00000002
00000000
00000103
00001000
00020000
00000000
00130000
10000000
00200000
00000000
01300000
00000000
00010000
00000000
,
01000000
00001000
00010000
00001000
00020000
00000000
00030010
00000000
00001000
00000100
00000020
00000000
00000031
00000100
00000020
00000000
,
00002030
00000000
00003010
00010000
00002000
00000000
00013000
00000000
00001000
00000000
00000100
00000000
00000001
00000000
00000000
00000000
,
00001000
00000010
00000100
00000010
00002000
00000000
00003010
00000000
00010000
00001000
02000000
00000000
03010000
10000000
00200000
00000000
,
01300000
00010000
20000000
00000000
31000000
00010000
00002000
00000000
00003010
00000001
00000020
00000000
00000031
00000000
00001000
00000000
,
00000100
00010000
00001000
00010000
00002000
00000000
00103000
00000000
00010000
01000000
00200000
00000000
10300000
01000000
00200000
00000000
,
00310000
00000000
00010000
00100000
00001000
00000000
00010000
00000000
00001000
00000100
00000001
00000100
00000020
00000000
00000000
00000000
,
00002030
00000000
00000000
00000000
00003001
00000100
00000020
00000000
00001030
00000100
00020000
00000000
00031000
00100000
00020000
00000000
,
10030000
00100000
02000000
00000000
03010000
10000000
02000000
00000000
03010000
00001000
00000200
00000000
00000301
00000000
00000010
00000001
,
00000100
00001000
00000100
00000001
00000200
00000000
00000310
00001000
00000100
00010000
00002000
00000000
01003000
00010000
01000000
00000000
,
20000000
00000000
31000000
00010000
01000000
00000000
00100000
00000000
10000000
00000000
10000000
00000000
00010000
00000000
00010000
00000000
,
01000000
10000000
01000000
00010000
02000000
00000000
03200000
00000000
00310000
00000000
00001000
00000000
00000100
00000000
00000001
00000000
,
00000010
00001000
00000010
00000001
00000020
00000000
00002030
00000000
00013000
00000000
00100000
00000000
10000000
00000000
00010000
00000000
,
10000000
01000000
00010000
00001000
00000020
00000000
00000032
00000000
00002003
00000000
00003002
00000000
00000203
00000000
00002300
00000000
,
00023000
02030000
23000000
30020000
00130000
00001000
00012000
00000000
,
00003010
00000000
00000000
00000000
,
00000000
00000000
00000000
00000000
;
