
//----- song ID: gltr -----//
#TITLE:GLITTER;
#ARTIST:Sota Fujimori 2nd Season;
#BANNER:GLITTER.png;
#BACKGROUND:GLITTER-bg.png;
#CDTITLE:./CDTitles/RB colette -Winter-.png;
#MUSIC:GLITTER.ogg;
#SAMPLESTART:54.858;
#SAMPLELENGTH:15;
#BPMS:0=184;
#STAGE:15;
#NOTES:
     dance-single:
     :
     Beginner:
     4:
     :
0000
0000
0000
0000
,
0000
0000
0000
0000
,
0000
0000
0000
0000
,
0000
0000
0000
0000
,
0000
0000
0000
0000
,
0000
0000
0000
0000
,
1000
0000
0000
0000
,
0001
0000
1000
0000
,
0001
0000
0000
0000
,
1000
0000
0001
0000
,
0100
0000
0000
0000
,
0010
0000
0100
0000
,
0010
0000
0000
0000
,
0100
0000
0010
0000
,
1000
0000
0000
0000
,
0100
0000
0000
0000
,
0010
0000
0000
0000
,
0001
0000
0000
0000
,
1000
0000
0000
0000
,
0010
0000
0000
0000
,
0100
0000
0000
0000
,
0001
0000
0000
0000
,
2000
0000
0000
3000
,
0002
0000
0000
0003
,
2000
0000
0000
3000
,
0020
0000
0000
0030
,
0200
0000
0000
0300
,
0020
0000
0000
0030
,
2000
0000
0000
3000
,
0001
0000
0001
0000
,
0100
0000
0010
0000
,
0100
0000
0000
0000
,
0001
0000
1000
0000
,
0001
0000
0000
0000
,
1000
0000
0010
0000
,
1000
0000
0010
0000
,
0100
0000
0000
0000
,
0001
0000
0000
0000
,
1001
0000
0000
0000
,
0010
0000
0010
0000
,
0110
0000
0000
0000
,
1000
0000
0001
0000
,
0010
0000
0001
0000
,
0010
0000
0001
0000
,
1000
0000
0100
0000
,
1000
0000
0100
0000
,
1000
0000
0010
0000
,
1000
0000
0010
0000
,
0100
0000
0001
0000
,
0100
0000
0001
0000
,
1000
0000
0100
0000
,
0010
0000
0001
0000
,
1000
0000
0100
0000
,
0010
0000
0001
0000
,
0100
0000
0010
0000
,
0100
0000
0010
0000
,
1000
0000
0001
0000
,
1000
0000
0001
0000
,
0010
0000
0100
0000
,
0010
0000
0000
0000
,
0001
0000
0010
0000
,
0100
0000
1000
0000
,
0010
0000
0100
0000
,
0010
0000
0000
0000
,
1000
0000
0100
0000
,
0010
0000
0001
0000
,
1000
0000
0000
0000
,
0001
0000
1000
0000
,
0010
0000
0000
0000
,
0100
0000
0010
0000
,
0100
0000
0000
0000
,
0001
0000
0010
0000
,
0100
0000
0000
0000
,
1000
0000
0010
0000
,
1000
0000
0001
0000
,
0010
0000
0001
0000
,
1000
0000
0010
0000
,
1000
0000
0100
0000
,
0010
0000
0001
0000
,
1000
0000
0010
0000
,
0100
0000
0001
0000
,
1000
0000
0001
0000
,
1001
0000
0000
0000
,
0001
0000
0100
0000
,
0010
0000
1000
0000
,
0010
0000
0100
0000
,
0110
0000
0000
0000
,
1000
0000
0001
0000
,
1000
0000
0100
0000
,
0010
0000
0100
0000
,
1000
0000
0001
0000
,
0000
0000
0000
0000
;
#NOTES:
     dance-single:
     :
     Easy:
     8:
     :
0000
0000
0000
0000
,
0000
0000
0000
0000
,
0000
0000
0000
0000
,
0000
0000
0000
0000
,
0000
0000
0000
0000
,
0000
0000
0000
0000
,
0001
0000
0001
0000
0000
1000
0100
0000
,
1000
1000
0010
0100
,
0010
0000
0010
0000
0000
1000
0001
0000
,
0010
0010
0100
1000
,
0001
0000
0001
0000
0000
1000
0010
0000
,
1000
1000
0100
0010
,
0100
0000
0100
0000
0000
1000
0001
0000
,
0100
0100
0010
1000
,
0001
0000
0100
0000
0001
0100
0001
0000
,
1000
0000
0010
0000
1000
0010
1000
0000
,
0001
0000
0010
0000
0001
0010
0001
0000
,
0000
0100
0010
0000
0100
0010
0100
0000
,
0010
0000
1000
0000
0001
1000
0001
0000
,
0010
0000
0001
0000
1000
0001
1000
0000
,
0100
0000
0010
0000
0001
0010
0001
0000
,
0000
0100
0010
0000
1000
0010
1000
0000
,
0002
0000
0000
0003
,
0200
0000
0000
0300
,
0020
0000
0000
0030
,
2000
0000
0000
3000
,
0002
0000
0023
0000
,
0230
0000
2300
0000
,
3002
0000
0000
0003
,
0200
0000
0310
0100
,
0001
0000
1000
0000
,
0200
0000
0000
0300
,
1000
0000
0001
0000
,
0200
0000
0320
0000
,
1030
0000
1000
0000
,
0100
0000
0100
0000
,
0020
0000
0000
0030
,
0001
0000
0000
0000
1000
1000
1000
0000
,
0010
0000
0000
0010
0000
0000
0010
0000
0000
0010
0000
0000
0010
0000
0000
0000
,
0100
0001
0100
0001
,
0010
0000
0000
0010
0000
0000
0010
0000
0000
0010
0000
0000
0010
0000
0000
0000
,
0100
1000
0001
1001
,
1000
0000
0010
0000
0100
0000
0010
0100
,
0010
0000
1000
0000
0001
0000
0010
0001
,
0010
0000
0001
0000
0100
0000
0010
0100
,
0010
0000
1000
0000
0100
0000
1000
0001
,
1000
0000
0100
0000
0010
0000
0001
1000
,
0001
0000
0100
0000
0010
0000
1000
0010
,
1000
0001
0100
0010
,
1000
1000
0001
1001
,
0001
0000
0010
0000
0100
0000
0010
0100
,
0010
0000
0001
0000
1000
0000
0010
1000
,
0010
0000
1000
0000
0100
0000
0010
0100
,
0010
0000
0001
0000
0100
0000
0001
1000
,
0001
0000
0100
0000
0010
0000
1000
0001
,
1000
0000
0100
0000
0010
0000
0001
0010
,
0001
0000
1000
0000
0100
0000
1000
0010
,
1000
0000
0001
0000
0010
0100
0010
0000
,
0001
0001
2000
0000
,
3001
0010
0100
0000
,
1000
0010
0100
0100
,
0001
0010
0100
1000
,
0010
0010
0200
0000
,
0310
1000
0001
0000
,
1000
1000
0100
0010
,
0001
1000
0010
0100
,
0001
0001
1000
0000
,
0010
0100
0010
0000
,
1000
1000
0001
0000
,
0100
0001
0010
0100
,
0010
0010
0001
0000
,
1000
0100
1000
0000
,
0010
0010
1000
0000
,
0001
1000
0100
0010
,
0001
1000
0010
0110
,
1000
0001
0010
0001
,
0100
0010
0100
0000
0010
0000
1000
0000
,
0001
0010
0100
0010
,
0001
0000
1000
0000
0010
0100
0010
0000
,
1000
0100
0010
0100
,
1000
0010
1000
0000
0001
0000
0100
0000
,
0001
0010
0100
1000
,
0000
0010
0000
0010
0000
0000
0000
0100
0000
0100
0000
0000
0010
0000
0000
0000
,
1000
0001
0100
0001
,
0010
0100
0010
0000
0100
0000
1000
0000
,
0001
0100
0010
0100
,
0000
1001
0000
0000
1000
0001
1000
0000
,
0001
0100
0010
0100
,
0001
0010
0001
0000
1000
0000
0100
0000
,
1000
0010
0100
0001
,
0000
1000
0000
1000
0000
0000
0000
0001
0000
0001
0000
0000
0010
0000
0010
0000
,
0000
0000
0000
0000
;
#NOTES:
     dance-single:
     :
     Medium:
     12:
     :
0000
0000
0000
0000
,
0000
0000
0000
0000
,
0000
0000
0000
0000
,
0000
0000
0000
0000
,
0000
0000
0000
0000
,
0000
0000
0000
0000
,
0010
0000
0000
0010
0000
0000
0100
0000
0000
0000
0001
0000
1000
0000
0000
0000
,
0100
0000
0000
0100
0000
0000
0010
0000
0100
0000
0000
1000
0000
0000
0001
0000
,
0100
0000
0000
0100
0000
0000
0010
0000
0000
0000
1000
0000
0001
0000
0000
0000
,
0010
0000
0000
0001
0000
0000
0100
0000
0001
0000
0000
1000
0000
0000
0100
0000
,
1000
0000
0000
1000
0000
0000
0010
0000
0000
0000
0100
0000
0010
0000
0000
0000
,
0100
0000
0000
0100
0000
0000
0001
0000
0010
0000
0000
0100
0000
0000
1000
0000
,
0010
0000
0000
0010
0000
0000
0100
0000
0000
0000
0001
0000
1000
0000
0000
0000
,
0001
0000
0000
0010
0000
0000
0100
0000
0010
0000
0000
0001
0000
0000
1000
0000
,
0010
0000
1000
0000
0100
0000
0000
0000
0010
0000
0001
0000
1000
0000
0000
0001
,
0000
0100
0010
0000
1000
0100
0010
0000
,
0001
0100
0010
0000
1000
0100
1000
0010
,
0000
0100
0001
0000
0100
0010
1000
0001
,
0100
0000
0001
0000
0010
0000
0000
0000
0100
0000
1000
0000
0001
0000
0000
1000
,
0000
0010
0100
0000
0001
0010
0100
0000
,
1000
0001
0100
0000
0010
1000
0100
1000
,
0000
0001
0010
0000
0100
1000
0001
0000
,
1000
0100
0010
0001
0000
0100
0010
0200
,
0000
0000
0000
0000
0000
0301
1000
0020
,
0000
0000
0000
0000
0000
0130
0010
0200
,
0000
0000
0301
0010
0000
0001
1000
0000
,
0001
0010
0001
0010
0100
2000
0000
3020
,
0000
0130
0010
2000
0000
3001
0000
0010
,
0002
0000
0000
0000
0000
0103
0010
0200
,
0000
0000
0310
1000
0000
0001
0010
0000
,
0001
1000
0100
0010
0000
0001
0100
0002
,
0000
0000
0000
0000
0000
1003
0010
0100
,
0000
0010
0100
0010
0000
1000
0001
0010
,
0000
0001
0010
0100
0000
1000
0010
0000
,
1000
0001
0010
0100
1000
0001
0000
0200
,
0000
0310
0100
0002
0000
1003
1000
1000
,
0020
0000
0000
0000
0000
1030
0010
0100
,
0000
0000
0001
0010
0010
0010
0010
0000
,
0001
0000
0000
0100
0000
0000
0001
0000
0000
1000
0000
0000
0100
0000
0000
0000
,
1000
0000
0000
1000
0000
0000
1000
0000
0001
0000
0010
0000
0100
0000
0000
0000
,
1000
0000
0000
0010
0000
0000
1000
0000
0000
0001
0000
0000
0100
0000
0000
0000
,
0010
0010
0010
0100
0100
0100
0110
0000
,
1000
0000
0000
0100
0000
0000
0010
0000
0000
0001
0000
0000
1000
0000
0001
0000
,
1000
0000
0000
0100
0000
0000
0010
0000
0000
0100
0000
0000
1000
0000
0010
0000
,
0100
0000
0100
0000
0000
0000
0001
0000
0000
0010
0000
0000
0001
0000
0100
0000
,
0010
0000
0000
1000
0000
0000
0010
0000
0000
0100
0000
0000
0001
0000
0010
0000
,
0001
0000
0000
0100
0000
0000
0010
0000
0000
1000
0000
0000
0001
0000
1000
0000
,
0001
0000
0000
0100
0000
0000
0010
0000
0000
0100
0000
0000
0001
0000
0010
0000
,
0100
0000
0100
0000
0000
0000
1000
0000
0000
0010
0000
0000
1000
0000
0000
1001
,
0000
0000
0000
0001
0000
0000
0100
0000
0000
0010
0000
0000
1000
0000
1000
0000
,
0001
0000
0000
0010
0000
0000
0100
0000
0000
1000
0000
0000
0001
0000
1000
0000
,
0001
0000
0000
0010
0000
0000
0100
0000
0000
0010
0000
0000
0001
0000
0100
0000
,
0010
0000
0010
0000
0000
0000
1000
0000
0000
0100
0000
0000
1000
0000
0010
0000
,
0100
0000
0000
0001
0000
0000
0100
0000
0000
0010
0000
0000
1000
0000
0100
0000
,
1000
0000
0000
0010
0000
0000
0100
0000
0000
0001
0100
0000
0010
0000
1000
0000
,
0001
0000
0000
0100
0000
0000
0010
0000
0000
1000
0010
0000
0100
0000
0001
0000
,
1000
0000
1000
0000
0000
0000
0001
0000
0000
0010
0001
0000
1000
0000
0010
0000
,
1000
0000
0000
0001
0000
0000
0100
0000
0010
0000
1000
0000
0100
0000
0010
0000
,
0001
0000
0001
0000
1000
0000
0010
0200
,
0000
0301
2000
0000
3100
0000
0010
0000
,
0001
0000
0100
0000
0001
0000
0000
0200
0000
0000
0000
0000
0320
0000
0000
0000
,
1030
0002
0023
0000
,
0031
0000
0001
0000
2000
0000
3010
0200
,
0000
0310
2000
0000
3001
0100
0010
0000
,
1000
0100
1000
0100
1000
0100
0010
0000
,
0001
2000
3200
0000
,
1300
0000
0000
1000
0000
0000
1000
0000
0010
0000
0000
0000
0100
0000
0020
0000
,
0000
1030
0100
0010
0000
0001
0100
0000
,
0001
0000
0000
0001
0000
0000
0001
0000
0010
0000
0100
0000
0010
0000
0000
0000
,
0001
2000
3020
1000
,
0130
0000
0000
0100
0000
0000
0100
0000
0001
0000
0000
0000
1000
0000
0002
0000
,
0000
0013
0100
1000
0000
0001
1000
0000
,
0010
0000
0000
0010
0000
0000
0010
0000
1000
0000
0100
0000
0010
0000
0000
0000
,
0110
0011
0101
1100
,
1000
0001
0001
0100
0100
0100
0010
0000
,
1000
0000
0000
0001
0000
0000
0010
0000
0000
0001
0000
0000
0100
0000
0000
0010
,
0000
0000
1000
0010
0000
0000
1000
0000
0000
0100
0010
0000
0001
0000
0010
0000
,
0001
0000
0000
0100
0000
0000
0010
0000
0000
0100
0000
0000
0001
0000
1000
0010
,
0000
1000
0000
0000
0000
0000
0100
0010
0000
0100
0000
0000
0010
0000
0001
0000
,
1000
0000
0000
0100
0000
0000
0010
0000
0000
0100
0000
0000
1000
0000
0000
0001
,
0000
0000
0010
0001
0000
0000
0100
0000
0000
0010
0100
0000
0010
0000
1000
0000
,
0100
0000
0000
0010
0000
0000
0001
0000
0000
0010
0000
0000
0100
0000
1000
0001
,
0000
0100
0000
0100
0000
0000
0000
0010
0000
0010
0000
0000
1001
0000
0000
0000
,
0001
0000
0000
0100
0000
0000
0010
0000
0000
1000
0000
0000
0010
0100
0000
0010
,
0000
0000
1000
0100
0000
0000
1000
0000
0000
0001
0010
0000
0100
0000
1000
0000
,
0001
0000
0000
0010
0000
0000
0100
0000
0000
1000
0000
0000
0100
0000
0010
0100
,
0000
1001
0000
1000
0100
0010
0001
0000
,
0100
0000
0000
0010
0000
0000
1000
0000
0000
0001
0000
0000
0010
0100
0000
0010
,
0000
0000
0001
0100
0000
0000
0010
0000
0000
1000
0001
0000
1000
0000
0100
0000
,
1000
0000
0000
0001
0000
0000
0000
1000
0000
0000
0001
0000
0100
0000
0010
0100
,
0000
0001
0000
0001
0000
0000
0000
0010
0000
0010
0000
0000
0100
0000
0100
0000
,
0000
0000
0000
0000
;
#NOTES:
     dance-single:
     :
     Hard:
     16:
     :
0000
0000
0000
0000
,
0000
0000
0000
0000
,
0000
0000
0000
0000
,
0000
0000
0000
0000
,
0000
0000
0000
0000
,
0000
0000
0000
0000
,
1100
0000
0000
1001
0000
0000
0011
0000
0000
0000
1000
0000
0010
0100
0010
0000
,
1010
0000
0000
0101
0000
0000
1000
0000
0100
0000
1000
0010
0000
0000
0100
0000
,
0101
0000
0000
1001
0000
0000
1010
0000
0000
0000
0001
0000
0010
0100
0010
0000
,
0011
0000
0000
1100
0000
0001
0100
0000
0010
0000
1000
0100
0000
0000
0010
0000
,
0011
0000
0000
1001
0000
0000
1100
0000
0000
0000
0001
0000
0100
0010
0100
0000
,
0101
0000
0000
1010
0000
0000
0001
0000
0010
0000
0001
0100
0000
0000
0010
0000
,
1010
0000
0000
1001
0000
0000
0101
0000
0000
0000
1000
0000
0100
0010
0100
0000
,
1100
0000
0000
0011
0000
0001
0100
0000
0010
0000
1000
0100
0000
0000
0010
0000
,
0001
0000
0010
0000
0100
0000
0000
0000
0010
0000
0001
1000
0100
0000
0000
1000
,
0000
0010
0100
0000
0001
0000
0000
0000
1000
0000
0010
1000
0001
0000
0100
0000
,
0001
0000
0010
0000
0100
0000
0000
0000
1000
0000
0010
0100
0001
0000
1000
0000
,
0000
0000
0100
0000
0010
0000
0000
0000
0100
0000
1000
0100
0010
0000
0001
0010
,
0100
0000
1000
0000
0001
0000
0000
0000
0100
0000
0001
0100
0010
0000
0000
1000
,
0000
0010
0100
0000
0010
0000
0000
0000
1000
0000
0001
0010
0100
0000
0010
0000
,
0001
0000
1000
0000
0010
0000
0000
0000
0100
0000
0010
1000
0001
0000
1000
0000
,
0000
0000
0100
0000
0010
0000
0000
0000
0001
0000
0010
0100
1000
0000
0010
0100
,
0010
1000
0100
0020
0000
0031
0100
0020
,
0000
0000
0000
0000
0000
1030
0001
0200
,
0000
0000
0000
0000
0000
0301
0010
0200
,
0000
0000
1300
0020
0000
1030
0001
0000
,
0010
0001
1000
0010
0100
0002
0000
2003
,
0000
3100
0010
0002
0000
2003
0000
3100
,
0020
0000
0000
0000
0000
0031
0100
0020
,
0000
0000
1030
0002
0000
1003
0100
0000
,
0010
0000
0100
0010
0100
0000
2000
0000
0000
0000
3001
0000
0100
0010
0200
0000
,
0000
0000
0000
0000
0000
0000
0000
0000
0000
0000
0301
0000
1000
0010
0200
0000
,
0000
0000
0301
0000
0100
0000
0002
0000
0000
0000
0013
0100
0010
0000
0002
0000
,
0000
1003
0010
2000
0000
3100
0010
0000
,
0001
0000
0100
0010
0100
0000
0001
0000
1000
0000
0020
0000
0000
0000
2030
0000
,
0000
3100
0010
0002
0000
0013
0010
0010
,
0200
0000
0000
0000
0000
0000
0000
0000
0000
0000
1300
0000
0001
0100
0020
0000
,
0000
0000
0130
0010
0010
0010
0010
0000
,
1010
0000
0000
0110
0000
0000
1010
0000
0000
1001
0000
0000
1100
0000
0000
0000
,
0011
0000
0000
0011
0000
0000
0011
0000
1000
0000
0010
0000
0100
0000
0001
0000
,
0011
0000
0000
0110
0000
0000
0011
0000
0000
1001
0000
0000
0101
0000
0000
0000
,
0001
0010
0001
0010
0001
0000
1000
0100
1000
0100
1000
0000
1001
0000
0000
0000
,
1000
0010
0000
0200
0000
0000
0310
1000
0000
0002
0000
0000
0013
0000
0100
0000
,
0001
0100
0000
2000
0000
0000
3010
0100
0000
0001
0100
0000
0001
0000
1000
0000
,
0001
0010
0100
2000
0000
0000
3001
0010
0000
1000
0010
0000
0001
0000
0100
0000
,
1000
0100
0000
0002
0000
0000
1003
0100
0000
0020
0000
0000
0130
0000
1000
0000
,
0001
0010
0000
0200
0000
0000
0310
0001
0000
1000
0010
0000
0100
0000
0001
0000
,
1000
0100
0000
0002
0000
0000
0103
0010
0000
0001
0010
0000
0100
0000
1000
0000
,
0001
0100
0010
2000
0000
0000
3001
0100
0000
0010
0100
0010
1000
0000
0000
1001
,
0000
0000
0000
0001
0000
0000
0010
0000
0000
1000
0000
0000
0010
0001
0010
0001
,
0100
0010
0000
2000
0000
0000
3001
0100
0000
2000
0000
0000
3100
0000
0010
0000
,
1000
0100
0000
0002
0000
0000
0103
0010
0000
0001
1000
0000
0010
0000
0100
0000
,
0001
0100
0010
2000
0000
0000
3001
0010
0000
0100
0010
0000
0001
0000
0010
0000
,
1000
0010
0000
0002
0000
0000
1003
0010
0000
0200
0000
0000
0301
0000
1000
0000
,
0010
0100
0000
0002
0000
0000
1003
0100
0000
0001
0100
0000
0010
0000
0001
0000
,
0100
0010
0000
2000
0000
0000
3001
0010
0000
1000
0010
0000
0100
0000
1000
0000
,
0001
0010
0100
2000
0000
0000
3010
0100
0000
0010
1000
0001
0100
0000
0010
0000
,
1000
0100
0000
0002
0000
0000
0103
0000
1000
0000
0001
0000
0100
0010
0100
0000
,
1001
0000
0001
0000
0010
0000
0100
0020
,
0000
0130
2000
0000
3001
0100
0010
0000
,
1000
0000
0100
0000
0001
0000
0000
0200
0000
0000
0000
0000
0320
0000
0000
0000
,
0031
0000
0000
0000
0000
0000
0000
0000
0000
0000
0000
0000
1000
0000
0000
0001
0000
0000
1000
0000
0000
0001
0000
0000
0100
0000
0000
0000
0010
0000
0000
0000
0100
0000
0000
0000
0001
0000
0000
0000
0010
0000
0000
0000
0100
0000
0000
0000
,
1000
0000
0001
0000
0200
0000
0310
2000
,
0000
3100
0002
0000
0103
1000
0001
0000
,
1000
0010
0100
0001
1000
0100
0010
0000
,
1001
0000
0000
0000
0000
0000
0000
0000
0000
0000
0000
0000
0001
0000
0000
1000
0000
0000
0001
0000
0000
1000
0000
0000
0010
0000
0000
0000
0100
0000
0000
0000
0010
0000
0000
0000
1000
0000
0000
0000
0100
0000
0000
0000
0010
0000
0000
0000
,
0001
0000
0100
0010
0000
0100
0010
0000
1000
0000
0000
0000
0001
0000
0020
0000
,
0000
0031
1000
0010
0000
1000
1100
0000
,
0001
0000
0010
0100
0000
0010
0100
0000
1000
0000
0010
0000
0100
0000
0000
0000
,
1001
0000
0000
0000
0000
0000
0000
0000
0000
0000
0000
0000
1000
0000
0000
0001
0000
0000
1000
0000
0000
0001
0000
0000
0100
0000
0000
0000
0010
0000
0000
0000
0100
0000
0000
0000
0001
0000
0000
0000
0010
0000
0000
0000
0100
0000
0000
0000
,
1000
0000
0001
0010
0000
0001
0010
0000
0100
0000
0000
0000
1000
0000
0020
0000
,
0000
0130
0001
1000
0000
0100
1100
0000
,
1000
0000
0001
0100
0000
0001
0100
0000
0010
0000
1000
0000
0100
0000
0000
0000
,
1000
0001
0001
1000
0010
0010
0100
0001
0001
0010
0100
0100
,
1000
0000
0010
0100
0010
0000
1000
0010
1000
0010
0100
0000
0110
0000
0000
0000
,
0001
0010
0000
0100
0000
0000
0010
0001
0000
1000
0000
0001
0010
0100
0000
0010
,
0000
0001
1000
0100
0000
0000
1000
0010
0000
0100
0010
0000
1000
0000
0001
0000
,
1000
0010
0000
0100
0000
0000
0010
1000
0000
0001
0010
0000
0001
0000
0100
0010
,
0000
1000
0000
0001
0000
0000
0010
0100
0000
1000
0000
0001
0010
0100
0010
0100
,
1000
0001
0000
0010
0000
0000
0001
0100
0000
0010
0000
1000
0010
0100
0000
0001
,
0000
1000
0100
0010
0000
0000
0100
1000
0000
0010
0100
0000
0010
0000
1000
0000
,
0001
0010
0000
0100
0000
0000
0010
0001
0000
1000
0010
0000
0100
0000
0010
0100
,
0000
0110
0000
0110
0000
0000
0000
0101
0000
0101
0000
0000
1010
0000
0000
0000
,
0001
1000
0000
0010
0000
0000
0100
0010
0000
1000
0000
0100
0010
0001
0000
1000
,
0000
0001
0010
0100
0000
0000
1000
0010
0000
0100
0010
0000
1000
0000
0100
0000
,
0010
0100
0000
1000
0000
0000
0001
0010
0000
0100
1000
0000
0001
0000
0100
0010
,
0000
1001
0000
0001
0010
0100
1000
0000
,
0100
0010
0000
0100
0000
0000
1000
0001
0000
0100
0000
0001
0010
0100
0000
0010
,
0000
0001
1000
0100
0000
0000
1000
0010
0000
0100
0001
0000
1000
0000
0010
0000
,
1000
0001
0000
0010
0000
0000
0000
0110
0000
0000
0010
0000
0001
0000
1000
0010
,
0000
1010
0000
1010
0000
0000
0000
0101
0000
0101
0000
0000
1000
0010
1000
0010
,
0000
0000
0000
0000
;
#NOTES:
     dance-double:
     :
     Easy:
     8:
     :
00000000
00000000
00000000
00000000
,
00000000
00000000
00000000
00000000
,
00000000
00000000
00000000
00000000
,
00000000
00000000
00000000
00000000
,
00000000
00000000
00000000
00000000
,
00000000
00000000
00000000
00000000
,
10000000
00000000
10000000
00000000
00000000
00010000
00100000
00000000
,
00001000
00001000
00010000
00000100
,
00001000
00000000
00001000
00000000
00000000
00000001
00000010
00000000
,
00000001
00000001
00001000
00000100
,
00010000
00000000
00010000
00000000
00000000
00001000
00100000
00000000
,
00010000
00010000
10000000
01000000
,
10000000
00000000
10000000
00000000
00000000
01000000
00100000
00000000
,
00010000
00010000
00100000
00001000
,
00010000
00001000
00010000
00010000
,
00000100
00001000
00000001
00000001
,
00000100
00000010
00001000
00001000
,
00000000
00000100
00010000
00000000
00001000
00000000
00001000
00000000
,
01000000
00010000
10000000
10000000
,
00100000
01000000
00010000
00010000
,
00100000
00001000
00010000
00010000
,
00000000
00000010
00001000
00000000
00000001
00000000
00000001
00000000
,
00000200
00000000
00000000
00000300
,
00002000
00000000
00000000
00003000
,
00020000
00000000
00000000
00030000
,
00200000
00000000
00000000
00300000
,
20000000
00000000
32000000
00000000
,
03200000
00000000
00320000
00000000
,
00032000
00000000
00000000
00003000
,
00000002
00000000
00000103
00000010
,
00001000
00000000
00000100
00000000
,
00020000
00000000
00000000
00030000
,
00001000
00000000
00100000
00000000
,
00020000
00000000
20030000
00000000
,
30010000
00000000
00100000
00000000
,
00001000
00000000
00010000
00000000
,
00000200
00000000
00000000
00000300
,
00001000
00000000
00000000
00000000
00000001
00000001
00000001
00000000
,
00001000
00000000
00000000
00001000
00000000
00000000
00001000
00000000
00000000
00001000
00000000
00000000
00001000
00000000
00000000
00000000
,
00000100
00010000
00001000
00100000
,
00010000
00000000
00000000
00010000
00000000
00000000
00010000
00000000
00000000
00010000
00000000
00000000
00010000
00000000
00000000
00000000
,
10000000
01000000
00100000
01100000
,
10000000
00010000
01000000
00001000
,
00010000
00000010
00001000
00000001
,
00000001
00001000
00000010
00010000
,
00001000
01000000
00010000
10000000
,
10000000
01000000
00100000
00010000
,
00100000
00001000
00010000
00000100
,
00001000
00000001
00001000
00000100
,
00010000
00010000
00001000
00011000
,
00010000
00100000
01000000
00100000
,
10000000
01000000
00010000
00001000
,
00000010
00000100
00000010
00000001
,
00000100
00001000
00010000
00100000
,
10000000
00010000
00100000
00001000
,
00010000
00000010
00001000
00000001
,
00001000
00000100
00010000
00001000
,
00010000
00001000
01000000
00010000
,
10000000
10000000
02000000
00000000
,
03010000
00001000
00010000
00000000
,
00000010
00001000
00000001
00001000
,
00000001
00000010
00000100
00001000
,
00000001
00000001
00000200
00000000
,
00001300
00010000
00001000
00000000
,
01000000
00010000
01000000
00100000
,
10000000
01000000
00100000
00010000
,
00001000
00000100
00000100
00000000
,
00001000
00000010
00001000
00000000
,
00000001
00000010
00000010
00000000
,
00000001
00000100
00000010
00001000
,
00010000
00100000
00100000
00000000
,
00010000
01000000
00010000
00000000
,
10000000
01000000
01000000
00000000
,
10000000
01000000
00010000
00001000
,
00010000
00000010
00001000
00000001
,
00000100
00000010
00000100
00000001
,
00001000
00001000
00000100
00010000
,
00001000
00100000
00010000
00100000
,
01000000
10000000
00010000
00010000
,
01000000
00100000
01000000
00010000
,
00100000
00100000
00001000
00010000
,
00000100
00001000
00000001
00000100
,
00000000
00000001
00000000
00000001
00000000
00000000
00000000
00001000
00000000
00001000
00000000
00000000
00000100
00000000
00000000
00000000
,
00010000
00001000
01000000
00010000
,
10000000
10000000
01000000
00100000
,
00010000
01000000
00001000
00010000
,
00000000
00011000
00000000
00000000
00010000
00000000
00010000
00000000
,
00000100
00001000
00000010
00001000
,
00000001
00000001
00000100
00001000
,
00010000
00001000
00100000
00010000
,
00000000
10000000
00000000
10000000
00000000
00000000
00000000
00010000
00000000
00010000
00000000
00000000
01000000
00000000
01000000
00000000
,
00000000
00000000
00000000
00000000
;
#NOTES:
     dance-double:
     :
     Medium:
     12:
     :
00000000
00000000
00000000
00000000
,
00000000
00000000
00000000
00000000
,
00000000
00000000
00000000
00000000
,
00000000
00000000
00000000
00000000
,
00000000
00000000
00000000
00000000
,
00000000
00000000
00000000
00000000
,
00001000
00000000
00000000
00001000
00000000
00000000
00010000
00000000
00000000
00000000
00000010
00000000
00001000
00000000
00000000
00000000
,
00000001
00000000
00000000
00000001
00000000
00000000
00000100
00000000
00000010
00000000
00000000
00001000
00000000
00000000
00000010
00000000
,
00010000
00000000
00000000
00010000
00000000
00000000
00001000
00000000
00000000
00000000
01000000
00000000
00010000
00000000
00000000
00000000
,
10000000
00000000
00000000
01000000
00000000
00000000
00010000
00000000
00001000
00000000
00000000
00010000
00000000
00000000
00001000
00000000
,
00000010
00000000
00000000
00000010
00000000
00000000
00000001
00000000
00000000
00000000
00000100
00000000
00000010
00000000
00000000
00000000
,
00001000
00000000
00000000
00001000
00000000
00000000
00000100
00000000
00010000
00000000
00000000
00001000
00000000
00000000
00100000
00000000
,
00010000
00000000
00000000
00010000
00000000
00000000
01000000
00000000
00000000
00000000
00100000
00000000
10000000
00000000
00000000
00000000
,
00010000
00000000
00000000
01000000
00000000
00000000
00001000
00000000
00010000
00000000
00000000
00000010
00000000
00000000
00001000
00000000
,
00000001
00000000
00000100
00000000
00000001
00000000
00000000
00000000
00001000
00000000
00000010
00000000
00010000
00000000
00000000
00001000
,
00000000
00100000
00010000
00000000
10000000
00100000
10000000
00000000
,
00010000
01000000
00001000
00000000
00010000
00000100
00001000
00000100
,
00000000
00001000
00000010
00000000
00000100
00000001
00000010
00000100
,
00001000
00000000
00000010
00000000
00010000
00000000
00000000
00000000
00001000
00000000
00010000
00000000
00001000
00000000
00000000
01000000
,
00000000
00010000
01000000
00000000
00100000
10000000
00010000
00000000
,
00100000
00001000
00010000
00000000
00000010
00001000
00000010
00010000
,
00000000
00001000
00100000
00000000
00010000
00100000
00010000
00000000
,
10000000
01000000
00010000
00001000
00000000
00000010
00000001
00000020
,
00000000
00000000
00000000
00000000
00000000
00000031
00000100
00000002
,
00000000
00000000
00000000
00000000
00000000
00001003
00000100
00020000
,
00000000
00000000
00031000
00100000
00000000
00010000
00100000
00000000
,
01000000
10000000
01000000
10000000
00010000
00200000
00000000
00302000
,
00000000
00013000
00000010
00002000
00000000
00003001
00000000
00000010
,
00000200
00000000
00000000
00000000
00000000
00001300
00000010
00020000
,
00000000
00000000
00031000
01000000
00000000
00010000
00100000
00000000
,
00010000
10000000
01000000
00100000
00000000
00010000
00100000
00002000
,
00000000
00000000
00000000
00000000
00000000
00013000
00000010
00001000
,
00000000
00000001
00000100
00000001
00000000
00001000
00000010
00010000
,
00000000
00001000
00100000
00010000
00000000
10000000
00100000
00000000
,
10000000
01000000
00100000
00010000
00100000
00001000
00000000
00020000
,
00000000
00031000
00010000
00000200
00000000
00001300
00001000
00001000
,
00000002
00000000
00000000
00000000
00000000
00000103
00000010
00001000
,
00000000
00000000
00000100
00010000
00010000
00010000
00010000
00000000
,
00001000
00000000
00000000
00010000
00000000
00000000
00100000
00000000
00000000
10000000
00000000
00000000
00100000
00000000
00000000
00000000
,
01000000
00000000
00000000
01000000
00000000
00000000
01000000
00000000
00010000
00000000
00100000
00000000
00010000
00000000
00000000
00000000
,
10000000
00000000
00000000
00100000
00000000
00000000
00010000
00000000
00000000
00001000
00000000
00000000
00010000
00000000
00000000
00000000
,
00000100
00000100
00000100
00001000
00000001
00001000
00001001
00000000
,
00000001
00000000
00000000
00000010
00000000
00000000
00000100
00000000
00000000
00001000
00000000
00000000
00000100
00000000
00010000
00000000
,
00001000
00000000
00000000
01000000
00000000
00000000
00010000
00000000
00000000
00100000
00000000
00000000
01000000
00000000
10000000
00000000
,
00010000
00000000
00010000
00000000
00000000
00000000
10000000
00000000
00000000
01000000
00000000
00000000
00100000
00000000
00010000
00000000
,
10000000
00000000
00000000
01000000
00000000
00000000
00010000
00000000
00000000
00001000
00000000
00000000
00000010
00000000
00000001
00000000
,
00000010
00000000
00000000
00000001
00000000
00000000
00001000
00000000
00000000
00000100
00000000
00000000
00010000
00000000
00001000
00000000
,
00100000
00000000
00000000
00010000
00000000
00000000
01000000
00000000
00000000
00100000
00000000
00000000
10000000
00000000
00010000
00000000
,
00100000
00000000
00100000
00000000
00000000
00001000
00000000
00000000
00000000
00010000
00000000
00000000
00000010
00000000
00000000
00001000
,
00000000
00000000
00000000
00000001
00000000
00000000
00000010
00000000
00000000
00001000
00000000
00000000
00010000
00000000
00010000
00000000
,
00001000
00000000
00000000
00010000
00000000
00000000
00001000
00000000
00000000
00100000
00000000
00000000
00010000
00000000
10000000
00000000
,
00010000
00000000
00000000
10000000
00000000
00000000
00100000
00000000
00000000
01000000
00000000
00000000
00010000
00000000
00100000
00000000
,
00001000
00000000
00001000
00000000
00000000
00000000
00010000
00000000
00000000
00000100
00000000
00000000
00001000
00000000
00000001
00000000
,
00000100
00000000
00000000
00001000
00000000
00000000
00010000
00000000
00000000
00100000
00000000
00000000
10000000
00000000
00100000
00000000
,
10000000
00000000
00000000
00010000
00000000
00000000
00100000
00000000
00000000
00001000
00010000
00000000
00001000
00000000
00010000
00000000
,
00000010
00000000
00000000
00001000
00000000
00000000
00000001
00000000
00000000
00000010
00000001
00000000
00000010
00000000
00000100
00000000
,
00001000
00000000
00001000
00000000
00000000
00000000
00000100
00000000
00000000
00010000
00001000
00000000
00010000
00000000
00001000
00000000
,
01000000
00000000
00000000
00010000
00000000
00000000
10000000
00000000
00100000
00000000
10000000
00000000
00010000
00000000
01000000
00000000
,
00001000
00000000
00001000
00000000
00010000
00000000
00000010
00002000
,
00000000
00003100
00000020
00000000
00000031
00000000
00001000
00000000
,
00000010
00000000
00000100
00000000
00000010
00000000
00000000
00002000
00000000
00000000
00000000
00000000
00003200
00000000
00000000
00000000
,
00010300
00002000
00023000
00000000
,
00031000
00000000
00001000
00000000
00200000
00000000
00310000
20000000
,
00000000
30010000
02000000
00000000
03010000
00100000
00001000
00000000
,
00010000
00001000
00010000
00001000
00010000
00000100
00001000
00000000
,
00000001
00000200
00000320
00000000
,
00001030
00000000
00000000
00001000
00000000
00000000
00001000
00000000
00000100
00000000
00000000
00000000
00010000
00000000
00002000
00000000
,
00000000
00103000
00010000
10000000
00000000
00100000
01000000
00000000
,
00010000
00000000
00000000
00010000
00000000
00000000
00010000
00000000
00100000
00000000
00001000
00000000
00010000
00000000
00000000
00000000
,
00000010
00002000
00003002
00000000
,
00000013
00000000
00000000
00000010
00000000
00000000
00000010
00000000
00000100
00000000
00000000
00000000
00001000
00000000
00000002
00000000
,
00000000
00000013
00000100
00001000
00000000
00000010
00010000
00000000
,
00001000
00000000
00000000
00001000
00000000
00000000
00001000
00000000
01000000
00000000
00010000
00000000
10000000
00000000
00000000
00000000
,
10010000
01010000
01001000
00011000
,
00010000
00000010
00001000
00000010
00001000
00000010
00000100
00000000
,
00000001
00000000
00000000
00000010
00000000
00000000
00000100
00000000
00000000
00000010
00000000
00000000
00000001
00000000
00000000
00001000
,
00000000
00000000
00000100
00010000
00000000
00000000
00001000
00000000
00000000
00010000
00001000
00000000
01000000
00000000
00010000
00000000
,
00100000
00000000
00000000
01000000
00000000
00000000
00100000
00000000
00000000
00010000
00000000
00000000
10000000
00000000
00100000
01000000
,
00000000
00100000
00000000
00000000
00000000
00000000
10000000
00010000
00000000
01000000
00000000
00000000
00001000
00000000
00010000
00000000
,
00001000
00000000
00000000
00000100
00000000
00000000
00000010
00000000
00000000
00000100
00000000
00000000
00000001
00000000
00000000
00001000
,
00000000
00000000
00000001
00000010
00000000
00000000
00000100
00000000
00000000
00001000
00000010
00000000
00010000
00000000
00001000
00000000
,
01000000
00000000
00000000
00010000
00000000
00000000
00100000
00000000
00000000
00010000
00000000
00000000
10000000
00000000
00100000
01000000
,
00000000
00010000
00000000
00010000
00000000
00000000
00000000
00100000
00000000
00100000
00000000
00000000
00001000
00000000
00000000
00000000
,
00010000
00000000
00000000
00001000
00000000
00000000
00000100
00000000
00000000
00000001
00000000
00000000
00000010
00000001
00000000
00001000
,
00000000
00000000
00000100
00001000
00000000
00000000
00000100
00000000
00000000
00010000
00001000
00000000
00010000
00000000
01000000
00000000
,
10000000
00000000
00000000
00100000
00000000
00000000
01000000
00000000
00000000
00010000
00000000
00000000
00100000
00000000
00001000
00010000
,
00000000
00011000
00000000
00001000
00000100
00000001
00001000
00000000
,
00000001
00000000
00000000
00000010
00000000
00000000
00001000
00000000
00000000
00010000
00000000
00000000
00001000
00010000
00000000
01000000
,
00000000
00000000
10000000
00010000
00000000
00000000
10000000
00000000
00000000
01000000
00100000
00000000
00010000
00000000
10000000
00000000
,
00100000
00000000
00000000
00010000
00000000
00000000
00000000
00001000
00000000
00000000
00000100
00000000
00000001
00000000
00000100
00000010
,
00000000
00001000
00000000
00001000
00000000
00000000
00000000
00000100
00000000
00000100
00000000
00000000
00010000
00000000
00010000
00000000
,
00000000
00000000
00000000
00000000
;
#NOTES:
     dance-double:
     :
     Hard:
     16:
     :
00000000
00000000
00000000
00000000
,
00000000
00000000
00000000
00000000
,
00000000
00000000
00000000
00000000
,
00000000
00000000
00000000
00000000
,
00000000
00000000
00000000
00000000
,
00000000
00000000
00000000
00000000
,
00000101
00000000
00000000
00001001
00000000
00000000
00001010
00000000
00000000
00000000
00001000
00000000
00000100
00010000
00000100
00000000
,
00010000
00000000
00000000
00001000
00000000
00000000
00100000
00000000
00010000
00000000
10000000
00100000
00000000
00000000
10000000
00000000
,
11000000
00000000
00000000
10010000
00000000
00000000
00110000
00000000
00000000
00000000
00010000
00000000
00100000
00001000
00100000
00000000
,
00001000
00000000
00000000
00010000
00000000
00000100
00001000
00000000
00000100
00000000
00000010
00000001
00000000
00000000
00001000
00000000
,
00000011
00000000
00000000
00001001
00000000
00000000
00001100
00000000
00000000
00000000
00001000
00000000
00000010
00010000
00000010
00000000
,
00010000
00000000
00000000
00001000
00000000
00000000
01000000
00000000
00010000
00000000
10000000
01000000
00000000
00000000
10000000
00000000
,
10100000
00000000
00000000
10010000
00000000
00000000
01010000
00000000
00000000
00000000
00010000
00000000
01000000
00001000
01000000
00000000
,
00001000
00000000
00000000
00010000
00000000
00000010
00001000
00000000
00000001
00000000
00000100
00000010
00000000
00000000
00000100
00000000
,
00000001
00000000
00001000
00000000
00000100
00000000
00000000
00000000
00010000
00000000
00001000
00100000
00010000
00000000
00000000
10000000
,
00000000
00100000
01000000
00000000
00010000
00000000
00000000
00000000
00100000
00000000
00001000
00010000
00000100
00000000
00001000
00000000
,
00000001
00000000
00000010
00000000
00000100
00000000
00000000
00000000
00001000
00000000
00000010
00010000
00001000
00000000
01000000
00000000
,
00000000
00000000
00010000
00000000
10000000
00000000
00000000
00000000
00100000
00000000
10000000
01000000
00100000
00000000
00010000
00100000
,
00001000
00000000
00010000
00000000
00000100
00000000
00000000
00000000
00001000
00000000
00000010
00000100
00000001
00000000
00000000
00001000
,
00000000
00000001
00001000
00000000
00000100
00000000
00000000
00000000
00010000
00000000
00001000
00100000
00010000
00000000
10000000
00000000
,
01000000
00000000
00100000
00000000
00010000
00000000
00000000
00000000
01000000
00000000
00010000
00100000
00001000
00000000
00010000
00000000
,
00000000
00000000
00001000
00000000
00010000
00000000
00000000
00000000
00001000
00000000
00000100
00000010
00000100
00000000
00000001
00000010
,
00000001
00000010
00001000
00020000
00000000
00031000
00100000
00020000
,
00000000
00000000
00000000
00000000
00000000
10030000
01000000
00020000
,
00000000
00000000
00000000
00000000
00000000
00031000
00010000
00000020
,
00000000
00000000
00001030
00000200
00000000
00000310
00000001
00000000
,
00001000
00000010
00010000
00001000
00100000
00020000
00000000
20030000
,
00000000
31000000
00010000
00002000
00000000
00023000
00000000
00031000
,
00000200
00000000
00000000
00000000
00000000
00000301
00000010
00000200
,
00000000
00000000
00001300
00000020
00000000
00010030
00001000
00000000
,
01000000
00000000
00010000
01000000
00010000
00000000
20000000
00000000
00000000
00000000
31000000
00000000
00010000
00001000
00020000
00000000
,
00000000
00000000
00000000
00000000
00000000
00000000
00000000
00000000
00000000
00000000
00031000
00000000
00000010
00000100
00000020
00000000
,
00000000
00000000
00000031
00000000
00001000
00000000
00000200
00000000
00000000
00000000
00010300
00001000
00010000
00000000
00002000
00000000
,
00000000
00013000
00100000
20000000
00000000
30010000
00100000
00000000
,
00001000
00000000
00010000
00001000
00010000
00000000
00001000
00000000
00000100
00000000
00000002
00000000
00000000
00000000
00002003
00000000
,
00000000
00003001
00000100
00002000
00000000
00013000
00010000
00010000
,
00002000
00000000
00000000
00000000
00000000
00000000
00000000
00000000
00000000
00000000
00013000
00000000
01000000
00100000
02000000
00000000
,
00000000
00000000
13000000
00010000
00010000
00010000
00010000
00000000
,
10100000
00000000
00000000
01100000
00000000
00000000
01010000
00000000
00000000
01001000
00000000
00000000
00011000
00000000
00000000
00000000
,
00010000
00000000
00000000
00001000
00000000
00000000
00000100
00000000
00000001
00000000
00001000
00000000
00000010
00000000
00000100
00000000
,
00000101
00000000
00000000
00000110
00000000
00000000
00001010
00000000
00000000
00010010
00000000
00000000
00011000
00000000
00000000
00000000
,
00001000
00100000
00001000
00100000
00010000
00000000
10000000
00100000
10000000
00100000
01000000
00000000
01100000
00000000
00000000
00000000
,
10000000
00010000
00000000
02000000
00000000
00000000
03001000
00010000
00000000
00002000
00000000
00000000
00003100
00000000
00000010
00000000
,
00001000
00000100
00000000
00000020
00000000
00000000
00000031
00001000
00000000
00000100
00001000
00000000
00000100
00000000
00010000
00000000
,
00001000
00100000
00010000
20000000
00000000
00000000
31000000
00010000
00000000
00001000
00010000
00000000
00001000
00000000
00000010
00000000
,
00001000
00000010
00000000
00000002
00000000
00000000
00001003
00000100
00000000
00000020
00000000
00000000
00000031
00000000
00001000
00000000
,
00000100
00010000
00000000
00002000
00000000
00000000
01003000
00010000
00000000
01000000
10000000
00000000
01000000
00000000
00010000
00000000
,
00100000
01000000
00000000
00200000
00000000
00000000
00301000
00010000
00000000
00000100
00010000
00000000
00001000
00000000
00000010
00000000
,
00000001
00000100
00000010
00002000
00000000
00000000
00003001
00000100
00000000
00001000
00010000
00001000
00010000
00000000
00000000
00011000
,
00000000
00000000
00000000
00001000
00000000
00000000
00010000
00000000
00000000
00100000
00000000
00000000
10000000
01000000
10000000
01000000
,
00100000
00010000
00000000
20000000
00000000
00000000
30100000
00010000
00000000
00002000
00000000
00000000
00003100
00000000
00000001
00000000
,
00000100
00000010
00000000
00002000
00000000
00000000
00003001
00000010
00000000
00001000
00010000
00000000
00001000
00000000
00100000
00000000
,
00010000
00100000
01000000
20000000
00000000
00000000
30010000
00100000
00000000
01000000
00100000
00000000
00010000
00000000
00100000
00000000
,
10000000
00100000
00000000
00020000
00000000
00000000
01030000
00001000
00000000
00020000
00000000
00000000
00030100
00000000
00001000
00000000
,
00000010
00000100
00000000
00000002
00000000
00000000
00001003
00000100
00000000
00000001
00000100
00000000
00001000
00000000
00000010
00000000
,
00010000
00001000
00000000
00200000
00000000
00000000
00310000
01000000
00000000
10000000
01000000
00000000
00010000
00000000
00100000
00000000
,
00001000
00010000
00000100
00002000
00000000
00000000
00003100
00000010
00000000
00000001
00000010
00000000
00000001
00000000
00001000
00000000
,
00000001
00000010
00000000
00002000
00000000
00000000
00013000
00000000
01000000
00000000
10000000
00000000
00100000
01000000
00100000
00000000
,
10010000
00000000
10000000
00000000
01000000
00000000
00100000
00020000
,
00000000
00130000
00002000
00000000
00013000
00000010
00001000
00000000
,
00000001
00000000
00000100
00000000
00001000
00000000
00000000
00020000
00000000
00000000
00000000
00000000
00032000
00000000
00000000
00000000
,
01003000
00000000
00000000
00000000
00000000
00000000
00000000
00000000
00000000
00000000
00000000
00000000
00010000
00000000
00000000
10000000
00000000
00000000
00010000
00000000
00000000
10000000
00000000
00000000
01000000
00000000
00000000
00000000
00100000
00000000
00000000
00000000
00010000
00000000
00000000
00000000
00100000
00000000
00000000
00000000
00001000
00000000
00000000
00000000
00010000
00000000
00000000
00000000
,
00000100
00000000
00001000
00000000
00000002
00000000
00000013
00000200
,
00000000
00001300
00000002
00000000
00000103
00001000
00010000
00000000
,
00100000
00010000
00001000
00010000
00001000
00000100
00000001
00000000
,
00001001
00000000
00000000
00000000
00000000
00000000
00000000
00000000
00000000
00000000
00000000
00000000
00001000
00000000
00000000
00000001
00000000
00000000
00001000
00000000
00000000
00000001
00000000
00000000
00000010
00000000
00000000
00000000
00000100
00000000
00000000
00000000
00001000
00000000
00000000
00000000
00000100
00000000
00000000
00000000
00010000
00000000
00000000
00000000
00001000
00000000
00000000
00000000
,
00100000
00000000
00010000
01000000
00000000
00010000
01000000
00000000
00100000
00000000
00000000
00000000
10000000
00000000
00020000
00000000
,
00000000
00130000
00001000
00010000
00000000
00000100
00001100
00000000
,
00000001
00000000
00000010
00000100
00000000
00000010
00000100
00000000
00001000
00000000
00000010
00000000
00010000
00000000
00000000
00000000
,
00011000
00000000
00000000
00000000
00000000
00000000
00000000
00000000
00000000
00000000
00000000
00000000
00001000
00000000
00000000
00100000
00000000
00000000
00001000
00000000
00000000
00100000
00000000
00000000
00010000
00000000
00000000
00000000
10000000
00000000
00000000
00000000
00010000
00000000
00000000
00000000
01000000
00000000
00000000
00000000
00100000
00000000
00000000
00000000
00010000
00000000
00000000
00000000
,
00001000
00000000
00000100
00000010
00000000
00000100
00000010
00000000
00001000
00000000
00000000
00000000
00000001
00000000
00000020
00000000
,
00000000
00000130
00010000
00001000
00000000
00100000
00110000
00000000
,
00010000
00000000
01000000
00100000
00000000
01000000
00100000
00000000
10000000
00000000
01000000
00000000
00010000
00000000
00000000
00000000
,
00001000
00010000
00010000
00000100
00001000
00001000
00000001
00000010
00000010
00000100
00001000
00001000
,
00000100
00000000
00010000
00001000
00010000
00000000
00001000
01000000
00001000
01000000
00010000
00000000
01010000
00000000
00000000
00000000
,
01000000
00100000
00000000
10000000
00000000
00000000
00010000
01000000
00000000
00001000
00000000
00010000
00000100
00001000
00000000
00000100
,
00000000
00000010
00000001
00001000
00000000
00000000
00000100
00010000
00000000
00001000
00010000
00000000
01000000
00000000
10000000
00000000
,
00010000
00100000
00000000
00001000
00000000
00000000
00010000
00001000
00000000
00000010
00000001
00000000
00001000
00000000
00000010
00001000
,
00000000
00000001
00000000
00000100
00000000
00000000
00001000
00010000
00000000
01000000
00000000
10000000
01000000
00100000
01000000
00100000
,
00010000
10000000
00000000
00100000
00000000
00000000
01000000
00010000
00000000
00100000
00000000
00001000
00010000
00000010
00000000
00001000
,
00000000
00000001
00000010
00000100
00000000
00000000
00001000
00000100
00000000
00010000
00001000
00000000
00010000
00000000
01000000
00000000
,
10000000
00100000
00000000
01000000
00000000
00000000
00010000
00100000
00000000
00001000
00010000
00000000
00001000
00000000
00000100
00000010
,
00000000
00000110
00000000
00000110
00000000
00000000
00000000
00001001
00000000
00001001
00000000
00000000
00001100
00000000
00000000
00000000
,
00000100
00000010
00000000
00000001
00000000
00000000
00001000
00000100
00000000
00010000
00000000
00001000
01000000
00010000
00000000
01000000
,
00000000
00100000
10000000
00010000
00000000
00000000
01000000
00001000
00000000
00010000
00001000
00000000
00000100
00000000
00000001
00000000
,
00001000
00000010
00000000
00010000
00000000
00000000
00001000
00010000
00000000
00100000
10000000
00000000
00010000
00000000
00100000
00010000
,
00000000
10010000
00000000
10000000
01000000
00100000
00010000
00000000
,
10000000
01000000
00000000
00010000
00000000
00000000
00001000
00010000
00000000
00000100
00000000
00001000
00000100
00000010
00000000
00000001
,
00000000
00000100
00001000
00010000
00000000
00000000
00001000
00010000
00000000
01000000
10000000
00000000
00010000
00000000
01000000
00000000
,
00001000
00010000
00000000
00000100
00000000
00000000
00000000
00001001
00000000
00000000
00000001
00000000
00000010
00000000
00001000
00010000
,
00000000
00011000
00000000
00011000
00000000
00000000
00000000
01100000
00000000
01100000
00000000
00000000
10000000
01000000
10000000
01000000
,
00000000
00000000
00000000
00000000
;
