
//----- song ID: fleu -----//
#TITLE:Fleur;
#ARTIST:BEMANI Sound Team "Akhuta Works";
#BANNER:Fleur.png;
#BACKGROUND:Fleur-bg.png;
#CDTITLE:./CDTitles/DDR A3.png;
#MUSIC:Fleur.ogg;
#SAMPLESTART:6.333;
#SAMPLELENGTH:15;
#BPMS:0=180;
#BGSTAGE:14;
#NOTES:
     dance-single:
     :
     Beginner:
     4:
     :
0000
0000
0000
0000
,
0000
0000
0000
0000
,
0000
0000
0000
0000
,
0000
0000
0000
0000
,
0000
0000
0000
0000
,
0001
0000
0100
0000
,
0001
0000
0100
0000
,
0010
0000
0010
0000
,
0010
0000
0000
0000
,
1000
0000
0100
0000
,
1000
0000
0100
0000
,
0010
0000
0010
0000
,
0010
0000
0000
0000
,
1001
0000
0000
0000
,
1001
0000
0000
0010
,
0001
0010
0000
0000
,
0100
0000
0000
0000
,
1001
0000
0000
0000
,
1001
0000
0000
0010
,
1000
0010
0000
0000
,
0100
0000
0000
0100
,
0000
0000
0000
0000
,
2000
0000
0000
0000
,
3000
0000
0000
0000
,
0020
0000
0000
0000
,
0030
0000
0000
0000
,
0200
0000
0000
0000
,
0300
0000
0000
0000
,
0002
0000
0000
0000
,
0003
0000
0000
0000
,
0001
0000
0010
0000
,
0100
0100
0001
0000
,
0100
0000
0010
0000
,
0001
0000
0000
0000
,
0001
0000
0010
0000
,
1000
0000
0000
0000
,
1001
0000
0000
0000
,
0000
0000
0000
0000
,
1000
0000
0100
0000
,
0010
0000
0010
0001
,
0000
0001
0000
0100
,
0001
0000
0000
0010
,
0001
0000
0010
0000
,
0100
0000
0010
0000
,
0100
0000
0100
0000
,
1000
0000
0000
0000
,
1000
0000
0010
0000
,
0100
0000
0010
0000
,
0100
0000
0100
0000
,
0001
0000
0000
0000
,
0010
0000
0001
0000
,
0100
0000
0100
0000
,
0010
0000
0001
0000
,
0100
0000
0000
0000
,
0010
0000
1000
0000
,
0100
0000
0100
0000
,
0010
0000
1000
0000
,
0100
0000
0000
0000
,
1001
0000
0000
0000
,
0010
0000
0010
0000
,
1001
0000
0000
0000
,
0100
0000
0100
0000
,
1001
0000
0000
0000
,
1000
0000
1000
0000
,
0110
0000
0000
0000
,
0001
0000
1000
0000
,
1001
0000
0000
0000
,
0110
0000
0000
0000
,
0001
0000
0100
0000
,
0020
0000
0000
0000
,
0030
0000
0000
0000
,
1000
0000
0100
0000
,
1000
1000
0010
0000
,
1000
0000
0100
0000
,
0001
0000
0000
0000
,
0001
0000
0100
0000
,
0001
0001
0010
0000
,
0001
0000
0100
0000
,
1000
0000
0000
0000
,
1000
0010
1000
0000
,
0100
0000
0010
0000
,
0001
0010
0001
0000
,
0100
0000
0010
0000
0100
0000
,
0010
0000
1000
0000
,
1001
0000
0000
0000
,
0000
0000
0000
0000
,
1001
0000
0000
0000
,
0000
0000
0000
0000
;
#NOTES:
     dance-single:
     :
     Easy:
     9:
     :
0000
0000
0000
0000
,
0000
0000
0000
0000
,
0000
0000
0000
0000
,
0000
0000
0000
0000
,
0000
0000
0000
0000
,
0001
0100
0001
0000
,
1000
0100
1000
0000
,
0001
0010
0100
1000
,
0010
0100
0010
0100
0010
0000
0000
0000
,
1000
0010
1000
0000
,
0001
0010
0001
0000
,
1000
0100
0010
0001
,
0100
0010
0100
0010
0100
0000
0000
0000
,
1002
0000
1003
0000
,
2001
0000
3001
0010
,
0001
0011
1000
1000
,
0010
0000
0000
0010
0000
0000
0100
0000
,
0210
0000
0310
0000
,
0120
0000
0130
1000
,
0100
1100
0001
0001
,
0010
0000
0000
0010
0000
0000
0100
0000
,
0000
0100
0000
0000
0000
0000
0000
0000
,
2000
0000
0010
0000
,
0100
0100
3100
0000
,
0002
0000
0010
0000
,
0100
0100
0103
0000
,
0001
0010
0001
0100
,
0001
0010
0001
0000
,
1000
0010
1000
0100
,
1000
0010
1000
1000
,
0001
0100
0001
0100
,
0010
0000
1000
0010
1000
0000
0010
0000
,
1000
0100
1000
0100
,
0010
0000
0001
0010
0001
0000
0010
0000
,
0001
0100
0010
1000
,
0001
0000
0100
0010
1000
0000
0001
0000
,
0010
0001
0000
0010
0001
0000
0100
0010
,
0000
0100
0010
0000
2000
0000
3200
0000
,
0310
0000
0001
0100
0001
0000
1000
0100
,
1000
0000
0001
0100
0001
0000
0010
0000
,
0100
0000
0110
0000
1000
0100
0010
0000
,
0001
0000
0000
0101
0000
0000
0110
0000
,
0001
0100
0001
0100
,
0010
0010
0010
0000
,
1000
0100
1000
0100
,
0010
0010
0010
0000
,
0001
0100
0010
1000
,
0010
0100
0001
0000
,
1000
0100
0010
0001
,
0010
0100
1000
0001
,
1000
0010
0100
0010
,
1000
0000
0001
0100
0001
0000
0100
0000
,
0001
0010
0100
0010
,
0001
0000
1000
0100
1000
0000
0001
0000
,
1000
0010
0100
0001
,
1000
0000
0010
0100
0001
0000
1000
0000
,
0100
1000
0100
0000
0010
0100
0010
0000
,
0001
1000
2002
3003
,
0001
0000
0000
0001
0000
0000
0011
0000
,
0000
0011
0000
0000
0001
1000
0001
0000
,
1000
0000
0000
1000
0000
0000
1010
0000
,
0000
1010
0000
0000
1000
0001
1000
0000
,
0010
0000
0000
0010
0000
0000
0110
0000
,
0000
0110
0000
0000
0001
1000
0001
0000
,
1100
0000
0101
0000
,
1000
0001
2002
3003
,
0001
0000
0100
0002
0000
0000
0003
0000
,
1000
0000
0100
2000
0000
0000
3000
0000
,
0010
0100
0010
0000
0100
0010
0100
0000
,
0220
0000
0000
0000
,
0000
0000
0330
0000
,
0001
0000
0001
0000
,
0010
0010
0001
0000
,
1000
0000
1000
0000
,
0010
0010
1000
0000
,
0001
0000
0100
0000
,
1000
0100
0001
0000
,
1000
0000
0100
0000
,
0001
0100
1000
0000
,
0010
1000
0100
0010
,
0001
0100
0010
1000
,
0100
0001
0100
1000
,
0001
1000
0001
1000
0001
1000
,
0010
0100
0010
0100
0010
0100
,
0002
0000
0000
0000
,
0000
0000
0000
0003
,
1001
0000
0000
0000
,
0000
0000
0000
0000
;
#NOTES:
     dance-single:
     :
     Medium:
     12:
     :
0000
0000
0000
0000
,
0000
0000
0000
0000
,
0000
0000
0000
0000
,
0000
0000
0000
0000
,
0000
0000
0000
0000
,
1000
0010
1000
0010
0100
0000
0110
0000
,
0001
0010
0001
0010
0100
0000
0110
0000
,
1000
0100
1000
0000
0001
0100
0001
0000
,
0100
0010
0100
0010
0100
0000
0110
0000
,
0001
0010
0001
0010
0100
0000
0110
0000
,
1000
0010
1000
0010
0100
0000
0110
0000
,
0001
0100
0001
0000
1000
0100
1000
0000
,
0100
0010
0100
0010
0100
0000
0110
0000
,
0002
0000
0103
0000
,
2000
0000
3100
1100
,
0110
0011
0002
0000
,
0013
0010
0000
0100
0100
0000
1000
0001
,
2000
0000
3010
0000
,
0002
0000
0013
0011
,
0110
1100
2000
0000
,
3100
0100
0000
0010
0010
0000
0001
1000
,
0000
1000
0001
0000
0000
0000
0000
0000
,
0001
0000
0000
1000
0100
0000
1000
0010
,
0000
0100
0010
0000
1000
0000
1000
0000
,
0001
0000
0000
0001
0100
0000
0001
0010
,
0000
0100
0010
0000
0001
0000
0001
0000
,
1000
0000
0000
0100
0010
0000
0000
0100
,
0000
0010
0100
0000
0010
0100
0010
0000
,
0001
0000
0001
1000
0000
1000
0002
0000
,
0000
0000
0000
0000
1003
0001
1000
0000
,
0001
0100
0001
0100
0010
1000
0010
1000
,
0000
1000
0001
1000
0100
0010
0100
0000
,
1000
0100
1000
0100
0010
0001
0010
0001
,
0000
0001
1000
0001
0100
0010
0100
0000
,
0001
0000
0000
0100
0000
0000
0010
0000
1000
0000
0000
0100
0000
0000
0010
0000
,
0000
0001
0000
0000
1000
0000
0001
0000
1000
0000
0000
1000
0000
0000
1000
0000
,
0001
0100
0000
0001
0010
0000
0100
1000
,
0000
0010
1000
0000
0002
0000
2003
0000
,
3010
1000
0010
1000
0100
0010
0100
0010
,
0001
1000
0001
1000
0001
0000
2000
0000
,
3200
0000
0302
0000
0103
1000
0100
1000
,
0001
0001
0000
1000
1000
0000
1010
0000
,
0001
0100
0010
0000
1000
0100
0010
0000
,
0001
1000
0100
0000
0010
0001
0100
0000
,
0001
0010
0001
0000
0100
0010
1000
0000
,
0100
1000
0010
0000
0100
0010
0100
0000
,
0001
1000
0001
0000
0100
0010
1000
0000
,
0001
1000
0001
0000
0010
0100
1000
0000
,
0001
0010
0001
0000
1000
0010
1000
0010
,
0100
0001
0010
0001
0100
0010
1000
0100
,
1000
0001
0100
0010
1000
0001
0100
0010
,
1000
0100
1000
0100
0010
0001
0100
0000
,
0001
1000
0100
0010
0001
1000
0100
0010
,
0001
0100
0001
0100
0010
1000
0100
0000
,
1000
0001
0100
0001
0010
0100
1000
0010
,
1000
0000
0100
0000
0010
0000
0001
0000
1000
0000
0000
1000
0000
0000
1000
0000
,
0001
0100
0101
0000
1000
0100
1100
0000
,
0011
1010
2002
3003
,
1000
0000
0000
1000
0000
0000
0100
0000
0000
0100
0000
0000
0010
0000
0000
0010
,
0000
0000
0001
0000
0000
0001
0000
0000
1000
0000
0000
0001
0000
0000
1000
0000
,
0001
0000
0000
0001
0000
0000
0100
0000
0000
0100
0000
0000
0010
0000
0000
0010
,
0000
0000
1000
0000
0000
1000
0000
0000
0001
0000
0000
1000
0000
0000
0001
0000
,
1000
0000
0000
1000
0000
0000
0100
0000
0000
0100
0000
0000
0001
0000
0000
0001
,
0000
0000
0010
0000
0000
0010
0000
0000
1000
0000
0000
1000
0000
0000
0100
0000
,
1000
1000
1000
0010
0010
0010
,
0100
0000
0001
0000
1000
0000
0002
0000
0000
0003
0000
0000
,
0001
0000
1000
2200
0000
0000
3300
0000
,
1000
0000
0001
0202
0000
0000
0303
0000
,
0001
0010
0100
1000
0010
0100
0001
1000
,
0002
0000
0000
0000
,
0000
0000
0003
0000
,
0001
0000
0100
0000
0001
0000
1000
0100
0000
1000
0000
0000
,
0001
0010
0000
0001
0000
0000
0100
0010
0000
0100
0000
0000
,
0001
0000
0010
0000
0100
0000
1000
0001
0000
0100
0000
0000
,
0001
1000
0000
0100
0000
0000
0110
0000
0000
0011
0000
0000
,
1000
0000
0010
0000
1000
0000
0001
0010
0000
0001
0000
0000
,
1000
0100
0000
1000
0000
0000
0010
0100
0000
0010
0000
0000
,
1000
0000
0100
0000
0010
0000
0001
1000
0000
0010
0000
0000
,
1000
0001
0000
0010
0000
0000
0220
0000
0000
0330
0000
0000
,
1000
0000
1000
0100
0000
0000
0010
0000
0010
0001
0000
0000
,
1000
0000
1000
0010
0000
0000
0100
0000
0100
0001
0000
0000
,
1000
0000
0001
0100
0000
0000
0001
0000
1000
0100
0000
0000
,
0010
0010
0001
0001
1000
1000
,
0100
0010
0011
0100
0010
1010
,
2002
0000
0000
0000
,
0000
0000
0000
0000
0000
0000
3003
0000
0000
1000
0001
1000
,
0001
0000
0000
0000
,
0000
0000
0000
0000
;
#NOTES:
     dance-single:
     :
     Hard:
     16:
     :
0000
0000
0000
0000
,
0000
0000
0000
0000
,
0000
0000
0000
0000
,
0000
0000
0000
0000
,
0000
0000
0000
0000
,
1000
0000
0001
0100
0001
0000
1000
0000
0020
0000
0000
0000
1030
0000
0000
0000
,
0001
0000
1000
0100
1000
0000
0001
0000
0020
0000
0000
0000
0031
0000
0000
0000
,
1000
0000
0100
0010
0001
0000
0000
0000
0001
0000
0100
0010
1000
0000
0000
0000
,
0001
0100
1000
0100
0001
0001
1001
0000
,
1000
0000
0010
0100
0010
0000
1000
0000
0002
0000
0000
0000
0013
0000
0000
0000
,
0001
0000
0100
0010
0100
0000
0001
0000
2000
0000
0000
0000
3100
0000
0000
0000
,
1000
0000
0010
0100
0001
0000
0000
0000
1000
0000
0001
0100
0010
0000
0000
0000
,
1010
0000
0000
0011
0000
0000
2002
0000
0000
0000
0000
0000
3003
0000
0000
0000
,
2000
0000
3010
0000
,
0002
0000
0000
0000
0000
0000
0103
0000
0000
0010
1000
0010
,
1000
0010
1000
0010
0000
0000
1000
0000
0000
0001
0000
0000
,
0100
0100
0000
0010
0010
0000
1000
0000
,
2001
0000
3100
0000
,
1020
0000
0000
0000
0000
0000
0000
0000
0130
0000
0000
0000
0001
0100
0001
0100
,
0010
1000
0010
1000
0001
0000
0000
0000
0100
0000
0010
0000
0100
0000
0000
0000
,
0001
0001
0000
1000
1000
0000
1001
1001
,
0000
0110
0110
0000
0000
0000
0000
0000
,
1000
0000
0000
1000
0100
0000
0100
0010
,
0000
0010
0001
0000
0101
0000
1100
0000
,
0001
0000
0000
0001
0100
0000
0100
0010
,
0000
0010
1000
0000
1010
0000
0011
0000
,
1000
0000
0000
0100
0001
0000
0000
0100
,
0000
1000
0100
0000
1000
0100
0010
0001
,
0010
0000
0010
0100
0000
0200
0020
0000
,
0000
0000
0000
0000
0330
0000
0000
0000
1000
0000
1000
0000
0001
1000
0001
1000
,
0001
0000
0000
0010
0000
0000
0001
0000
1000
0000
0000
0010
0000
0000
1000
0000
,
0000
0001
0000
0000
1000
0100
0010
0001
1000
0000
0000
0100
0000
0000
0100
0000
,
0001
0000
0000
0100
0000
0000
0001
0000
1000
0000
0000
0100
0000
0000
1000
0000
,
0000
0001
0000
0000
0100
0001
1000
0010
1000
0000
0000
0010
0000
0000
0010
0000
,
0001
0000
0000
0100
0000
0000
0010
0000
1000
0000
0000
0100
0000
0000
0010
0000
,
0000
0001
0000
0000
1000
0010
0100
0001
0100
0000
0000
0010
0000
0000
0010
0000
,
0011
0011
0000
1100
1100
0000
0110
0110
,
0000
1001
1001
0000
0002
0000
2003
0000
,
3020
0000
0000
0000
0130
0010
0100
0010
0100
0001
1000
0000
0001
0000
1000
0000
,
0001
0000
0000
0100
0000
0000
0000
0000
0000
0001
0000
0000
0000
0000
0000
0100
0000
0000
0001
0000
0000
0000
0000
0000
1000
0000
0000
0000
0000
0000
0010
0000
0000
1000
0000
0000
0010
0000
0000
0000
0100
0000
0000
0000
0010
0000
0000
0000
,
0100
0000
0001
0000
0100
0000
0002
0000
0000
0000
0000
0000
1003
0000
0000
0100
0000
0000
0110
0000
0000
0000
0000
0000
,
1100
1100
0000
0101
0101
0000
1001
0000
,
0001
0000
0100
0010
0100
0000
0001
0000
1000
0000
0100
0010
0100
0000
1000
0000
,
0001
0000
0010
0100
1000
0000
0001
0000
0100
0000
0010
1000
0001
0000
0100
0000
,
0010
0000
1000
0100
1000
0000
0010
0000
0100
0000
0001
0010
0001
0000
0100
0000
,
0001
0000
0100
0010
1000
0000
0100
0000
0010
0000
0100
1000
0001
0000
0100
0000
,
0001
0000
0100
1000
0100
0000
0001
0000
0100
0000
1000
0100
1000
0000
0100
0000
,
0001
0000
0010
1000
0010
0000
0001
0000
1000
0000
0100
0000
0010
0000
0001
0000
,
1000
0000
0100
0010
0001
0000
1000
0000
0001
0010
0100
0000
1000
0001
1000
0001
,
0010
0001
0010
0100
0010
0100
0010
0000
0100
1000
0100
1000
0010
1000
0010
0000
,
1000
0000
0010
0100
0010
0000
1000
0000
0001
0000
0010
0100
0010
0000
0001
0000
,
1000
0000
0100
0010
0001
0000
1000
0000
0010
0000
0100
0001
1000
0000
0010
0000
,
0100
0000
0001
0010
0001
0000
0100
0000
0010
0000
1000
0100
1000
0000
0010
0000
,
1000
0000
0010
0100
0001
0000
0010
0000
0100
0000
0010
0001
1000
0000
0010
0000
,
1000
0000
0010
0001
0010
0000
1000
0000
0010
0000
0001
0010
0001
0000
0010
0000
,
1000
0000
0100
0000
0010
0001
0010
0100
1000
0000
0000
0010
0000
0000
1000
0000
,
0001
0000
0010
0100
1000
0000
0001
0000
1000
0000
0100
0010
0001
0000
1000
0000
,
1100
0100
0101
0100
2200
0000
3300
0000
,
1010
0000
0000
1010
0000
0000
1010
0000
0000
0011
0000
0000
0011
0000
0000
0011
,
0000
0000
1010
0000
0000
0011
0000
0000
1010
0000
0000
0011
0000
0000
1000
0100
,
0010
0000
0001
0010
0000
0001
0010
0000
0100
1000
0000
0100
1000
0000
0010
1000
,
0000
0010
1000
0000
0001
0100
0000
0001
0100
0000
0010
0100
0000
0010
0100
0000
,
0101
0000
0000
0101
0000
0000
0101
0000
0000
0011
0000
0000
1010
0000
0000
0011
,
0000
0000
1100
0000
0000
1100
0000
0000
1100
0000
0000
1010
0000
0000
0001
0100
,
0010
1010
1010
0100
0101
0101
,
0010
0000
0100
0000
0110
0000
2002
0000
0000
3003
0000
0000
,
1000
0000
0100
0010
0100
0000
2000
0000
0000
0000
3000
0000
0001
0010
0100
1000
,
0001
0000
0100
0010
0100
0000
0002
0000
0000
0000
0003
0000
1000
0100
0010
0001
,
1000
0010
1000
0010
0001
0010
0001
0010
,
1000
0001
1000
0001
1000
0001
1000
0001
1000
0001
1000
0001
1000
0001
1000
0001
,
1000
0001
1000
0001
1000
0001
1000
0001
0000
0000
0000
0000
0000
0000
0000
0000
,
1000
0000
1000
0000
1000
0000
0100
0010
0000
0010
0000
0001
,
0100
0010
0100
0010
0000
1000
0100
0010
0000
0110
0000
0000
,
0001
0000
0001
0000
0001
0000
0010
0100
0000
0100
0000
1000
,
0010
0100
0010
0100
0000
0001
0010
0000
0000
0110
0000
0000
,
0001
0000
0001
0000
0001
0000
1000
0010
0000
0010
0000
1000
,
0100
1000
0100
1000
0000
0010
0100
0001
0100
0001
0000
0000
,
1000
0000
1000
0000
1000
0000
0001
0010
0000
0010
0000
0001
,
0100
0001
0100
0001
0000
0001
2000
0000
0000
0000
0000
0000
,
3001
0010
0001
0010
0001
0010
0001
0100
0001
0100
0000
0010
,
1000
0010
1000
0010
1000
0010
1000
0100
1000
0100
0000
1000
,
0001
0100
0001
0100
0000
0001
1000
0100
1000
0100
0000
1000
,
0001
0010
0100
1000
0001
0010
0100
1000
0001
0010
0100
1000
,
0001
0011
0101
1000
1010
1100
,
2002
0000
0000
0000
,
0000
0000
0000
0000
0000
0000
3003
0000
0000
0001
1000
0001
,
1001
0000
0000
0000
,
0000
0000
0000
0000
;
#NOTES:
     dance-double:
     :
     Easy:
     9:
     :
00000000
00000000
00000000
00000000
,
00000000
00000000
00000000
00000000
,
00000000
00000000
00000000
00000000
,
00000000
00000000
00000000
00000000
,
00000000
00000000
00000000
00000000
,
10000000
01000000
10000000
00000000
,
00100000
01000000
00100000
00000000
,
01000000
00010000
00100000
00010000
,
00100000
00001000
00100000
00001000
00010000
00000000
00000000
00000000
,
00000010
00001000
00000010
00000000
,
00000100
00000010
00000100
00000000
,
00000001
00000010
00000100
00001000
,
00000010
00000100
00000010
00000100
00000010
00000000
00000000
00000000
,
00002000
00000000
00003200
00000000
,
00020300
00000000
00031000
00100000
,
00010000
00110000
10000000
10000000
,
01000000
00000000
00000000
01000000
00000000
00000000
00100000
00000000
,
02100000
00000000
03200000
00000000
,
00302000
00000000
00013000
00000010
,
00001000
00001010
00000001
00000001
,
00000100
00000000
00000000
00000100
00000000
00000000
00000010
00000000
,
00000000
00000010
00000000
00000000
00000000
00000000
00000000
00000000
,
00002000
00000000
00003001
00000000
,
00000100
00001000
00010000
00000000
,
00002000
00000000
00013000
00000000
,
00001000
00010000
00001000
00000000
,
00020000
00000000
00130000
00000000
,
10000000
00100000
10000000
00100000
,
01000000
00100000
01000000
01000000
,
00010000
10000000
00010000
00010000
,
10000000
01000000
00100000
00010000
,
00100000
00000000
00001000
00010000
00001000
00000000
00010000
00000000
,
00000010
00001000
00000010
00001000
,
00000100
00000000
00000010
00000001
00000010
00000000
00000001
00000000
,
00000100
00001000
00000100
00001000
,
00010000
00000000
00001000
00010000
00001000
00000000
00010000
00000000
,
00001000
00100000
00000000
00001000
00100000
00000000
00010000
01000000
,
00000000
00010000
01000000
00000000
00200000
00000000
20300000
00000000
,
31000000
00000000
00100000
01000000
00100000
00000000
00010000
00100000
,
00010000
00000000
00100000
00001000
00100000
00000000
00001000
00000000
,
00010000
00000000
00000010
00000000
00001000
00000100
00001000
00000000
,
00000001
00000000
00000000
00000101
00000000
00000000
00000110
00000000
,
00000001
00000100
00000001
00000010
,
00000100
00000100
00001000
00000000
,
00000100
00010000
00001000
00010000
,
00001000
00001000
00100000
00000000
,
00010000
01000000
00100000
10000000
,
01000000
00100000
00010000
00000000
,
00100000
00001000
00010000
00001000
,
00000100
00000010
00000100
00000100
,
00000001
00000100
00001000
00000100
,
00000010
00000000
00001000
00000100
00001000
00000000
00000010
00000000
,
00010000
00001000
00010000
00100000
,
01000000
00000000
00010000
00100000
00010000
00000000
01000000
00000000
,
00100000
10000000
01000000
00010000
,
00001000
00000000
00000010
00000100
00000010
00000000
00000001
00000000
,
00001000
00000100
00001000
00000000
00000001
00000100
00000001
00000000
,
00000100
00001000
00022000
00033000
,
00001000
00000000
00000000
00001000
00000000
00000000
00101000
00000000
,
00000000
00101000
00000000
00000000
00010000
00100000
00010000
00000000
,
10000000
00000000
00000000
10000000
00000000
00000000
11000000
00000000
,
00000000
11000000
00000000
00000000
00100000
00010000
00100000
00000000
,
00001000
00000000
00000000
00001000
00000000
00000000
00011000
00000000
,
00000000
00011000
00000000
00000000
00010000
00000100
00010000
00000000
,
00001100
00000000
00000101
00000000
,
00000001
00001000
00002002
00003003
,
00000001
00000000
00000010
00000200
00000000
00000000
00000300
00000000
,
00000010
00000000
00001000
00020000
00000000
00000000
00030000
00000000
,
00001000
00000000
00010000
00000000
01000000
10000000
00010000
00000000
,
20020000
00000000
00000000
00000000
,
00000000
00000000
30030000
00000000
,
10000000
00000000
10000000
00000000
,
00100000
00100000
01000000
00000000
,
00001000
00000000
00001000
00000000
,
00010000
00010000
00000010
00000000
,
00000100
00000000
00000100
00000000
,
00000001
00000001
00000010
00000000
,
00000100
00000000
00000100
00000000
,
00010000
00010000
00011000
00000000
,
00001000
00010000
00100000
10000000
,
00100000
00010000
00001000
00000100
,
00000001
00000100
00001000
00010000
,
01000000
01000000
10000000
10000000
00010000
00010000
,
00100000
00001000
00100000
00001000
00010000
00001000
,
00020000
00000000
00000000
00000000
,
00000000
00000000
00000000
00030000
,
00011000
00000000
00000000
00000000
,
00000000
00000000
00000000
00000000
;
#NOTES:
     dance-double:
     :
     Medium:
     12:
     :
00000000
00000000
00000000
00000000
,
00000000
00000000
00000000
00000000
,
00000000
00000000
00000000
00000000
,
00000000
00000000
00000000
00000000
,
00000000
00000000
00000000
00000000
,
10000000
01000000
10000000
01000000
00200000
00000000
00310000
00000000
,
01000000
00001000
01000000
00001000
00020000
00000000
00031000
00000000
,
00010000
00001000
00000010
00000000
00000001
00000100
00000010
00000000
,
00001000
00000100
00010000
00001000
00100000
00010000
01000000
00000000
,
00010000
01000000
00010000
01000000
00200000
00000000
10300000
00000000
,
00010000
00100000
00010000
00100000
00002000
00000000
00013000
00000000
,
00000100
00001000
00000010
00000000
00000100
00000001
00000010
00000000
,
00000100
00010000
00001000
01000000
00010000
10000000
00100000
00000000
,
20000000
00000000
31000000
00000000
,
00200000
00000000
00310000
00101000
,
00011000
00010100
00000200
00000000
,
00000310
00000010
00000000
00000001
00000001
00000000
00001000
00000001
,
00002000
00000000
00003100
00000000
,
00020000
00000000
00031000
01001000
,
01010000
00110000
00200000
00000000
,
01300000
01000000
00000000
10000000
10000000
00000000
00100000
01000000
,
00000000
00001000
00010000
00000000
00000000
00000000
00000000
00000000
,
00001000
00000000
00000000
00010000
00000010
00000000
00001000
00000010
,
00000000
00000100
00000010
00000000
00001000
00000000
00001000
00000000
,
00000001
00000000
00000000
00000001
00000100
00000000
00000001
00001000
,
00000000
00000100
00001000
00000000
00000100
00000000
00000100
00000000
,
00010000
00000000
00000000
01000000
00100000
00000000
00000000
01000000
,
00000000
00010000
00001000
00000000
00010000
00001000
00010000
00000000
,
00000010
00000000
00000010
00001000
00000000
00001000
00000002
00000000
,
00000000
00000000
00000000
00000000
00001003
00001000
00001000
00000000
,
00000001
00000100
00000001
00000100
00000010
00001000
00000010
00001000
,
00000000
00001000
00000100
00000010
00000100
00010000
00001000
00000000
,
00100000
00010000
00100000
00010000
01000000
00010000
01000000
00010000
,
00000000
00010000
00100000
01000000
10000000
00100000
10000000
00000000
,
01000000
00000000
00000000
00010000
00000000
00000000
00001000
00000000
00000010
00000000
00000000
00000001
00000000
00000000
00000100
00000000
,
00000000
00000010
00000000
00000000
00000100
00000000
00000001
00000000
00001000
00000000
00000000
00001000
00000000
00000000
00001000
00000000
,
00000100
00010000
00000000
00001000
00100000
00000000
00010000
01000000
,
00000000
00100000
10000000
00000000
00020000
00000000
20030000
00000000
,
31000000
00100000
01000000
00100000
00001000
00010000
00001000
00010000
,
00000100
00000010
00000100
00000010
00000001
00000000
00000200
00000000
,
00002300
00000000
00023000
00000000
00130000
10000000
00100000
10000000
,
00010000
00010000
00000000
01000000
01000000
00000000
01100000
00000000
,
00100000
10000000
01000000
00000000
00100000
00010000
01000000
00000000
,
00100000
00010000
00001000
00000000
00000100
00000010
00010000
00000000
,
00000100
00000010
00000001
00000000
00000100
00000010
00001000
00000000
,
00000001
00000100
00001000
00000000
00010000
00100000
10000000
00000000
,
01000000
00100000
00010000
00000000
01000000
10000000
01000000
00000000
,
00010000
00100000
01000000
00000000
10000000
01000000
00010000
00000000
,
00001000
00000010
00000100
00000000
00001000
00000010
00001000
00000010
,
00000100
00000001
00000010
00000100
00001000
00010000
00100000
01000000
,
10000000
00100000
01000000
00010000
01000000
00100000
10000000
01000000
,
00100000
00001000
00010000
00001000
00000010
00000100
00001000
00000001
,
00000100
00000010
00001000
00000001
00000100
00000010
00001000
00000100
,
00010000
00001000
00010000
01000000
10000000
00010000
00100000
00000000
,
00010000
01000000
00100000
10000000
00010000
00100000
01000000
10000000
,
01000000
00100000
00001000
00010000
00001000
00000100
00000001
00000010
,
00000100
00000100
00000100
00000000
00000010
00000010
00000010
00000000
,
00000001
00000100
00001000
00010000
00002000
00000000
00003000
00000000
,
00100000
00000000
00000000
00100000
00000000
00000000
00010000
00000000
00000000
00010000
00000000
00000000
10000000
00000000
00000000
10000000
,
00000000
00000000
00100000
00000000
00000000
00100000
00000000
00000000
00010000
00000000
00000000
00001000
00000000
00000000
00010000
00000000
,
00001000
00000000
00000000
00001000
00000000
00000000
00000010
00000000
00000000
00000010
00000000
00000000
00000001
00000000
00000000
00000001
,
00000000
00000000
00000100
00000000
00000000
00000100
00000000
00000000
00000010
00000000
00000000
00001000
00000000
00000000
00000100
00000000
,
00010000
00000000
00000000
00010000
00000000
00000000
00000100
00000000
00000000
00000100
00000000
00000000
00010000
00000000
00000000
00010000
,
00000000
00000000
00001000
00000000
00000000
00001000
00000000
00000000
01000000
00000000
00000000
01000000
00000000
00000000
00010000
00000000
,
10000000
00100000
00010000
00001000
00000100
00000001
,
00000010
00000000
00000010
00000000
00000010
00000000
00000020
00000000
00000000
00000030
00000000
00000000
,
00000001
00000100
00000001
00000200
00000000
00000000
00000300
00000000
,
00000010
00001000
00000010
00002000
00000000
00000000
00003000
00000000
,
00010000
01000000
00010000
01000000
00100000
10000000
00100000
10000000
,
00200000
00000000
00000000
00000000
,
00000000
00000000
00300000
00000000
,
00100000
00000000
10000000
00000000
00100000
00000000
10000000
01000000
00000000
01000000
00000000
00000000
,
00100000
00010000
00000000
00010000
00000000
00000000
00100000
00001000
00000000
00001000
00000000
00000000
,
00010000
00000000
00000100
00000000
00010000
00000000
00000100
00001000
00000000
00001000
00000000
00000000
,
00000010
00000100
00000000
00000100
00000000
00000000
00000110
00000000
00000000
00001001
00000000
00000000
,
00000010
00000000
00000001
00000000
00000010
00000000
00000001
00000100
00000000
00000100
00000000
00000000
,
00000010
00001000
00000000
00001000
00000000
00000000
00000010
00010000
00000000
00010000
00000000
00000000
,
00001000
00000000
01000000
00000000
00001000
00000000
01000000
00010000
00000000
00010000
00000000
00000000
,
00100000
01000000
00000000
01000000
00000000
00000000
02200000
00000000
00000000
03300000
00000000
00000000
,
10000000
00000000
10000000
01000000
00000000
00000000
00100000
00000000
00100000
00010000
00000000
00000000
,
00001000
00000000
00001000
00000100
00000000
00000000
00000010
00000000
00000010
00000001
00000000
00000000
,
00000001
00000000
00000100
00000010
00000000
00000000
00010000
00000000
00001000
01000000
00000000
00000000
,
00010000
00100000
10000000
00100000
00001000
00000010
,
00000001
00000100
00001000
00010000
00100000
10000000
,
20020000
00000000
00000000
00000000
,
00000000
00000000
00000000
00000000
00000000
00000000
30030000
00000000
00000000
00010000
10000000
00010000
,
10000000
00000000
00000000
00000000
,
00000000
00000000
00000000
00000000
;
#NOTES:
     dance-double:
     :
     Hard:
     16:
     :
00000000
00000000
00000000
00000000
,
00000000
00000000
00000000
00000000
,
00000000
00000000
00000000
00000000
,
00000000
00000000
00000000
00000000
,
00000000
00000000
00000000
00000000
,
10000000
00000000
01000000
00100000
01000000
00000000
00010000
00000000
00002000
00000000
00000000
00000000
00003000
00000000
00000000
00000000
,
00001000
00000000
00010000
00000100
00010000
00000000
00000100
00000000
00000020
00000000
00000000
00000000
00000030
00000000
00000000
00000000
,
00000010
00000001
00000100
00001000
00010000
00001000
00000010
00000001
,
00000100
00001000
00010000
00100000
10000000
10000000
10000000
00000000
,
00010000
00000000
01000000
00100000
01000000
00000000
10000000
00000000
02000000
00000000
00000000
00000000
03000000
00000000
00000000
00000000
,
01000000
00000000
00001000
00010000
00001000
00000000
00010000
00000000
00000020
00000000
00000000
00000000
00000030
00000000
00000000
00000000
,
00000010
00000100
00001000
00010000
00000010
00000100
00001000
00010000
,
00000010
00000000
00000000
00010000
00000000
00000000
00022000
00000000
00000000
00000000
00000000
00000000
00033000
00000000
00000000
00000000
,
00002000
00000000
00003010
00000000
,
00020000
00000000
00000000
00000000
00000000
00000000
00130000
00000000
00000000
10000000
00100000
10000000
,
00100000
10000000
00100000
10000000
00000000
00000000
01000000
00000000
00000000
01100000
00000000
00000000
,
00100000
00100000
00000000
00001000
00001000
00000000
00010000
00000000
,
00020000
00000000
01030000
00000000
,
00002000
00000000
00000000
00000000
00000000
00000000
00000000
00000000
00003100
00000000
00000000
00000000
00000001
00000100
00000001
00000100
,
00000001
00001000
00000001
00001000
00000001
00000000
00000000
00000000
00000100
00000000
00000000
00000000
00000110
00000000
00000000
00000000
,
00000010
00000010
00000000
00010000
00010000
00000000
00001000
00001000
,
00000000
00011000
00011000
00000000
00000000
00000000
00000000
00000000
,
00001000
00000000
00000000
00001000
00010000
00000000
00010000
00100000
,
00000000
00100000
10000000
00000000
00010000
10000000
00010000
00000000
,
10000000
00000000
00000000
10000000
01000000
00000000
01000000
00010000
,
00000000
00010000
00001000
00000000
00001000
00000010
00000001
00000000
,
00001000
00000000
00000000
00000001
00000100
00000000
00000000
00001000
,
00000000
00010000
00001000
00000000
00000100
00000001
00000010
00000000
,
00000100
00000000
00000100
00010000
00000000
00020000
00002000
00000000
,
00000000
00000000
00000000
00000000
00033000
00000000
00000000
00000000
00010000
00000000
00010000
00000000
00001000
00010000
00001000
00010000
,
00001000
00000000
00000000
01000000
00000000
00000000
00100000
00000000
10000000
00000000
00000000
00100000
00000000
00000000
01000000
00000000
,
00000000
00001000
00000000
00000000
00010000
00001000
00010000
00001000
00010000
00000000
00000000
00001000
00000000
00000000
00001000
00000000
,
00010000
00000000
00000000
00000100
00000000
00000000
00000010
00000000
00000001
00000000
00000000
00000010
00000000
00000000
00000100
00000000
,
00000000
00010000
00000000
00000000
00001000
00010000
00001000
00010000
00001000
00000000
00000000
00010000
00000000
00000000
00010000
00000000
,
00001000
00000000
00000000
01000000
00000000
00000000
10000000
00000000
01000000
00000000
00000000
00010000
00000000
00000000
00100000
00000000
,
00000000
00001000
00000000
00000000
00010000
00001000
00010000
00001000
00010000
00000000
00000000
00000100
00000000
00000000
00000010
00000000
,
00000001
00000011
00000000
00001000
00001100
00000000
00000100
00010100
,
00000000
00010000
00011000
00000000
00002000
00000000
00203000
00000000
,
00320000
00000000
00000000
00000000
10030000
01000000
10000000
01000000
00100000
00010000
00100000
00000000
00010000
00000000
10000000
00000000
,
01000000
00000000
00000000
00100000
00000000
00000000
00000000
00000000
00000000
01000000
00000000
00000000
00000000
00000000
00000000
00100000
00000000
00000000
01000000
00000000
00000000
00000000
00000000
00000000
00010000
00000000
00000000
00000000
00000000
00000000
00001000
00000000
00000000
00000000
00000000
00000000
00000010
00000000
00000000
00000000
00000001
00000000
00000000
00000000
00000010
00000000
00000000
00000000
,
00000100
00000000
00001000
00000000
00000100
00000000
00002000
00000000
00000000
00000000
00000000
00000000
00003010
00000000
00000000
00000100
00000000
00000000
00000110
00000000
00000000
00000000
00000000
00000000
,
00000001
00000100
00000000
00001000
00010000
00000000
01100000
00000000
,
10000000
00000000
00100000
10000000
00100000
00000000
01000000
00000000
00010000
00000000
00100000
01000000
00100000
00000000
00010000
00000000
,
01000000
00001000
00010000
00100000
00010000
00001000
01000000
00010000
,
00100000
00000000
00001000
00010000
00001000
00000000
00000010
00000000
00000100
00000000
00001000
00000010
00001000
00000000
00000100
00000000
,
00000010
00001000
00010000
00000100
00010000
00001000
00000010
00000001
,
00000100
00000000
00001000
00010000
00001000
00000000
00010000
00000000
00100000
00000000
01000000
00010000
01000000
00000000
00010000
00000000
,
00100000
00000000
01000000
00010000
01000000
00000000
00010000
00000000
00001000
00000000
00000010
00000000
00000001
00000000
00000010
00000000
,
00001000
00000000
00010000
00000000
00010000
00000000
00001000
00000000
00000100
00000000
00000100
00000000
00000001
00000100
00000001
00000000
,
00000010
00000100
00001000
00000000
00000010
00000100
00000001
00000000
00000100
00000010
00000100
00000010
00001000
00000010
00001000
00000000
,
00000001
00000000
00000100
00000001
00000100
00000000
00000010
00000000
00001000
00000000
00000100
00000010
00000100
00000000
00001000
00000000
,
00000010
00010000
00001000
00000100
00001000
00010000
00000010
00001000
,
00000100
00000000
00010000
00001000
00010000
00000000
01000000
00000000
00100000
00000000
00010000
01000000
00010000
00000000
00100000
00000000
,
01000000
00010000
00001000
00100000
00001000
00010000
01000000
10000000
,
00100000
00000000
00010000
00001000
00010000
00000000
00001000
00000000
00000100
00000000
00000010
00001000
00000010
00000000
00001000
00000000
,
00000100
00000000
00000010
00001000
00000010
00000000
00001000
00000000
00010000
00000000
01000000
00000000
10000000
00000000
01000000
00000000
,
00100000
00010000
00100000
00010000
00100000
00000000
00000000
00000000
00001000
00010000
00001000
00010000
00001000
00000000
00000000
00000000
,
00000010
00001000
00010000
00001000
00022000
00000000
00033000
00000000
,
00010000
00000000
00000000
00000100
00000000
00000000
00001100
00000000
00000000
00000010
00000000
00000000
00000001
00000000
00000000
00000011
,
00000000
00000000
00000001
00000000
00000000
00001000
00000000
00000000
00001100
00000000
00000000
00000110
00000000
00000000
00000001
00000100
,
00000010
00000000
00001000
00000010
00000000
00001000
00000010
00000000
00010000
00001000
00000000
00010000
00001000
00000000
01000000
00010000
,
00000000
01000000
00010000
00000000
10000000
00100000
00000000
10000000
00100000
00000000
10000000
01000000
00000000
10000000
01000000
00000000
,
11000000
00000000
00000000
11000000
00000000
00000000
11000000
00000000
00000000
00110000
00000000
00000000
00011000
00000000
00000000
00110000
,
00000000
00000000
00011000
00000000
00000000
00011000
00000000
00000000
00011000
00000000
00000000
00001010
00000000
00000000
00001000
00000100
,
00000010
00000011
00000011
00000100
00001100
00001100
,
00010000
00000000
00001000
00000000
00010000
00000000
00022000
00000000
00000000
00033000
00000000
00000000
,
00010000
00000000
00100000
01000000
00100000
00000000
00020000
00000000
00000000
00000000
00030000
00000000
00011000
00000000
00000000
00000000
,
00001000
00000000
00000010
00000100
00000010
00000000
00002000
00000000
00000000
00000000
00003000
00000000
00011000
00000000
00000000
00000000
,
00010000
00100000
10000000
01000000
00010000
00001000
00000010
00000001
,
00000100
00000000
00000010
00001000
00000010
00000000
00001000
00000100
00001000
00000000
00000100
00010000
00000100
00000000
00010000
00001000
,
00010000
00000000
00001000
01000000
00001000
00000000
01000000
00010000
00000000
00000000
00000000
00000000
00000000
00000000
00000000
00000000
,
10000000
00000000
10000000
00000000
10000000
00000000
01000000
00100000
00000000
01100000
00000000
01000000
,
00010000
00001000
00010000
00001000
00000000
00001000
00000010
00000100
00000000
00000110
00000000
00000000
,
00000001
00000000
00000001
00000000
00000001
00000000
00000100
00000010
00000000
00000110
00000000
00000100
,
00001000
00010000
00001000
00010000
00000000
00010000
00100000
00000000
00000000
01100000
00000000
00000000
,
10000000
00000000
10000000
00000000
10000000
00000000
01000000
00010000
00000000
01000000
00000000
10000000
,
00100000
10000000
00100000
00010000
00000000
00001000
00000100
00001000
00000100
00000001
00000000
00000000
,
00001000
00000000
00001000
00000000
00001000
00000000
00000001
00000010
00000000
00001000
00000000
00010000
,
00001000
00010000
00001000
00010000
00000000
00010000
02000000
00000000
00000000
00000000
00000000
00000000
,
13000000
00100000
10000000
00100000
10000000
00100000
01000000
00100000
01000000
00100000
00000000
01000000
,
00010000
00100000
00010000
00100000
00010000
00100000
00001000
00010000
00001000
00010000
00000000
00000100
,
00001000
00000010
00001000
00000010
00000000
00000100
00000001
00000010
00000001
00000010
00000000
00000100
,
00010000
00000100
00000010
00001000
00010000
00000100
00000010
00001000
00010000
00000100
00000010
00001000
,
00010000
00100000
00100000
10000000
01000000
01000000
,
20020000
00000000
00000000
00000000
,
00000000
00000000
00000000
00000000
00000000
00000000
30030000
00000000
00000000
10000000
01000000
00010000
,
00011000
00000000
00000000
00000000
,
00000000
00000000
00000000
00000000
;
